osu file format v5

[General]
AudioFilename: Kitasaitama2000.mp3
AudioLeadIn: 2007
PreviewTime: -1
Countdown: 1
SampleSet: Soft
EditorBookmarks: 117514

[Metadata]
Title:Kita Saitama2000
Artist:Taiko no Tatsujin
Creator:aquabluu
Version:Hard

[Difficulty]
HPDrainRate:5
CircleSize:5
OverallDifficulty:7
SliderMultiplier:1
SliderTickRate:2

[Events]
//Background and Video events
//Break Periods
2,42926,50477
2,81786,88010
//Storyboard Layer 0 (Background)
//Storyboard Layer 1 (Failing)
//Storyboard Layer 2 (Passing)
//Storyboard Layer 3 (Foreground)
//Storyboard Sound Samples
//Background Colour Transformations
3,100,255,255,255

[TimingPoints]
15,270.331155665691,4,2,0,100
59240,269.094497017536,4,2,0,100
73220,270.331155665691,4,2,0,100
97330,269.094497017536,4,2,0,100
118080,270.331155665691,4,2,0,100

[HitObjects]
416,64,15,1,4
96,64,1096,5,0
96,224,1636,1,0
192,96,2177,1,4
457,155,3258,5,0
352,288,3799,1,0
320,128,4340,1,4
96,160,5421,5,0
96,320,5962,1,0
192,192,6502,1,4
350,293,7584,5,0
454,196,8124,1,0
270,195,8665,1,2
358,88,9206,1,0
196,89,9746,1,2
94,201,10287,1,0
196,301,10828,2,2,B|228:269|260:269|292:301|356:333|388:269,3,200
309,103,12990,5,0
272,164,13261,1,0
344,165,13531,1,0
380,102,13801,1,0
341,40,14072,1,2
268,43,14342,1,2
242,103,14612,1,2
197,49,14883,1,2
130,94,15153,6,0,B|104:100|96:140,7,50
113,163,16234,5,0
79,180,16370,1,0
101,204,16505,1,2
134,204,16640,1,2
166,218,16775,1,0
152,246,16910,1,0
127,252,17045,1,2
107,270,17181,1,2
109,294,17316,1,4
285,302,17856,5,0
308,281,17992,1,2
385,302,18262,1,0
362,278,18397,1,2
335,264,18532,2,2,B|333:141,1,100
336,142,18938,1,4
421,93,19208,5,2
344,50,19478,1,4
246,63,19749,5,0
160,40,20019,1,0
88,109,20289,1,0
193,138,20560,1,2
234,150,20695,2,2,B|233:190|216:216|169:236,1,100
159,213,21100,2,0,B|105:234|112:303,1,100
146,313,21506,1,0
239,328,21776,1,0
262,303,21911,1,4
336,341,22182,5,0
350,312,22317,2,2,B|361:261|361:261|319:259|312:223,1,100
348,208,22722,1,4
403,117,22993,5,0
410,164,23128,2,2,B|410:199|410:199|440:207|442:228|415:258,2,100
365,150,23804,1,4
306,85,24074,5,0
244,25,24344,1,0
156,52,24615,2,0,B|143:115|216:144,1,100
229,138,25020,1,0
268,153,25155,2,2,B|271:184|236:203,7,50
211,196,26237,6,0,B|118:200|104:38|104:38|-32:128|78:312,1,500
128,320,27859,1,0
182,337,28129,2,0,B|371:356|496:144|496:144|400:243|286:177,1,600
267,117,30021,5,0
289,157,30156,1,2
305,186,30292,2,2,B|398:190|412:28|412:28|548:118|438:302,1,500
368,272,31914,1,0
330,337,32184,2,0,B|141:356|16:144|16:144|112:243|261:197,1,650
257,116,34211,5,0
221,114,34346,1,2
180,124,34481,2,0,B|120:123|107:163|107:163|135:57|236:14|312:10|397:23|473:81|486:127,1,550
442,173,36238,1,0
384,127,36509,2,0,B|365:148|407:175|407:175|361:169|345:173,6,100
267,117,38401,5,0
289,157,38536,1,2
305,186,38671,2,2,B|398:190|412:28|412:28|548:118|438:302,1,500
365,265,40293,1,0
330,337,40564,2,0,B|141:356|16:144|16:144|112:243|261:197,1,650
284,162,42456,1,0
238,94,42726,1,4
30,106,51377,5,0
214,30,52188,1,0
161,90,52458,1,0
215,148,52728,1,2
273,93,52999,1,2
323,154,53269,1,4
458,248,54080,5,0
412,175,54350,1,0
372,250,54621,1,2
302,320,54891,1,0
302,320,54959,1,0
302,320,55026,1,2
266,291,55161,1,2
191,243,55432,1,0
261,196,55702,1,4
369,52,56243,5,0
282,52,56513,1,0
329,118,56783,1,0
409,118,57054,1,2
499,121,57324,2,2,B|497:176|430:211,1,100
370,188,57865,1,0
290,202,58135,1,0
182,168,58405,1,0
259,115,58676,1,0
195,55,58946,1,4
121,98,59216,6,0,B|87:99|86:145|28:136,3,100
26,224,60316,1,0
67,197,60450,1,0
109,197,60585,1,2
92,286,60854,1,2
139,284,60988,1,2
175,252,61123,1,0
266,258,61392,6,0,B|267:210|239:176|218:171,3,100
294,125,62468,1,2
334,138,62603,1,0
350,179,62737,1,2
428,159,63007,1,0
452,191,63141,1,2
440,226,63276,1,0
470,254,63410,1,2
387,282,63679,6,0,B|328:284|328:329|279:327,3,100
232,260,64756,1,0
254,222,64890,1,2
246,179,65025,1,2
152,211,65294,1,0
124,238,65428,1,2
126,275,65563,1,0
30,215,65967,6,0,B|65:248|12:260|35:323,3,100
131,338,67043,1,0
175,344,67178,1,0
211,320,67312,1,2
160,245,67581,1,2
192,217,67716,1,2
236,220,67850,1,0
310,291,68119,6,0,B|285:243|341:228|312:172,3,100
296,110,69196,1,2
257,115,69330,1,0
233,144,69465,1,2
144,103,69734,1,0
109,120,69868,1,2
71,134,70003,1,0
46,166,70138,1,2
85,252,70407,6,0,B|144:254|144:299|193:297,3,100
272,290,71483,1,0
250,252,71618,1,2
258,209,71752,1,2
356,256,72021,1,0
390,280,72156,1,2
420,292,72290,2,4,B|452:320|489:220,1,100
488,200,72694,1,4
383,133,73220,5,0
351,108,73355,1,2
380,35,73625,1,0
349,52,73760,1,2
319,80,73895,2,2,B|216:83,1,100
198,83,74301,1,4
123,53,74571,5,0
56,108,74841,1,0
11,180,75112,1,2
81,211,75382,2,2,B|121:193|186:214,2,100
111,283,76193,1,0
188,315,76463,1,0
224,305,76599,2,2,B|281:292|329:319,2,100
233,266,77274,1,2
275,183,77545,5,0
235,170,77680,2,0,B|232:132|270:117|310:132|315:163,1,100
324,185,78085,1,4
394,123,78356,5,0
440,109,78491,2,0,B|435:82|389:63|357:68|357:109,1,100
332,72,78896,1,0
250,21,79167,1,4
192,95,79437,5,0
127,35,79707,1,0
35,67,79978,2,0,B|23:94|59:103,1,50
93,102,80248,1,0
104,135,80383,1,2
256,192,80518,12,0,81600
256,192,88628,12,0,90791
110,59,91872,5,0
61,196,92413,1,0
108,321,92954,2,4,B|158:289|215:352|314:268,1,200
418,160,94035,5,0
384,95,94305,1,0
324,41,94576,2,2,B|292:21|283:89|212:33,1,100
166,94,95116,1,0
208,164,95387,1,2
264,224,95657,2,2,B|295:188|328:252|367:193,1,100
435,236,96198,2,2,B|448:212|434:186,4,50
391,98,97330,6,0,B|425:99|426:145|484:136,3,100
486,224,98406,1,0
445,197,98540,1,0
401,196,98675,1,2
420,286,98944,1,2
373,284,99078,1,2
337,252,99213,1,0
257,259,99482,6,0,B|256:211|284:177|305:172,3,100
217,125,100559,1,2
178,138,100693,1,0
165,179,100828,1,2
78,155,101097,1,0
58,186,101232,1,2
26,212,101366,1,0
40,249,101501,1,2
125,282,101770,6,0,B|184:284|184:329|233:327,3,100
280,260,102846,1,0
258,222,102981,1,2
266,179,103115,1,2
360,211,103384,1,2
388,237,103519,1,2
386,275,103653,1,0
472,240,104057,6,2,B|476:184|428:145,1,100
400,143,104461,2,0,B|463:106|456:64,1,100
488,57,104864,2,2,B|441:31|382:45,1,100
346,40,105268,1,0
259,17,105537,1,2
239,93,105806,1,0
154,59,106075,1,0
95,119,106344,1,2
174,147,106614,2,2,B|175:202|121:236,1,100
89,216,107017,2,0,B|121:275|181:259,1,100
194,231,107421,2,4,B|172:318|219:331,1,100
243,322,107824,5,0
286,334,107959,1,2
330,312,108094,1,2
293,225,108363,1,2
328,200,108497,1,0
369,215,108632,1,0
448,278,108901,2,2,B|487:229|465:184,3,100
493,94,109977,1,4
408,42,110246,1,4
384,150,110515,1,4
356,142,110650,6,0,B|352:84|296:60,1,100
280,68,111054,2,2,B|248:125|265:165,1,100
237,172,111457,2,2,B|188:173|156:94,1,100
134,90,111861,1,0
94,76,111995,1,0
67,92,112130,1,2
24,183,112399,1,0
53,203,112534,1,2
90,189,112668,1,4
144,265,112937,6,0,B|132:329|192:357,1,100
213,332,113341,1,2
244,312,113475,2,2,B|276:284|276:217,1,100
288,187,113879,1,0
332,192,114014,2,0,B|331:239|383:280,1,100
412,272,114417,1,2
449,255,114552,2,2,B|472:203|428:140,1,100
428,132,114955,1,0
411,108,115090,2,0,B|424:59|339:45,1,100
321,61,115494,1,0
285,65,115628,1,2
212,48,115897,1,0
156,104,116166,1,0
232,134,116435,1,2
316,140,116705,2,4,B|337:180|270:203|326:254,2,100
397,145,117512,5,0
248,203,118080,1,0
204,208,118215,1,0
104,245,118485,1,0
128,272,118620,1,2
156,288,118755,2,2,B|206:317|308:277,1,150
438,218,119431,1,4
