osu file format v8

[General]
AudioFilename: kimi no akari.mp3
AudioLeadIn: 0
PreviewTime: 72928
Countdown: 0
SampleSet: Normal
StackLeniency: 0.7
Mode: 0
LetterboxInBreaks: 1
StoryFireInFront: 0
SkinPreference:taiko

[Editor]
Bookmarks: 123062,124458
DistanceSpacing: 0.7
BeatDivisor: 4
GridSize: 8

[Metadata]
Title:Kimi no Akari
Artist:Taiko no Tatsujin
Creator:aquabluu
Version:Futsuu
Source:
Tags:taikosu

[Difficulty]
HPDrainRate:3
CircleSize:4
OverallDifficulty:4
ApproachRate:4
SliderMultiplier:1.4
SliderTickRate:1

[Events]
//Background and Video events
0,0,"bgkimi.jpg"
//Break Periods
//Storyboard Layer 0 (Background)
//Storyboard Layer 1 (Fail)
//Storyboard Layer 2 (Pass)
//Storyboard Layer 3 (Foreground)
//Storyboard Sound Samples
//Background Colour Transformations
3,100,163,162,255

[TimingPoints]
1900,465.116284829721,4,1,1,100,1,0
72597,-100,4,1,1,100,0,1
128179,-100,4,1,1,100,0,0

[HitObjects]
64,64,2365,1,2
64,256,3295,1,2
256,256,4225,1,2
256,64,5155,1,2
448,64,6085,1,2
448,264,7016,1,2
272,184,7946,5,0
344,248,8411,1,0
272,312,8876,1,0
200,248,9341,2,0,B|112:248|72:320,1,140,0|2
72,112,10737,5,2
160,64,11202,1,0
248,112,11667,1,2
416,208,12597,1,2
328,256,13062,1,0
240,208,13527,1,2
384,72,14458,5,2
456,144,14923,1,0
384,208,15388,1,2
224,96,16318,1,2
224,192,16783,1,0
72,112,18644,5,0
160,64,19109,1,2
256,40,19574,1,0
352,64,20039,1,0
440,112,20504,2,0,B|504:160|480:240,1,140,0|2
296,160,21899,5,2
208,112,22365,1,0
120,160,22830,1,2
208,208,23295,1,0
296,256,23760,1,2
296,256,23992,1,0
208,304,24458,1,0
440,112,26085,5,0
352,64,26550,1,2
256,40,27015,1,0
160,64,27480,1,0
72,112,27945,2,0,B|8:160|32:240,1,140,0|2
208,160,29340,5,2
296,112,29806,1,0
384,160,30271,1,2
296,208,30736,1,0
208,256,31201,1,2
208,256,31433,1,0
296,304,31899,1,0
64,56,33527,5,0
32,144,33992,1,2
64,240,34458,2,0,B|160:216|164:319,1,140,0|2
256,328,35388,1,0
352,304,35853,1,2
464,144,36783,5,2
488,48,37248,1,0
392,16,37713,1,2
304,56,38178,1,0
336,152,38644,1,2
336,152,38876,1,0
256,216,39341,1,0
448,56,40969,5,0
480,144,41434,1,2
448,240,41900,2,0,B|352:216|348:319,1,140,0|2
256,328,42830,1,0
160,304,43295,1,2
48,144,44225,5,2
104,64,44690,1,0
192,104,45155,1,2
176,200,45620,1,0
256,264,46085,2,0,B|296:248|288:200,1,70,2|0
256,64,47016,1,0
40,264,48411,5,0
112,200,48876,1,0
192,144,49341,1,0
264,80,49806,2,0,B|232:40|184:80,2,70
352,128,50737,1,2
440,168,51202,1,0
352,200,51667,1,2
440,240,52132,5,0
392,328,52597,1,0
304,288,53062,1,0
208,256,53527,2,0,B|160:216|144:280,2,70
256,176,54458,1,2
336,112,54923,1,0
408,48,55388,1,2
312,32,55853,5,0
224,72,56318,1,0
136,112,56783,1,0
48,152,57248,2,0,B|8:120|40:72,2,70
104,232,58179,1,2
192,272,58644,1,0
280,312,59109,1,2
368,352,59574,5,0
408,264,60039,1,0
448,176,60504,1,0
488,88,60969,2,0,B|496:48|472:16,2,70
400,40,61900,1,2
304,32,62365,5,0
208,48,62830,1,2
120,96,63295,2,0,B|176:112|184:176|144:208,1,140,0|2
147,205,63992,1,0
392,96,65155,6,0,B|336:112|328:176|368:208,1,140,0|2
365,205,65852,1,0
120,320,67016,5,0
216,320,67481,1,2
264,296,67713,1,0
264,48,68876,1,0
256,192,69806,12,0,72132
256,64,72597,5,4
336,128,73062,1,2
408,200,73527,1,0
336,264,73992,1,0
376,296,74225,1,0
336,320,74458,1,0
248,288,74923,1,2
160,320,75388,1,0
72,288,75853,1,2
160,240,76318,5,0
72,200,76783,1,2
160,160,77248,1,0
72,112,77713,1,0
32,80,77946,1,0
72,56,78178,1,0
168,88,78644,1,2
256,48,79109,1,0
344,88,79574,1,2
440,72,80039,6,0,B|496:88|496:176|424:192,1,140,0|2
240,128,81434,1,2
160,72,81899,2,0,B|104:96|104:168|176:192,1,140,0|2
352,200,83295,1,2
432,144,83760,6,0,B|488:160|488:248|416:264,1,140,0|2
248,296,85155,2,0,B|216:352|160:352|120:312,1,140,2|0
80,232,86085,2,0,B|88:160|128:136|184:136,1,140,2|0
256,96,87016,2,2,B|312:104|328:184|240:184,1,140,2|4
168,136,87946,5,2
80,176,88411,1,0
168,216,88876,1,0
128,240,89109,1,0
168,272,89341,1,0
256,240,89806,1,2
344,272,90272,1,0
432,240,90737,1,2
344,192,91202,5,0
432,160,91667,1,2
344,120,92132,1,0
432,88,92597,1,0
472,64,92830,1,0
432,40,93062,1,0
336,48,93527,1,2
256,104,93992,1,0
176,48,94458,1,2
80,72,94923,6,0,B|24:88|24:176|96:192,1,140,0|2
264,128,96318,1,2
344,72,96783,2,0,B|400:88|400:176|328:192,1,140,0|2
160,200,98179,1,2
80,144,98644,2,0,B|24:160|24:248|96:264,1,140,0|2
256,328,100039,2,2,B|336:320|384:272,1,140,2|0
440,200,100969,2,2,B|464:128|408:64,1,140,2|0
256,192,102365,5,0
160,160,102830,1,2
64,128,103295,1,0
96,224,103760,2,0,B|16:192,2,70,2|0|0
192,256,104690,1,2
96,288,105155,1,0
192,320,105620,1,2
288,288,106085,5,0
384,320,106551,1,2
480,288,107016,1,0
384,256,107481,2,0,B|448:224,2,70,2|0|0
288,224,108410,1,2
376,184,108875,1,0
464,144,109340,1,2
408,64,109806,6,0,B|384:32|304:32|280:64,1,140,0|2
96,120,111202,1,2
32,192,111667,2,0,B|56:224|136:224|160:192,1,140,0|2
336,248,113062,1,2
408,312,113527,5,0
480,248,113992,1,2
408,184,114457,1,2
408,184,114690,1,2
480,112,115155,2,0,B|480:64|448:24|384:24,1,140
344,24,115853,2,2,B|112:24|48:184,1,350
40,224,117248,1,0
80,312,117713,5,2
152,256,118179,1,2
152,256,118411,1,2
224,192,118876,2,0,B|280:176|328:200|352:256,1,140
312,280,119574,2,0,B|352:368|464:368|520:248|472:104,1,350
464,88,120969,1,0
376,40,121434,5,2
288,88,121899,1,0
288,88,122132,1,0
200,40,122597,1,4
112,88,123062,2,4,B|40:208|128:320|304:312|329:194,1,420
464,256,125155,5,0
400,336,125620,1,0
400,336,125853,1,0
320,280,126318,1,2
320,280,126551,2,0,B|288:352|200:336,1,140,2|0
176,296,127248,2,0,B|200:208|312:224,1,140,0|4
328,200,127946,2,4,B|384:216|392:152,1,70
