osu file format v6

[General]
AudioFilename: knf.mp3
AudioLeadIn: 0
PreviewTime: 48070
Countdown: 1
SampleSet: Normal
StackLeniency: 0.7
Mode: 1
LetterboxInBreaks: 1
StoryFireInFront: 0
SkinPreference:taiko

[Editor]
DistanceSpacing: 0.800000011920929
BeatDivisor: 4
GridSize: 16

[Metadata]
Title:Kaze no Fantasy
Artist:Taiko no Tatsujin
Creator:aquabluu
Version:Taiko Oni
Source:
Tags:

[Difficulty]
HPDrainRate:5
CircleSize:5
OverallDifficulty:5
SliderMultiplier:1.4
SliderTickRate:1

[Events]
//Background and Video events
0,0,"142520383_8521314277.jpg"
//Break Periods
//Storyboard Layer 0 (Background)
//Storyboard Layer 1 (Fail)
//Storyboard Layer 2 (Pass)
//Storyboard Layer 3 (Foreground)
//Storyboard Sound Samples
//Background Colour Transformations
3,100,255,225,241

[TimingPoints]
3960,329.67032967033,4,1,0,100,1,0
48795,-100,4,1,0,100,0,1
80443,-100,4,1,0,100,0,0
104179,-100,4,1,0,100,0,1
137146,-100,4,1,0,100,0,0

[HitObjects]
147,188,3959,1,0
232,207,4289,1,0
342,181,4619,1,0
372,142,4784,5,2
216,80,5113,1,2
270,81,5278,5,0
270,81,5443,5,2
250,143,5773,1,2
221,138,5938,5,0
67,105,6102,5,2
67,151,6185,1,2
67,151,6267,5,0
34,248,6432,5,2
144,266,6597,5,0
311,284,6927,1,0
388,168,7256,1,0
432,119,7421,5,2
303,71,7751,1,2
303,71,7916,5,0
324,113,8080,5,2
222,188,8410,1,2
230,116,8575,5,0
126,98,8740,5,2
84,140,8822,1,2
96,201,8905,5,0
105,317,9069,5,2
208,299,9234,5,0
340,222,9564,1,0
416,169,9894,1,0
434,104,10058,5,2
288,85,10388,1,2
239,111,10553,5,0
198,84,10718,5,2
183,165,11047,1,2
99,78,11212,5,0
60,140,11377,5,2
80,184,11459,1,2
108,225,11542,5,0
371,106,11707,5,2
358,192,11872,5,0
371,106,12036,5,2
358,192,12201,5,0
371,106,12366,5,2
358,192,12531,5,0
371,106,12696,5,2
358,192,12861,5,0
371,106,13025,5,2
358,192,13190,5,0
371,106,13355,5,2
358,192,13520,5,0
371,106,13685,5,2
358,192,13850,5,0
128,102,14014,5,2
174,138,14097,1,2
180,190,14179,5,0
273,77,14344,5,2
255,230,14509,5,0
437,74,14839,5,2
448,228,15168,5,0
376,293,15333,1,0
295,316,15498,5,2
201,308,15663,5,0
79,232,15992,1,0
45,156,16157,5,2
213,159,16487,5,0
273,160,16652,1,0
303,108,16817,5,2
343,64,16981,5,0
385,61,17146,1,0
229,75,17476,5,2
454,142,17806,5,0
416,190,17970,1,0
351,188,18135,5,2
378,244,18300,5,0
88,186,18630,5,2
154,190,18712,1,2
210,191,18795,1,2
120,261,18959,5,0
196,258,19124,1,0
252,91,19289,5,2
200,92,19372,1,2
158,95,19454,1,2
359,124,19619,5,0
255,230,19784,1,0
437,74,20113,5,2
448,228,20443,5,0
376,293,20608,1,0
295,316,20773,5,2
201,308,20938,5,0
79,232,21267,1,0
45,156,21432,5,2
213,159,21762,5,0
273,160,21927,1,0
303,108,22091,5,2
343,64,22256,5,0
385,61,22421,1,0
229,75,22751,5,2
454,142,23080,5,0
416,190,23245,1,0
351,188,23410,5,2
378,244,23575,5,0
285,252,23740,1,0
88,186,23905,5,2
154,190,23987,1,2
210,191,24069,1,2
120,261,24234,5,0
196,258,24399,1,0
252,91,24564,5,2
200,92,24646,1,2
158,95,24729,1,2
361,154,25058,5,0
422,87,25223,5,2
442,166,25388,5,0
392,224,25553,5,2
324,241,25718,5,0
226,152,25883,5,2
264,151,25965,1,2
264,151,26047,5,0
240,80,26212,5,2
361,154,26377,5,0
422,87,26542,5,2
442,166,26707,5,0
392,224,26872,5,2
324,241,27036,5,0
226,152,27201,5,2
264,151,27284,1,2
264,151,27366,5,0
240,80,27531,5,2
214,213,27696,5,0
226,152,27861,5,2
264,151,27943,1,2
264,151,28025,5,0
240,80,28190,5,2
214,213,28355,5,0
226,152,28520,5,2
264,151,28602,1,2
264,151,28685,5,0
240,80,28850,5,2
214,213,29014,5,0
365,167,29179,5,2
432,220,29262,1,2
462,90,29344,1,2
121,60,29509,5,0
113,176,29674,1,0
203,284,29839,5,2
123,304,29921,1,2
76,261,30003,1,2
283,152,30168,5,0
361,154,30333,1,0
422,87,30498,5,2
442,166,30663,5,0
392,224,30828,5,2
324,241,30992,5,0
226,152,31157,5,2
264,151,31240,1,2
264,151,31322,5,0
240,80,31487,5,2
361,154,31652,5,0
422,87,31817,5,2
442,166,31981,5,0
392,224,32146,5,2
324,241,32311,5,0
226,152,32476,5,2
264,151,32558,1,2
264,151,32641,5,0
240,80,32806,5,2
214,213,32970,5,0
226,152,33135,5,2
264,151,33218,1,2
264,151,33300,5,0
240,80,33465,5,2
214,213,33630,5,0
226,152,33795,5,2
264,151,33877,1,2
264,151,33960,5,0
240,80,34124,5,2
214,213,34289,5,0
52,151,34454,5,2
73,220,34536,1,2
97,277,34619,5,0
222,311,34784,5,2
320,243,34949,5,0
413,95,35113,5,2
369,117,35196,1,2
422,165,35278,1,2
323,189,35443,1,2
182,73,35608,5,0
212,162,35938,5,2
157,236,36102,5,0
184,247,36185,1,0
252,244,36267,1,0
307,138,36432,1,0
402,60,36597,5,2
416,178,36762,5,0
341,272,37091,1,0
309,208,37256,5,2
262,113,37421,5,0
176,111,37503,1,0
112,142,37586,1,0
168,207,37751,1,0
66,39,37916,5,2
49,211,38080,5,0
381,136,38410,1,0
428,187,38575,5,2
363,217,38740,5,0
294,256,38822,1,0
216,284,38905,1,0
97,317,39069,5,2
461,64,39399,5,0
389,64,39481,1,0
321,63,39564,1,0
228,60,39729,5,2
248,148,39894,5,0
200,151,39976,1,0
135,142,40058,5,2
372,180,40223,5,0
433,148,40388,5,2
302,270,40553,5,0
335,268,40635,1,0
384,242,40718,5,2
302,203,40883,5,0
352,65,41212,5,2
226,76,41377,5,0
164,80,41460,1,0
124,85,41542,1,0
64,194,41707,1,0
227,174,41872,5,2
388,147,42036,5,0
400,252,42366,1,0
320,219,42531,5,2
264,266,42696,5,0
221,267,42778,1,0
175,266,42861,1,0
132,239,43025,5,2
280,100,43355,5,0
192,112,43520,1,0
424,78,43850,5,2
428,143,44014,5,0
378,157,44097,1,0
348,192,44179,1,0
280,244,44344,5,2
372,262,44509,5,0
241,164,44674,5,2
182,192,44756,1,2
137,193,44839,1,2
111,132,45003,1,2
281,62,45168,5,0
280,138,45333,5,2
223,112,45416,1,2
152,82,45498,1,2
84,67,45663,1,2
243,255,45992,1,2
327,212,46157,5,0
371,208,46240,1,0
415,225,46322,1,0
418,95,46487,5,2
266,308,46652,5,0
200,306,46734,1,0
144,300,46817,1,0
111,274,46899,1,0
114,222,46981,5,2
146,137,47311,5,4
259,87,47641,1,4
300,145,47970,1,4
196,225,48795,1,0
297,228,48960,5,2
431,136,49124,5,0
422,94,49289,5,2
391,107,49454,5,0
320,109,49536,1,0
320,109,49619,5,2
190,112,49784,5,0
92,171,49949,5,2
371,201,50278,1,2
429,266,50443,5,0
358,293,50608,5,2
253,320,50773,5,0
224,304,50855,1,0
206,248,50938,1,0
257,196,51102,5,2
178,164,51267,1,2
117,286,51432,5,0
80,208,51597,5,2
89,141,51762,5,0
129,88,51927,5,2
190,62,52091,5,0
221,72,52174,1,0
274,74,52256,5,2
428,102,52421,5,0
478,171,52586,5,2
316,216,52916,1,2
389,230,53080,5,0
392,285,53245,5,2
312,316,53410,5,0
272,308,53492,1,0
238,301,53575,1,0
201,251,53740,5,2
184,161,53905,1,2
256,168,54069,5,0
348,115,54234,5,2
312,96,54317,1,2
411,74,54399,5,0
448,152,54564,5,2
385,170,54729,5,0
348,115,54894,5,2
312,96,54976,1,2
411,74,55058,5,0
448,152,55223,5,2
385,170,55388,5,0
348,115,55553,5,2
312,96,55635,1,2
411,74,55718,5,0
448,152,55883,5,2
385,170,56047,5,0
116,113,56212,5,2
199,143,56295,1,2
218,201,56377,5,0
276,166,56460,5,2
313,192,56542,1,2
267,306,56707,5,0
342,288,56872,5,2
84,296,57036,5,0
115,295,57119,1,0
145,197,57201,5,2
402,84,57366,5,0
301,100,57449,1,0
440,135,57531,5,2
369,148,57613,1,2
328,152,57696,1,2
396,222,57861,5,0
192,168,58190,1,0
157,147,58273,1,0
168,114,58355,1,0
231,121,58520,5,2
357,49,58850,1,2
406,55,59014,1,2
362,134,59179,5,0
297,240,59262,1,0
327,179,59344,1,0
397,160,59509,5,2
412,228,59674,5,0
438,302,59839,5,2
301,307,60003,5,0
250,312,60086,1,0
212,289,60168,1,0
166,306,60251,1,0
137,256,60333,1,0
208,152,60498,5,2
244,95,60663,5,0
312,108,60828,5,2
396,84,60992,5,0
458,144,61157,5,2
390,177,61322,5,0
347,188,61405,1,0
368,223,61487,5,2
324,223,61569,1,2
288,216,61652,5,0
185,164,61817,5,2
247,97,61981,5,0
318,96,62146,5,2
420,82,62311,5,0
461,150,62476,5,2
443,230,62641,5,0
398,264,62723,1,0
348,290,62806,1,0
288,301,62888,1,0
232,289,62970,1,0
296,174,63135,5,2
256,147,63300,5,0
206,86,63465,5,2
124,127,63630,5,0
145,168,63795,5,2
360,100,63960,5,0
401,96,64042,1,0
448,92,64124,5,2
469,120,64207,1,2
460,164,64289,5,0
392,228,64454,5,2
208,272,64619,5,0
150,271,64701,1,0
94,254,64784,1,0
148,215,64866,1,0
223,216,64949,1,0
292,138,65113,1,0
194,95,65278,5,2
162,106,65361,1,2
112,102,65443,1,2
102,159,65525,1,2
192,167,65608,1,2
298,213,65773,1,2
208,272,65938,5,0
150,271,66020,1,0
94,254,66102,1,0
148,215,66185,1,0
223,216,66267,1,0
292,138,66432,1,0
194,95,66597,5,2
162,106,66679,1,2
112,102,66762,1,2
102,159,66844,1,2
192,167,66927,1,2
298,213,67091,1,2
328,308,67256,5,0
378,296,67339,1,0
407,255,67421,1,0
421,205,67586,1,0
422,146,67668,1,0
392,128,67751,1,0
300,85,67916,1,0
253,76,67998,1,0
214,61,68080,1,0
159,211,68245,1,0
335,145,68410,1,4
280,244,68740,1,4
181,299,69069,1,4
379,188,69234,5,2
237,123,69399,1,2
190,143,69481,1,2
272,183,69564,5,0
172,37,69894,2,0,L|40:109|43:251|162:312|214:185|67:127|190:89|320:128,1,980
252,171,72531,1,0
325,163,72696,5,2
384,198,72861,5,0
428,146,73025,5,2
386,93,73190,5,0
287,64,73355,5,2
338,71,73438,1,2
284,114,73520,5,0
173,158,73685,5,2
175,196,73850,5,0
247,206,74014,5,2
309,207,74097,1,2
376,229,74179,5,0
412,273,74344,5,2
264,295,74509,5,0
136,293,74591,5,2
174,288,74674,1,2
205,296,74756,1,2
78,285,74839,5,0
68,178,75003,5,2
271,132,75168,5,0
366,101,75333,5,2
460,120,75498,5,0
408,162,75663,5,2
339,204,75828,5,0
165,142,75992,5,2
210,143,76075,1,2
261,173,76157,5,0
283,76,76322,5,2
271,132,76487,5,0
366,101,76652,5,2
460,120,76817,5,0
408,162,76981,5,2
339,204,77146,5,0
165,142,77311,5,2
210,143,77394,1,2
261,173,77476,5,0
283,76,77641,5,2
324,252,77806,5,0
364,69,77970,5,2
271,39,78053,1,2
172,59,78135,5,0
364,69,78300,5,2
271,39,78383,1,2
172,59,78465,5,0
364,69,78630,5,2
271,39,78712,1,2
172,59,78795,5,0
364,69,78959,5,2
271,39,79042,1,2
172,59,79124,5,0
364,69,79289,5,2
271,39,79372,1,2
172,59,79454,5,0
60,166,79536,5,2
126,189,79619,1,2
273,177,79784,5,0
348,213,79866,1,0
384,207,79949,1,0
338,316,80113,5,2
256,309,80196,1,2
192,299,80278,1,2
424,120,80443,5,0
30,72,80773,5,2
160,120,80938,5,0
216,124,81020,1,0
264,120,81102,1,0
359,115,81267,1,0
476,96,81432,5,2
478,187,81597,5,0
324,236,81927,1,0
248,216,82091,5,2
392,194,82421,5,0
179,184,82586,5,2
72,117,82916,5,0
62,199,83080,1,0
354,101,83410,5,2
272,188,83740,1,2
272,188,83822,1,2
331,207,83905,1,2
200,267,84234,1,2
192,74,84564,1,2
220,66,84646,1,2
250,68,84729,1,2
354,63,84894,1,2
399,94,85058,5,0
440,128,85223,5,2
459,163,85388,1,2
348,215,85553,1,2
404,295,85718,5,0
152,204,86047,5,2
179,256,86212,5,0
232,261,86295,1,0
275,257,86377,1,0
309,172,86542,1,0
242,104,86707,5,2
167,120,86872,5,0
61,227,87201,1,0
8,154,87366,5,2
104,63,87696,1,2
181,59,87861,1,2
290,48,88190,6,0,L|184:166|58:136|52:273|205:290|315:364|436:263|340:199|320:128,1,1050
278,96,90992,1,0
380,103,91322,5,2
304,200,91652,5,0
353,239,91817,5,2
170,176,92146,5,4
142,262,92476,1,4
241,291,92806,1,4
243,124,93630,1,4
325,210,96267,1,4
229,156,98905,1,4
296,196,99564,1,4
377,248,100223,1,4
148,179,100883,1,4
216,124,101542,1,4
322,142,101707,5,2
373,162,101789,1,2
415,212,101872,5,0
427,76,102036,5,2
345,56,102119,1,2
287,64,102201,5,0
126,99,102366,5,2
113,160,102449,1,2
151,204,102531,5,0
219,264,102696,1,4
256,264,103025,1,4
358,267,103355,1,4
169,133,104179,1,0
262,91,104344,5,2
283,135,104509,5,0
331,140,104591,1,0
396,161,104674,5,2
373,211,104839,5,0
287,224,105003,5,2
212,215,105168,5,0
161,206,105251,1,0
109,182,105333,5,2
87,111,105498,5,0
149,56,105663,5,2
206,89,105828,5,0
306,76,105992,5,2
422,132,106157,5,0
387,143,106240,1,0
335,183,106322,1,0
292,200,106405,1,0
236,208,106487,5,2
332,244,106652,1,2
187,301,106817,5,0
106,219,106981,5,2
139,140,107146,5,0
172,136,107229,1,0
220,114,107311,5,2
383,56,107476,5,0
266,68,107641,5,2
456,128,107806,5,0
452,170,107888,1,0
438,228,107970,5,2
249,171,108135,5,0
278,188,108218,1,0
304,241,108300,1,0
232,260,108383,1,0
88,246,108465,5,2
143,170,108630,1,2
314,90,108795,5,0
255,78,108877,1,0
179,71,108959,1,0
125,58,109042,1,0
18,116,109124,5,2
86,133,109289,1,2
376,129,109454,5,0
450,164,109619,5,2
434,198,109701,1,2
434,198,109784,5,0
386,232,109949,5,2
349,252,110113,5,0
450,164,110278,5,2
434,198,110361,1,2
434,198,110443,5,0
386,232,110608,5,2
349,252,110773,5,0
450,164,110938,5,2
434,198,111020,1,2
434,198,111102,5,0
386,232,111267,5,2
349,252,111432,5,0
258,108,111597,5,2
306,111,111679,1,2
329,160,111762,5,0
33,189,111844,5,2
71,199,111927,1,2
179,232,112091,5,0
130,77,112256,5,2
394,79,112421,5,0
341,67,112503,1,0
304,57,112586,5,2
351,238,112751,5,0
283,267,112833,1,0
264,218,112916,5,2
178,173,112998,1,2
131,168,113080,1,2
375,172,113245,5,0
430,112,113575,1,0
241,102,113657,1,0
159,96,113740,1,0
165,249,113905,5,2
364,287,114234,1,6
267,302,114399,1,6
88,165,114564,5,0
123,165,114646,1,0
179,173,114729,1,0
308,143,114894,5,2
308,177,115058,5,0
242,216,115141,1,0
387,249,115223,5,2
179,173,115388,5,0
308,143,115553,5,2
308,177,115718,5,0
242,216,115800,1,0
387,249,115883,5,2
179,173,116047,5,0
308,143,116212,5,2
308,177,116377,5,0
242,216,116459,1,0
387,249,116542,5,2
185,94,116707,5,0
222,91,116789,1,0
66,128,116872,5,2
85,184,116954,1,2
148,261,117036,5,0
468,78,117201,5,2
488,184,117366,5,0
467,244,117531,5,2
377,150,117696,5,0
356,124,117778,1,0
318,91,117861,5,2
488,184,118025,5,0
467,244,118190,5,2
377,150,118355,5,0
356,124,118438,1,0
318,91,118520,5,2
488,184,118685,5,0
467,244,118850,5,2
377,150,119014,5,0
356,124,119097,1,0
318,91,119179,5,2
20,319,119344,5,0
72,332,119427,1,0
175,280,119509,5,2
128,232,119591,1,2
193,152,119674,5,0
211,73,119839,5,2
282,263,120003,5,0
311,264,120086,1,0
357,249,120168,1,0
388,220,120251,1,0
423,175,120333,1,0
439,92,120498,1,0
302,101,120663,5,2
294,140,120745,1,2
256,185,120828,1,2
208,204,120910,1,2
153,196,120992,1,2
95,124,121157,1,2
282,263,121322,5,0
311,264,121405,1,0
357,249,121487,1,0
423,175,121569,1,0
388,220,121652,1,0
439,92,121817,1,0
302,101,121981,5,2
294,140,122064,1,2
256,185,122146,1,2
208,204,122229,1,2
153,196,122311,1,2
95,124,122476,1,2
224,53,122641,5,0
180,103,122723,1,0
179,179,122806,1,0
240,244,122888,1,0
398,111,122970,5,2
452,215,123053,1,2
440,161,123135,1,2
400,254,123218,1,2
119,255,123300,5,0
171,305,123383,1,0
242,328,123465,1,0
300,328,123547,1,0
314,186,123630,5,2
180,103,123795,5,4
93,169,124124,1,4
67,101,124454,1,4
374,91,124619,5,2
238,135,124784,1,2
278,139,124866,1,2
388,156,124949,5,0
139,63,125278,2,0,L|35:167|68:316|200:290|168:157|282:71|440:283,1,945
128,147,127916,1,0
238,112,128080,5,2
276,152,128245,5,0
348,135,128410,5,2
393,136,128575,5,0
370,219,128740,5,2
409,231,128822,1,2
366,275,128905,5,0
281,61,129069,5,2
127,213,129234,5,0
156,178,129399,5,2
238,176,129564,5,0
268,255,129729,5,2
423,90,129894,5,0
452,153,129976,5,2
391,153,130058,1,2
326,128,130141,1,2
386,231,130223,5,0
212,104,130388,5,2
128,147,130553,5,0
238,112,130718,5,2
276,152,130883,5,0
348,135,131047,5,2
393,136,131212,5,0
370,219,131377,5,2
409,231,131459,1,2
366,275,131542,5,0
336,51,131707,5,2
128,147,131872,5,0
238,112,132036,5,2
276,152,132201,5,0
348,135,132366,5,2
393,136,132531,5,0
370,219,132696,5,2
409,231,132778,1,2
366,275,132861,5,0
435,80,133025,5,2
443,130,133190,5,0
370,48,133355,5,2
311,51,133438,1,2
325,98,133520,5,0
370,48,133685,5,2
311,51,133767,1,2
325,98,133850,5,0
370,48,134014,5,2
311,51,134097,1,2
325,98,134179,5,0
217,204,134344,1,4
158,169,134674,1,4
171,116,135003,1,4
229,84,135333,1,4
108,38,135663,2,4,L|44:112|84:244|218:273|355:232|366:98,1,630
