osu file format v6

[General]
AudioFilename: knf.mp3
AudioLeadIn: 0
PreviewTime: 48070
Countdown: 1
SampleSet: Normal
StackLeniency: 0.7
Mode: 1
LetterboxInBreaks: 1
StoryFireInFront: 0
SkinPreference:taiko

[Editor]
Bookmarks: 99832
DistanceSpacing: 0.800000011920929
BeatDivisor: 4
GridSize: 16

[Metadata]
Title:Kaze no Fantasy
Artist:Taiko no Tatsujin
Creator:aquabluu
Version:Taiko Hell Oni
Source:
Tags:flyboy87

[Difficulty]
HPDrainRate:5
CircleSize:5
OverallDifficulty:5
SliderMultiplier:1.4
SliderTickRate:1

[Events]
//Background and Video events
0,0,"142520383_8521314277.jpg"
//Break Periods
//Storyboard Layer 0 (Background)
//Storyboard Layer 1 (Fail)
//Storyboard Layer 2 (Pass)
//Storyboard Layer 3 (Foreground)
//Storyboard Sound Samples
//Background Colour Transformations
3,100,255,225,241

[TimingPoints]
3960,329.67032967033,4,1,0,100,1,0
48795,-100,4,1,0,100,0,1
80443,-100,4,1,0,100,0,0
104179,-100,4,1,0,100,0,1
137146,-100,4,1,0,100,0,0

[HitObjects]
112,160,1322,2,0,L|472:184,1,350
160,160,2476,1,4
272,160,2806,1,4
384,168,3135,1,4
512,56,3630,1,6
440,144,3960,1,2
408,136,4042,1,2
376,128,4124,1,2
512,56,4289,1,2
464,80,4454,1,0
440,144,4619,1,2
392,120,4784,1,2
368,104,4866,1,2
392,40,4949,1,0
440,144,5113,1,2
392,168,5278,1,0
344,200,5443,1,2
384,168,5608,1,0
272,112,5773,1,2
328,112,5938,1,0
352,112,6020,1,2
376,112,6102,1,2
400,112,6185,1,2
272,208,6267,1,0
272,208,6432,1,2
440,144,6597,1,2
408,136,6679,1,2
376,128,6761,1,2
512,56,6926,1,2
464,80,7091,1,0
440,144,7256,1,2
392,120,7421,1,2
368,104,7503,1,2
392,40,7586,1,0
440,144,7750,1,2
392,168,7915,1,0
344,200,8080,1,2
384,168,8245,1,0
272,112,8410,1,2
328,112,8575,1,0
352,112,8657,1,2
376,112,8739,1,2
400,112,8822,1,2
272,208,8904,1,0
408,136,9069,1,0
440,144,9234,1,2
408,136,9316,1,2
376,128,9398,1,2
512,56,9563,1,2
464,80,9728,1,0
440,144,9893,1,2
392,120,10058,1,2
368,104,10140,1,2
392,40,10223,1,0
440,144,10387,1,2
392,168,10552,1,0
344,200,10717,1,2
384,168,10882,1,0
272,112,11047,1,2
328,112,11212,1,0
352,112,11294,1,2
376,112,11376,1,2
400,112,11459,1,2
272,208,11541,1,0
280,176,11872,1,4
224,184,12036,1,0
280,176,12201,1,4
224,184,12366,1,0
280,176,12531,1,4
336,160,12696,1,0
384,136,12861,1,2
408,120,12943,1,2
424,144,13025,1,0
440,88,13190,1,2
376,176,13355,1,0
352,120,13520,1,2
336,96,13602,1,2
328,64,13685,1,2
448,104,13767,1,2
448,104,13850,1,2
320,288,14014,1,0
320,288,14179,1,0
344,176,14509,1,2
344,144,14591,1,2
368,160,14674,1,0
416,136,14839,1,2
448,104,15003,1,2
448,104,15086,1,2
440,128,15168,1,0
424,184,15333,1,0
384,136,15498,1,0
384,136,15580,1,0
400,112,15663,1,2
416,88,15745,1,2
416,112,15828,1,0
408,168,15992,1,2
424,184,16157,1,0
472,160,16322,1,2
448,176,16405,1,2
448,176,16487,1,2
472,128,16652,1,0
480,72,16817,1,2
480,72,16899,1,2
464,96,16981,1,0
408,112,17146,1,2
416,168,17311,1,0
408,136,17394,1,0
424,112,17476,1,2
408,136,17641,1,0
360,168,17806,1,0
336,184,17888,1,0
336,184,17970,1,0
344,152,18053,1,0
304,224,18135,1,2
392,176,18300,1,2
336,184,18465,1,0
472,248,18630,1,0
456,192,18795,1,2
448,168,18877,1,2
392,168,18960,1,0
456,192,19124,1,2
448,168,19206,1,2
392,168,19289,1,0
456,192,19454,1,2
448,168,19536,1,2
392,168,19619,1,0
456,192,19784,1,2
448,168,19866,1,2
392,168,19949,1,0
456,192,20113,1,2
448,168,20195,1,2
392,168,20278,1,0
456,192,20443,1,2
448,168,20525,1,2
392,168,20608,1,0
456,192,20773,1,2
448,168,20855,1,2
392,168,20938,1,0
456,192,21102,1,2
448,168,21184,1,2
392,168,21267,1,0
408,144,21350,1,2
432,128,21432,1,2
424,72,21597,1,0
472,104,21762,1,2
416,120,21927,1,2
392,128,22009,1,2
368,136,22091,1,2
312,136,22256,1,2
336,184,22421,1,0
336,152,22503,1,0
336,120,22586,1,0
336,120,22668,1,0
336,120,22751,1,0
376,152,22916,2,0,L|168:224,1,210
432,104,23575,1,0
424,160,23740,1,4
464,176,24234,1,0
216,248,24399,1,4
288,160,24729,1,2
304,136,24811,1,2
320,112,24894,1,2
384,96,25058,1,2
408,144,25223,1,0
448,104,25388,1,2
472,88,25470,1,2
456,112,25553,1,0
384,96,25718,1,2
408,144,25883,1,0
448,104,26048,1,2
472,88,26130,1,2
456,112,26213,1,0
384,96,26377,1,2
408,144,26542,1,0
448,104,26707,1,2
472,88,26789,1,2
456,112,26872,1,0
384,96,27036,1,2
408,144,27201,1,0
448,104,27366,1,2
472,88,27448,1,2
456,112,27531,1,0
384,96,27696,1,2
408,144,27861,1,0
448,104,28026,1,2
472,88,28108,1,2
456,112,28191,1,0
416,152,28355,1,2
392,168,28438,1,2
416,168,28520,1,0
440,176,28602,1,0
440,200,28685,1,2
456,256,28850,1,0
416,152,29179,1,0
472,144,29344,1,2
456,120,29427,1,2
440,176,29509,1,0
176,224,29674,1,0
224,200,29839,1,2
272,176,30003,1,0
296,168,30086,1,0
320,168,30168,1,2
176,224,30333,1,0
224,200,30498,1,2
272,176,30662,1,0
296,168,30745,1,0
320,168,30827,1,2
176,224,30992,1,0
224,200,31157,1,2
272,176,31321,1,0
296,168,31404,1,0
320,168,31486,1,2
176,224,31652,1,0
224,200,31817,1,2
272,176,31981,1,0
296,168,32064,1,0
320,168,32146,1,2
368,184,32311,1,0
392,192,32394,1,0
408,168,32476,1,2
424,144,32558,1,2
448,144,32641,1,0
176,224,32806,1,0
224,200,32971,1,2
272,176,33135,1,0
296,168,33218,1,0
320,168,33300,1,2
176,224,33465,1,0
224,200,33630,1,2
272,176,33794,1,0
296,168,33877,1,0
320,168,33959,1,2
368,144,34124,1,2
424,136,34289,1,0
424,80,34454,1,2
424,80,34536,1,2
440,96,34619,1,0
416,144,34784,1,0
360,120,34949,1,2
336,112,35031,1,2
312,104,35113,1,2
448,184,35278,1,2
448,184,35443,1,2
392,192,35608,1,0
432,152,35773,1,2
448,128,35855,1,2
280,200,35938,1,0
448,128,36102,1,2
448,128,36267,1,0
392,144,36432,1,2
416,136,36514,1,2
448,128,36597,1,0
408,168,36762,1,0
448,128,36927,1,0
400,96,37091,1,0
400,96,37174,1,0
448,128,37256,1,0
400,96,37421,1,0
448,128,37586,1,0
480,80,37751,1,2
464,104,37833,1,2
344,176,37916,1,0
384,208,38080,1,2
248,224,38245,1,0
352,192,38575,1,6
464,208,38905,1,4
448,152,39069,1,6
352,88,39399,1,4
464,104,39729,1,6
448,152,39894,1,4
400,128,40058,1,6
440,168,40223,1,2
416,144,40306,1,2
408,168,40388,1,0
384,216,40553,1,0
328,216,40718,1,0
360,168,40883,1,2
376,144,40965,1,2
400,136,41047,1,0
432,88,41212,1,2
360,168,41377,1,2
376,144,41459,1,2
400,136,41541,1,0
344,112,41707,1,2
360,168,41872,1,2
376,144,41954,1,2
400,136,42036,1,0
432,88,42201,1,2
360,168,42366,1,2
376,144,42448,1,2
400,136,42530,1,0
344,112,42696,1,2
360,168,42861,1,2
376,144,42943,1,2
400,136,43025,1,0
432,88,43190,1,2
424,144,43355,2,0,L|368:360|-8:24|392:64,1,1120
328,80,46157,1,0
376,184,46487,1,2
384,160,46569,1,2
400,136,46652,1,2
464,120,46817,1,0
456,176,46981,1,2
400,168,47146,1,0
376,256,47311,1,4
456,176,47641,1,4
376,248,47970,1,4
416,144,48300,1,2
448,112,48465,1,0
472,112,48547,1,0
480,80,48630,1,2
440,120,48795,1,0
432,176,48960,1,2
376,168,49124,1,0
432,176,49289,1,2
392,216,49454,1,0
392,216,49536,1,0
392,216,49619,1,0
416,200,49701,1,2
432,224,49784,1,0
376,224,49949,1,0
400,176,50113,1,2
424,128,50278,1,0
464,88,50443,1,2
448,144,50608,1,2
440,184,50690,1,2
424,128,50773,1,2
424,128,50938,1,2
424,128,51102,1,2
424,128,51185,1,2
440,184,51267,1,0
440,184,51432,1,2
400,144,51597,1,0
400,144,51679,1,0
424,152,51762,1,2
472,128,51927,1,0
424,128,52091,1,2
424,128,52174,1,2
440,184,52256,1,0
440,184,52421,1,2
400,144,52586,1,0
400,144,52668,1,0
424,152,52751,1,2
472,128,52916,1,0
424,128,53080,1,2
424,72,53245,1,0
448,120,53410,1,2
440,184,53575,1,0
408,184,53657,1,0
376,184,53740,1,0
408,136,53905,1,2
408,136,53987,1,2
408,136,54069,1,2
408,184,54234,1,2
424,128,54399,1,0
472,96,54564,1,2
464,152,54729,1,0
408,136,54894,1,2
360,96,55058,1,0
384,112,55141,1,0
384,112,55223,1,0
384,112,55306,1,0
408,112,55388,1,2
424,168,55553,1,0
432,224,55718,1,2
376,200,55883,1,0
352,184,55965,1,0
424,168,56047,1,2
296,120,56212,1,0
424,168,56377,1,2
448,120,56542,1,0
448,120,56624,1,0
472,112,56707,1,2
296,120,56872,1,0
424,168,57037,1,2
448,120,57202,1,0
448,120,57284,1,0
472,112,57367,1,2
432,144,57531,1,0
488,144,57696,1,2
400,264,57861,1,4
400,208,58025,1,2
424,168,58190,1,6
368,144,58355,1,0
416,280,58520,1,4
432,168,58850,1,2
432,136,58932,1,2
456,144,59014,1,0
432,168,59179,1,2
456,144,59344,1,0
432,168,59509,1,2
432,136,59591,1,2
456,144,59673,1,0
432,168,59838,1,2
456,144,60003,1,0
416,176,60168,1,0
424,152,60251,1,2
432,128,60333,1,2
440,104,60416,1,2
432,128,60498,1,0
392,168,60663,1,0
424,128,60828,1,2
416,176,60992,1,0
472,168,61157,1,2
416,184,61322,1,0
432,168,61487,1,2
432,136,61569,1,2
456,144,61651,1,0
432,168,61816,1,2
456,144,61981,1,0
432,168,62146,1,2
432,136,62228,1,2
456,144,62310,1,0
432,168,62475,1,2
456,144,62640,1,0
416,176,62805,1,0
424,152,62888,1,2
432,128,62970,1,2
440,104,63053,1,2
432,128,63135,1,0
392,168,63300,1,0
424,128,63465,1,2
416,176,63629,1,0
472,168,63794,1,2
416,184,63960,1,0
392,136,64124,1,0
392,136,64207,1,0
392,136,64289,1,0
392,136,64372,1,0
416,120,64454,1,2
440,112,64536,1,2
464,96,64619,1,2
464,96,64701,1,2
448,120,64784,1,0
432,144,64866,1,0
408,160,64949,1,0
392,184,65031,1,0
408,200,65113,1,2
352,192,65278,1,2
320,184,65361,1,2
288,176,65443,1,2
256,176,65525,1,2
280,160,65608,1,0
304,144,65690,1,0
328,136,65773,1,0
352,120,65855,1,0
376,112,65938,1,2
400,104,66020,1,2
424,96,66102,1,2
448,80,66185,1,2
440,104,66267,1,0
416,96,66350,1,0
416,120,66432,1,2
448,168,66597,1,0
464,192,66679,1,0
472,160,66762,1,2
448,168,66927,1,0
464,192,67009,1,0
472,160,67092,1,2
448,168,67256,1,0
464,192,67338,1,0
472,160,67421,1,2
448,168,67586,1,0
464,192,67668,1,0
472,160,67751,1,2
448,168,67916,1,0
464,192,67998,1,0
472,160,68081,1,2
416,168,68245,1,0
360,152,68410,1,4
360,152,68740,1,4
360,152,69069,1,4
408,120,69234,1,2
432,104,69317,1,2
456,88,69399,1,2
456,88,69564,1,2
400,104,69729,1,0
400,112,69894,1,2
376,104,69976,1,2
392,128,70058,1,0
424,216,70223,1,2
456,176,70388,1,0
400,176,70553,1,2
480,128,70718,1,0
408,152,70883,1,2
384,136,70965,1,2
408,144,71048,1,0
352,144,71212,1,2
384,136,71377,1,0
352,176,71542,1,2
456,48,71707,1,2
440,72,71789,1,2
440,72,71872,1,2
440,72,71954,1,2
432,96,72036,1,0
408,144,72201,1,0
368,184,72366,1,2
400,112,72532,1,2
376,104,72614,1,2
392,128,72696,1,0
424,216,72861,1,2
456,176,73026,1,0
400,176,73191,1,2
480,128,73356,1,0
408,152,73521,1,2
384,136,73603,1,2
408,144,73686,1,0
352,144,73850,1,2
384,136,74015,1,0
352,176,74180,1,2
456,48,74345,1,2
440,72,74427,1,2
440,72,74510,1,2
440,72,74592,1,2
432,96,74674,1,0
408,144,74839,1,0
400,176,75003,1,0
456,88,75168,1,2
400,104,75333,1,0
400,112,75498,1,2
376,104,75580,1,2
392,128,75662,1,0
424,216,75827,1,2
456,176,75992,1,0
400,176,76157,1,2
480,128,76322,1,0
408,152,76487,1,2
384,136,76569,1,2
408,144,76652,1,0
352,144,76816,1,2
384,136,76981,1,0
352,176,77146,1,2
456,48,77311,1,2
440,72,77393,1,2
440,72,77476,1,2
440,72,77558,1,2
432,96,77640,1,0
352,176,77806,1,4
408,160,77970,1,0
352,176,78135,1,4
408,160,78300,1,0
352,176,78465,1,4
464,184,78795,1,2
408,160,78877,1,2
408,184,78960,1,2
360,216,79124,1,2
448,80,79289,1,0
424,192,79619,1,2
368,192,79784,1,0
448,80,79949,1,2
408,120,80113,1,0
456,136,80278,1,2
456,136,80361,1,2
456,136,80443,1,2
424,192,80773,1,0
424,192,81102,1,0
424,192,81267,1,2
432,136,81432,1,0
488,136,81597,1,2
392,200,81927,1,2
384,168,82091,1,2
464,96,82421,1,0
464,152,82586,1,2
376,216,82916,1,2
448,128,83245,1,0
400,48,83410,1,2
392,72,83492,1,2
392,96,83575,1,2
424,144,83740,1,0
456,192,83905,1,0
440,168,83987,1,0
416,152,84069,1,0
440,168,84234,1,0
392,96,84317,1,0
392,96,84399,1,0
352,240,84564,1,4
392,200,84729,1,6
344,168,84894,1,4
392,136,85058,1,2
416,120,85141,1,2
440,104,85223,1,2
488,80,85388,1,2
488,80,85553,1,2
456,184,85883,1,0
496,80,86212,1,0
456,184,86377,1,2
416,144,86542,1,0
416,200,86707,1,2
416,144,86872,1,2
456,184,87201,1,0
456,184,87366,1,0
408,80,87696,1,2
416,200,87861,1,0
304,216,88190,1,0
272,112,88355,1,0
248,160,88520,1,0
232,184,88602,1,0
376,144,88685,1,2
432,160,88850,1,0
488,152,89014,1,0
448,192,89179,1,2
304,216,89509,1,0
272,112,89674,1,0
248,160,89839,1,0
232,184,89921,1,0
376,144,90004,1,2
432,160,90169,1,0
488,152,90333,1,0
448,192,90498,1,2
304,216,90828,1,0
272,112,90993,1,0
248,160,91158,1,0
232,184,91240,1,0
376,144,91323,1,2
432,160,91488,1,0
488,152,91652,1,0
448,192,91817,1,2
472,80,92146,1,4
368,120,92476,1,6
472,80,92806,1,6
408,176,93135,1,0
456,144,93300,1,2
424,136,93383,1,2
392,136,93465,1,2
424,192,93630,1,4
344,112,93960,1,0
360,128,94042,1,0
376,144,94124,1,0
424,160,94289,1,0
472,128,94454,1,2
512,88,94619,1,0
424,160,94784,1,0
464,56,95113,1,0
456,80,95196,1,0
440,104,95278,1,0
400,136,95443,1,0
400,136,95773,1,2
448,160,95938,1,0
424,152,96020,1,2
400,144,96102,1,2
424,160,96267,1,4
512,88,96597,1,2
488,104,96679,1,2
488,104,96762,1,2
440,128,96927,1,0
448,160,97091,1,2
400,192,97256,1,0
448,208,97421,1,2
336,224,97751,1,2
304,224,97833,1,2
304,224,97916,1,2
304,224,98080,1,2
392,152,98410,1,0
408,136,98492,1,0
408,136,98575,1,0
448,176,98740,1,4
408,120,99069,1,2
480,72,99234,1,2
480,72,99317,1,2
480,72,99399,1,2
480,128,99564,1,6
480,72,99894,1,2
480,72,99977,1,2
480,72,100059,1,2
480,128,100224,1,6
376,160,100553,1,2
376,160,100718,1,2
424,136,100883,1,0
400,144,100965,1,0
400,144,101047,1,0
360,184,101212,1,0
400,224,101377,1,2
408,168,101542,1,0
408,136,101624,1,0
432,144,101707,1,2
408,168,101872,1,0
408,136,101954,1,0
432,144,102037,1,2
408,168,102201,1,0
408,136,102283,1,0
432,144,102366,1,2
384,176,102531,1,0
432,200,102696,1,4
320,224,103025,1,4
320,224,103355,1,4
416,144,103685,1,2
424,120,103768,1,2
448,112,103850,1,0
472,112,103932,1,0
480,80,104015,1,2
440,120,104180,1,0
432,176,104345,1,2
376,168,104509,1,0
432,176,104674,1,2
392,216,104839,1,0
392,216,104921,1,0
392,216,105004,1,0
416,200,105086,1,2
432,224,105169,1,0
376,224,105334,1,0
400,176,105498,1,2
424,128,105663,1,0
464,88,105828,1,2
448,144,105993,1,2
440,184,106075,1,2
424,128,106158,1,2
424,128,106323,1,2
424,128,106487,1,2
424,128,106570,1,2
440,184,106652,1,0
440,184,106817,1,2
400,144,106982,1,0
400,144,107064,1,0
424,152,107147,1,2
472,128,107312,1,0
424,128,107476,1,2
424,128,107559,1,2
440,184,107641,1,0
440,184,107806,1,2
400,144,107971,1,0
400,144,108053,1,0
424,152,108136,1,2
472,128,108301,1,0
424,128,108465,1,2
424,72,108630,1,0
448,120,108795,1,2
440,184,108960,1,0
408,184,109042,1,0
376,184,109125,1,0
408,136,109290,1,2
408,136,109372,1,2
408,136,109454,1,2
408,184,109619,1,2
424,128,109784,1,0
472,96,109949,1,2
464,152,110114,1,0
408,136,110279,1,2
360,96,110443,1,0
384,112,110526,1,0
384,112,110608,1,0
384,112,110691,1,0
408,112,110773,1,2
424,168,110938,1,0
432,224,111103,1,2
392,184,111267,1,0
392,184,111350,1,0
424,168,111432,1,2
296,120,111597,1,0
424,168,111762,1,2
448,120,111927,1,0
448,120,112009,1,0
472,112,112092,1,2
296,120,112257,1,0
424,168,112422,1,2
448,120,112587,1,0
448,120,112669,1,0
472,112,112752,1,2
432,144,112916,1,0
488,144,113081,1,2
400,264,113246,1,4
400,208,113410,1,2
424,168,113575,1,6
368,144,113740,1,0
416,280,113905,1,4
440,168,114234,1,4
456,112,114399,1,4
408,80,114564,1,6
432,128,114729,1,0
384,160,114894,1,2
408,168,114976,1,0
408,168,115058,1,0
408,168,115141,1,0
408,192,115223,1,2
464,184,115388,1,0
480,128,115553,1,2
448,176,115718,1,0
408,136,115883,1,2
392,112,115965,1,2
392,112,116047,1,2
392,112,116130,1,2
392,112,116212,1,2
448,104,116377,1,0
496,80,116542,1,2
448,176,116707,1,0
488,208,116872,1,2
408,168,116954,1,0
408,168,117036,1,0
408,168,117119,1,0
408,192,117201,1,2
464,184,117366,1,0
480,128,117531,1,2
448,176,117696,1,0
408,136,117861,1,2
392,112,117943,1,2
392,112,118025,1,2
392,112,118108,1,2
392,112,118190,1,2
448,104,118355,1,0
496,80,118520,1,2
448,176,118685,1,0
424,160,118767,1,0
488,208,118850,1,2
432,200,119014,1,0
408,144,119179,1,2
392,200,119344,1,0
360,200,119427,1,0
440,176,119509,1,2
384,192,119674,1,0
416,144,119839,1,2
432,120,119921,1,2
432,120,120003,1,0
432,120,120086,1,0
432,120,120168,1,0
432,120,120251,1,0
432,120,120333,1,0
376,136,120498,1,0
464,168,120663,1,2
360,120,120827,1,0
360,120,120910,1,0
360,120,120992,1,0
360,120,121075,1,0
360,120,121157,1,0
360,120,121240,1,0
360,120,121322,1,0
384,112,121404,1,2
408,112,121487,1,2
464,112,121652,1,0
472,168,121817,1,2
416,160,121981,1,2
360,152,122146,1,2
328,152,122229,1,2
296,144,122311,1,2
336,184,122476,1,2
368,144,122641,1,0
408,184,122806,1,2
408,112,122970,1,0
416,80,123053,1,0
440,96,123135,1,2
408,144,123300,1,0
440,184,123465,1,2
392,216,123630,1,0
416,320,123795,1,4
432,208,124124,1,4
432,208,124454,1,4
376,200,124619,1,0
344,200,124701,1,0
312,192,124784,1,0
360,168,124949,1,2
432,208,125113,1,0
456,152,125278,1,2
432,136,125361,1,2
408,120,125443,1,2
384,104,125525,1,2
408,96,125608,1,0
456,120,125773,1,2
496,80,125938,1,0
456,120,126102,1,0
440,144,126185,1,0
464,136,126267,1,2
408,96,126432,1,0
456,120,126597,1,2
496,80,126762,1,0
456,120,126926,1,0
440,144,127009,1,0
464,136,127091,1,2
448,192,127256,1,2
392,184,127421,1,2
424,224,127586,1,0
376,192,127751,1,0
400,112,127916,1,2
400,112,127998,1,2
440,144,128080,1,0
496,160,128245,1,2
440,144,128410,1,0
400,112,128575,1,2
400,112,128657,1,2
440,144,128739,1,0
496,160,128904,1,2
440,144,129069,1,0
400,112,129234,1,2
400,112,129316,1,2
440,144,129398,1,0
496,160,129563,1,2
440,144,129728,1,0
448,88,129894,1,2
456,56,129976,1,2
456,80,130058,1,0
456,104,130141,1,0
448,128,130223,1,2
392,144,130388,1,2
376,208,130553,1,2
384,176,130635,1,0
384,144,130718,1,0
392,120,130800,1,0
304,296,130883,1,2
392,120,130965,1,0
392,120,131047,1,0
392,120,131130,1,0
376,208,131212,1,2
328,240,131377,1,0
376,208,131542,1,0
432,216,131707,1,2
376,224,131872,1,0
352,232,131954,1,0
376,216,132036,1,2
336,176,132201,1,0
400,104,132366,1,2
416,80,132449,1,2
424,104,132531,1,0
448,120,132613,1,2
448,120,132696,1,2
456,176,132861,1,0
400,168,133025,1,2
440,128,133190,1,0
464,112,133273,1,0
448,120,133355,1,2
448,120,133438,1,2
448,144,133520,1,0
448,144,133602,1,0
440,168,133685,1,2
424,192,133767,1,2
392,192,133850,1,0
456,176,134014,1,0
320,280,134179,1,0
368,256,134344,1,4
464,200,134674,1,4
352,208,135003,1,4
240,224,135333,1,4
352,232,135663,2,4,L|264:304|104:184|272:80|384:120,1,630
