osu file format v6

[General]
AudioFilename: knf.mp3
AudioLeadIn: 0
PreviewTime: 48070
Countdown: 1
SampleSet: Normal
StackLeniency: 0.7
Mode: 0
LetterboxInBreaks: 1
StoryFireInFront: 0
SkinPreference:taiko

[Editor]
DistanceSpacing: 1
BeatDivisor: 4
GridSize: 8

[Metadata]
Title:Kaze no Fantasy
Artist:Taiko no Tatsujin
Creator:aquabluu
Version:Hard
Source:
Tags:taikosu

[Difficulty]
HPDrainRate:5
CircleSize:5
OverallDifficulty:6
SliderMultiplier:1.4
SliderTickRate:1

[Events]
//Background and Video events
0,0,"142520383_8521314277.jpg"
//Break Periods
2,93829,95216
2,96466,97854
//Storyboard Layer 0 (Background)
//Storyboard Layer 1 (Fail)
//Storyboard Layer 2 (Pass)
//Storyboard Layer 3 (Foreground)
//Storyboard Sound Samples
//Background Colour Transformations
3,100,255,225,241

[TimingPoints]
3960,329.67032967033,4,1,1,100,1,0
48795,-100,4,1,1,100,0,1
80443,-100,4,1,1,100,0,0
104179,-100,4,1,1,100,0,1
137146,-100,4,1,1,100,0,0

[HitObjects]
404,36,3959,1,0
272,80,4288,1,0
400,144,4618,1,0
336,176,4783,1,2
464,232,5112,1,2
400,264,5277,1,0
464,296,5442,1,2
328,336,5772,5,2
256,328,5937,1,0
184,320,6101,1,2
216,256,6266,1,0
144,240,6431,1,2
72,224,6596,5,0
72,224,6927,1,0
32,88,7255,1,0
96,56,7420,1,2
232,32,7750,1,2
304,48,7915,1,0
376,64,8079,1,2
464,184,8409,5,2
400,216,8574,1,0
336,184,8739,1,2
336,256,8904,1,0
400,288,9068,1,2
336,328,9234,5,0
336,328,9564,1,0
200,312,9893,1,0
128,328,10057,1,2
32,224,10387,1,2
96,192,10552,1,0
32,160,10717,1,2
88,288,11046,5,2
152,320,11211,1,0
224,328,11376,1,2
296,312,11541,1,0
352,272,11706,1,2
384,208,11871,1,0
320,176,12035,1,2
288,240,12200,1,0
224,264,12365,1,2
152,256,12530,5,0
104,208,12695,1,2
112,136,12860,1,0
152,80,13024,1,2
216,48,13189,1,0
280,80,13354,1,2
296,152,13519,1,0
240,192,13684,1,2
184,152,13849,1,0
40,328,14508,5,0
72,192,14838,1,2
40,56,15167,1,0
40,56,15332,1,0
104,88,15497,1,2
152,32,15662,1,0
288,32,15991,1,0
352,64,16156,1,2
248,160,16486,1,0
312,192,16651,1,0
248,160,16816,1,2
376,224,17145,5,0
256,296,17475,1,2
112,296,17805,1,0
56,344,17969,1,0
112,296,18134,1,2
168,248,18299,1,0
32,216,18629,1,0
88,168,18794,1,2
208,104,19123,5,0
216,32,19288,1,0
152,64,19453,1,2
24,128,19783,1,0
24,264,20112,1,2
160,304,20442,1,0
160,304,20608,1,0
216,256,20772,1,2
152,224,20937,1,0
152,88,21266,5,0
216,56,21431,1,2
256,192,21761,1,0
320,160,21926,1,0
384,128,22090,1,2
248,136,22420,1,0
384,184,22750,1,2
480,280,23079,1,0
416,304,23244,1,0
480,280,23409,1,2
344,328,23739,5,0
72,272,24398,1,2
344,208,25057,5,0
280,240,25222,1,2
216,208,25387,1,0
160,160,25552,1,2
216,112,25717,1,0
280,80,25882,1,2
344,112,26046,1,0
400,160,26211,1,2
480,48,26541,1,2
480,120,26706,1,0
480,192,26871,1,2
480,328,27200,1,2
408,328,27365,1,0
248,336,27695,5,0
192,288,27860,1,2
176,216,28024,1,0
208,152,28189,1,2
176,88,28354,1,0
112,56,28519,1,2
40,72,28684,1,0
24,144,28849,1,2
48,280,29178,1,2
96,336,29343,1,0
120,272,29508,1,2
256,240,29838,1,2
256,312,30002,1,2
392,336,30332,5,0
456,304,30497,1,2
496,248,30662,1,0
504,176,30827,1,2
480,112,30991,1,0
440,168,31156,1,2
424,240,31321,1,0
360,272,31486,1,2
240,192,31816,1,2
304,160,31980,1,0
336,96,32145,1,2
200,64,32475,1,2
264,32,32640,1,0
136,96,32969,5,0
72,64,33134,1,2
72,136,33299,1,0
136,168,33464,1,2
72,208,33629,1,0
136,240,33794,1,2
72,280,33959,1,0
72,280,34288,1,0
448,320,35607,5,0
312,304,35937,1,2
256,264,36101,1,0
128,320,36431,1,0
56,312,36596,1,2
16,256,36761,1,0
152,216,37090,1,0
152,216,37255,1,2
288,176,37585,1,0
352,208,37750,1,0
344,136,37915,1,2
344,136,38079,1,0
256,24,38409,5,0
256,24,38574,1,2
120,48,38904,1,0
120,48,39068,1,2
216,152,39398,1,0
152,168,39563,1,0
96,208,39728,1,2
152,248,39893,1,2
216,264,40057,1,2
456,72,40882,5,0
320,40,41211,1,2
248,32,41376,1,0
120,88,41706,1,0
48,80,41871,1,2
24,152,42035,1,0
168,224,42365,1,0
232,256,42530,1,2
368,224,42860,1,0
304,256,43024,1,2
176,320,43354,6,0,B|274:383|492:376|500:146|429:9,2,560
176,320,46156,5,2
40,288,46486,1,2
160,216,46816,1,2
96,200,46980,1,2
144,64,47310,5,4
328,120,47640,1,4
448,280,47969,1,4
256,312,48794,5,0
184,304,48959,1,2
128,256,49123,1,0
256,200,49454,2,0,L|256:152,4,35
168,88,50112,5,0
104,56,50277,1,2
40,88,50442,1,0
8,152,50607,1,2
40,216,50772,1,0
104,248,50937,1,2
168,216,51101,1,0
272,312,51431,5,0
344,304,51596,1,2
408,336,51761,1,0
464,208,52091,2,0,L|496:176,4,35
328,152,52750,5,0
376,96,52915,1,2
328,40,53079,1,0
256,24,53244,1,2
184,40,53409,1,0
136,96,53574,1,2
176,152,53739,1,0
48,96,54068,5,0
8,160,54233,1,2
80,176,54398,1,0
48,240,54563,1,2
48,240,54728,1,0
88,296,54893,1,2
160,312,55057,1,0
280,240,55387,5,0
312,304,55552,1,2
352,248,55717,1,0
320,184,55882,1,2
320,184,56046,1,0
352,120,56211,1,2
336,48,56376,1,0
224,112,56706,5,0
160,144,56871,1,2
224,176,57035,1,0
360,208,57365,1,0
424,240,57530,1,0
360,272,57695,1,0
424,304,57860,1,4
424,304,58189,1,4
424,304,58519,1,4
32,304,59343,5,0
104,288,59508,1,2
136,224,59673,1,0
208,104,60003,2,0,L|208:56,4,35
72,112,60662,5,0
136,144,60827,1,2
192,192,60991,1,0
224,256,61156,1,2
280,304,61321,1,0
352,320,61486,1,2
424,304,61651,1,0
304,232,61980,5,0
360,184,62145,1,2
424,216,62310,1,0
360,88,62641,2,0,L|312:72,4,35
248,176,63299,5,0
216,240,63464,1,2
152,272,63629,1,0
80,256,63794,1,2
48,192,63959,1,0
56,120,64123,1,2
104,64,64288,1,0
240,32,64619,6,0,L|224:64,4,35
376,72,65277,5,2
408,88,65360,1,2
424,120,65442,1,2
408,152,65524,1,2
376,168,65607,1,2
352,304,65937,6,0,L|313:330,4,35
296,176,66596,5,2
288,144,66678,1,2
256,128,66761,1,2
224,144,66843,1,2
216,176,66926,1,2
136,64,67255,5,0
64,72,67420,1,0
104,128,67585,1,0
32,144,67750,1,0
80,192,67915,1,0
32,240,68079,1,0
88,280,68244,1,0
152,312,68409,1,4
152,312,68739,1,4
152,312,69068,1,4
416,352,69894,6,0,B|505:363|510:260|497:4|320:-44|266:-48|293:41|410:155|392:238|170:243|156:170|171:120|149:-30|57:-33|3:82|22:274,1,980
112,336,72530,5,0
184,320,72695,1,2
248,288,72860,1,0
296,232,73024,1,2
304,160,73189,1,0
240,192,73354,1,2
192,248,73519,1,0
120,264,73684,1,2
56,232,73849,1,0
24,168,74013,1,2
32,96,74178,1,0
72,32,74343,1,2
144,16,74508,1,0
216,24,74673,1,2
272,72,74838,1,0
136,88,75167,5,0
80,136,75332,1,2
136,184,75497,1,0
200,168,75662,1,2
272,192,75827,1,0
336,224,75991,1,2
408,232,76156,1,0
472,200,76321,1,2
504,136,76486,1,0
488,64,76651,1,2
424,32,76816,1,0
352,48,76980,1,2
320,112,77145,1,0
384,144,77310,1,2
440,96,77475,1,0
496,240,77805,5,0
432,208,77969,1,2
360,200,78134,1,0
288,216,78299,1,2
256,280,78464,1,0
200,328,78629,1,2
128,344,78794,1,0
56,336,78960,1,2
8,280,79123,1,0
16,208,79288,1,2
48,144,79453,1,0
112,104,79618,1,2
112,104,79700,1,2
112,104,79783,1,0
256,336,80442,5,0
224,120,80937,1,2
160,152,81101,1,0
288,120,81431,1,2
352,152,81596,1,0
256,336,82090,1,2
256,192,82420,1,2
256,264,82585,1,0
48,264,83079,5,0
192,264,83409,1,2
120,144,83739,1,2
152,80,83904,1,0
288,40,84233,1,2
416,96,84563,1,2
480,128,84728,1,0
416,160,84893,1,2
256,32,85717,5,2
48,48,86211,1,2
48,120,86376,1,0
176,64,86706,1,2
176,136,86871,1,0
368,48,87365,1,2
368,192,87695,1,2
368,264,87860,1,0
480,352,88189,6,0,B|434:324|376:304|301:337|237:369|111:363|64:352|32:192,2,525
472,216,90991,5,0
336,264,91321,1,0
200,248,91651,1,0
200,248,91816,1,0
72,192,92145,5,4
256,0,92475,1,4
432,192,92805,1,4
256,192,93629,5,4
256,192,96266,5,4
384,320,98904,5,4
128,320,99563,1,4
128,80,100222,1,4
384,80,100882,1,4
136,112,101541,5,0
200,152,101706,1,0
160,216,101871,1,0
216,272,102035,1,0
296,272,102200,1,0
344,216,102365,1,0
304,152,102530,1,0
368,112,102695,1,4
480,24,103024,1,4
480,168,103354,1,4
160,312,104178,5,0
224,280,104343,1,2
160,312,104508,1,0
64,208,104839,2,0,L|16:208,4,35
88,72,105497,5,0
152,40,105662,1,2
144,112,105827,1,0
208,80,105991,1,2
200,152,106156,1,0
256,192,106321,1,2
264,120,106486,1,0
384,40,106816,5,0
320,80,106980,1,2
384,40,107145,1,0
448,168,107476,2,0,L|488:192,4,35
456,304,108134,5,0
384,288,108299,1,2
432,240,108464,1,0
360,224,108629,1,2
416,176,108794,1,0
392,112,108960,1,2
336,160,109123,1,0
320,296,109453,5,0
248,312,109618,1,2
176,320,109783,1,0
104,312,109948,1,2
48,264,110112,1,0
40,192,110277,1,2
48,264,110442,1,0
184,224,110772,5,0
136,168,110937,1,2
128,96,111101,1,0
160,32,111266,1,2
232,16,111431,1,0
304,32,111596,1,2
232,16,111761,1,0
224,152,112090,5,0
288,120,112255,1,2
288,192,112420,1,0
416,120,112750,1,0
352,152,112915,1,0
416,192,113079,1,0
416,120,113244,1,4
344,240,113574,1,4
488,240,113904,1,4
144,304,114728,5,0
72,288,114893,1,2
40,224,115057,1,0
168,160,115387,2,0,L|184:124,3,35,0|0|0|0
184,128,115718,1,0
248,248,116046,5,0
264,320,116211,1,2
336,344,116376,1,0
408,352,116541,1,2
472,320,116706,1,0
480,248,116871,1,2
432,192,117035,1,0
328,264,117365,5,0
272,216,117530,1,2
200,208,117695,1,0
312,120,118024,2,0,L|368:136,3,35
344,128,118354,1,0
256,24,118684,5,0
184,16,118849,1,2
128,64,119013,1,0
136,136,119178,1,2
72,168,119343,1,0
16,120,119508,1,2
48,56,119673,1,0
16,192,120002,5,0
32,208,120085,1,0
48,224,120167,1,0
64,240,120250,1,0
80,256,120332,1,0
200,192,120662,5,2
216,176,120744,1,2
232,160,120827,1,2
248,144,120909,1,2
264,128,120991,1,2
296,264,121321,5,0
312,280,121404,1,0
328,296,121486,1,0
344,312,121568,1,0
360,328,121651,1,0
392,192,121980,5,2
408,176,122063,1,2
424,160,122145,1,2
440,144,122228,1,2
456,128,122310,1,2
336,48,122640,5,0
272,16,122805,1,0
272,88,122969,1,0
208,56,123134,1,0
152,104,123299,1,0
216,136,123465,1,0
160,176,123629,1,0
224,208,123794,1,4
224,208,124123,1,4
224,208,124453,1,4
96,352,125277,6,0,B|7:363|2:260|15:4|192:-44|246:-48|219:41|102:155|120:238|342:243|356:170|341:120|363:-30|455:-33|509:82|490:274,1,980
491,257,127915,5,0
491,257,128244,1,0
368,328,128574,1,0
304,304,128739,1,2
168,328,129068,1,2
104,296,129233,1,0
168,264,129398,1,2
112,136,129728,1,2
176,168,129893,1,0
240,200,130057,1,2
176,168,130222,1,0
112,136,130387,1,2
48,104,130552,5,0
176,56,130882,1,0
312,16,131211,1,0
376,48,131376,1,2
472,152,131706,1,2
440,88,131871,1,0
472,152,132035,1,2
424,288,132365,1,2
352,296,132530,1,0
280,288,132695,1,2
208,272,132860,1,0
152,224,133024,1,2
144,152,133189,5,0
200,192,133354,1,2
264,224,133519,1,0
328,192,133684,1,2
344,120,133849,1,0
312,56,134013,1,2
240,56,134178,1,0
232,128,134343,1,4
200,264,134674,5,4
72,312,135002,1,4
24,176,135332,1,4
160,128,135662,2,4,B|240:112|256:208|356:294|464:240|608:144|520:16|400:8|312:136,1,630
