osu file format v6

[General]
AudioFilename: boukenhiyori.mp3
AudioLeadIn: 1985
PreviewTime: 162
Countdown: 0
SampleSet: Normal
StackLeniency: 0.4
Mode: 0
LetterboxInBreaks: 0
SkinPreference:taiko

[Editor]
DistanceSpacing: 1.37000000476837
BeatDivisor: 4
GridSize: 8

[Metadata]
Title:Bouken Hiyori
Artist:Taiko no Tatsujin
Creator:Zekira
Version:Oni
Source:taiko no tatsujin
Tags:christmas :D

[Difficulty]
HPDrainRate:5
CircleSize:5
OverallDifficulty:7
SliderMultiplier:1.4
SliderTickRate:2

[Events]
//Background and Video events
0,0,"Konachancom-29084taiko_no_tatsujin.jpg"
Video,-770,"BoukenHyouri.avi"
//Break Periods
//Storyboard Layer 0 (Background)
//Storyboard Layer 1 (Fail)
//Storyboard Layer 2 (Pass)
//Storyboard Layer 3 (Foreground)
//Storyboard Sound Samples
//Background Colour Transformations
3,100,255,255,255

[TimingPoints]
1558,461.538461538462,4,1,1,100,1,0
66167,-100,4,1,1,100,0,1
95705,-100,4,1,1,100,0,0

[Colours]
Combo1 : 111,225,214
Combo2 : 243,89,34
Combo3 : 112,196,193
Combo4 : 250,34,22

[HitObjects]
64,48,1558,5,0
128,48,1788,1,2
192,48,2019,1,0
288,48,2365,2,0,B|232:48,1,35
320,48,2711,1,2
384,48,2942,1,0
448,48,3173,1,2
448,336,3404,5,0
384,336,3634,1,2
320,336,3865,1,0
224,336,4211,2,0,B|280:336,1,35
192,336,4558,1,0
128,336,4788,1,2
64,336,5019,1,2
448,56,5250,5,0
400,96,5481,1,2
448,136,5711,1,0
392,216,6058,2,0,B|424:176,1,35
448,248,6404,1,2
400,288,6634,1,0
448,328,6865,1,2
64,328,7096,5,0
112,288,7327,1,2
64,248,7558,1,0
120,168,7904,2,0,B|88:208,1,35
64,136,8250,1,0
112,96,8481,1,2
64,56,8711,1,2
256,192,8942,5,0
256,192,9173,1,2
256,192,9404,1,0
256,192,9750,2,0,B|256:256,1,35
256,192,10096,1,2
256,192,10327,1,0
256,192,10558,1,2
128,192,11019,5,2
128,192,11250,1,0
128,192,11481,1,2
384,192,11942,5,2
384,192,12173,1,0
256,192,12404,12,4,14019
80,56,14481,5,0
256,128,14827,1,2
256,128,14942,1,0
256,256,15173,1,2
368,192,15404,1,0
256,192,16327,5,2
160,192,16558,1,2
112,192,16673,1,2
64,192,16788,1,2
64,96,17019,1,2
160,96,17250,1,2
208,96,17365,1,2
256,96,17481,1,2
304,96,17596,1,2
352,96,17711,1,2
448,96,17942,1,4
448,96,18173,1,4
448,192,18404,5,2
416,232,18519,1,0
384,272,18634,1,0
288,272,18865,1,0
192,272,19096,2,0,B|144:272,1,35,2|0
64,272,19442,2,0,B|112:272,1,35,2|0
64,192,19788,1,0
64,192,19904,1,0
64,192,20019,5,0
64,96,20250,1,2
64,144,20365,1,2
64,192,20481,1,0
160,192,20711,1,2
256,192,20942,2,0,B|256:128,1,35,0|2
256,64,21288,2,0,B|256:128,1,35,0|2
160,64,21634,1,0
64,64,21865,1,0
64,192,22096,5,2
96,152,22211,1,0
128,112,22327,1,0
224,112,22558,1,0
320,112,22788,2,0,B|368:112,1,35,2|0
448,112,23134,2,0,B|400:112,1,35,2|0
448,192,23481,1,0
448,192,23596,1,0
448,192,23711,5,0
448,288,23942,1,2
448,240,24058,1,2
448,192,24173,1,0
352,192,24404,1,2
256,192,24634,2,0,B|256:256,1,35,0|2
256,320,24981,2,0,B|256:256,1,35,0|2
352,320,25327,1,0
448,320,25558,1,0
304,192,26019,5,2
208,192,26250,1,0
112,192,26481,1,2
112,192,26596,1,2
112,192,26711,1,0
16,192,26942,1,2
16,192,27173,1,0
16,192,27404,1,0
208,192,27865,5,2
304,192,28096,1,0
400,192,28327,1,0
400,192,28442,1,2
400,192,28558,1,0
496,192,28788,1,0
496,192,29019,1,2
496,192,29250,1,0
256,80,29711,5,2
256,80,29942,1,0
256,80,30173,1,2
256,80,30288,1,2
256,80,30404,1,0
256,80,30634,1,2
256,80,30865,1,0
256,272,31327,5,0
160,272,31558,1,2
256,272,31788,1,0
352,272,32019,1,0
400,272,32134,1,0
448,272,32250,1,2
352,272,32481,1,0
256,272,32711,1,2
160,272,32942,6,0,B|160:216,1,35,0|2
392,192,33288,2,0,B|392:144,1,35,2|0
168,80,33634,1,2
168,80,33750,1,2
168,80,33865,1,0
320,192,34096,1,4
320,192,34327,1,4
128,192,34558,5,2
128,192,34673,1,2
128,192,34788,1,0
128,192,34904,1,0
312,144,35134,1,0
312,144,35250,1,2
312,144,35365,1,0
312,144,35481,1,0
312,144,35596,1,0
312,144,35711,1,2
128,80,35942,1,4
128,80,36173,1,4
128,272,36404,5,2
128,272,36519,1,2
128,272,36634,1,0
256,192,36865,12,0,37788
256,192,38250,5,4
256,192,38481,1,4
160,192,38711,1,2
112,192,38827,1,2
64,192,38942,1,0
64,96,39173,1,2
160,96,39404,2,2,B|208:96,1,35,0|0
288,96,39750,2,2,B|232:96,1,35,0|2
288,184,40096,1,0
288,184,40327,1,0
288,280,40558,5,2
240,280,40673,1,0
192,280,40788,1,0
96,280,41019,1,0
96,184,41250,2,0,B|152:160,1,35,2|0
216,128,41596,2,0,B|264:96,1,35,2|0
344,104,41942,1,0
344,104,42058,1,0
344,104,42173,1,0
440,104,42404,6,0,B|440:64,2,35,2|2|0
440,200,42865,1,2
440,296,43096,2,0,B|400:296,1,35,0|2
312,296,43442,2,2,B|312:256,1,35
224,296,43788,1,0
128,296,44019,5,0
184,216,44250,1,0
128,144,44481,1,2
184,64,44711,1,2
280,64,44942,2,0,B|320:64,1,35
360,64,45173,2,0,B|400:64,1,35,2|0
440,64,45404,1,2
440,64,45634,1,2
384,296,45865,5,0
328,216,46096,1,0
384,144,46327,1,2
328,64,46558,1,2
232,64,46788,2,0,B|192:64,1,35
152,64,47019,2,0,B|112:64,1,35,2|0
72,64,47250,1,0
72,64,47481,1,2
64,160,47711,5,0
64,208,47827,1,0
112,208,47942,1,2
112,160,48058,1,0
160,160,48173,1,2
256,160,48404,1,2
352,160,48634,1,0
352,208,48750,1,0
400,208,48865,1,2
400,160,48981,1,0
448,160,49096,1,0
448,64,49327,1,2
352,64,49558,5,0
256,64,49788,1,2
160,64,50019,1,0
256,64,50250,1,2
256,160,50481,1,0
256,160,50596,1,0
256,160,50711,1,2
256,160,50827,1,0
256,160,50942,1,2
256,256,51173,1,2
352,320,51404,5,0
256,320,51634,1,2
160,320,51865,1,0
256,320,52096,1,2
256,224,52327,1,0
256,224,52442,1,0
256,224,52558,1,2
256,224,52673,1,0
256,224,52788,1,0
256,128,53019,1,2
160,64,53250,5,0
256,64,53481,1,2
352,64,53711,1,0
256,64,53942,1,2
256,160,54173,1,0
256,160,54288,1,0
256,160,54404,1,2
256,160,54519,1,0
256,160,54634,1,2
256,256,54865,1,2
256,352,55096,5,0
160,352,55327,1,2
256,352,55558,1,0
352,352,55788,1,2
256,352,56019,1,0
160,352,56250,1,2
256,352,56481,1,0
352,352,56711,1,2
352,304,56827,1,2
352,256,56942,5,0
304,256,57058,1,0
304,208,57173,1,2
352,208,57288,1,0
352,160,57404,1,2
352,64,57634,5,2
320,104,57750,1,2
288,64,57865,1,0
256,104,57981,1,0
224,64,58096,1,2
192,104,58211,1,0
160,64,58327,1,0
160,160,58558,5,2
112,160,58673,1,2
112,208,58788,1,0
160,208,58904,1,0
160,256,59019,1,2
112,256,59134,1,0
112,304,59250,1,2
208,304,59481,6,2,B|256:304,1,35
288,304,59711,2,0,B|288:256,1,35
288,224,59942,2,0,B|288:168,1,35,2|0
288,144,60173,1,0
368,192,60404,1,2
464,192,60634,5,0
64,192,61788,1,0
64,192,62134,1,0
64,336,62481,2,2,B|424:336|400:40,1,490
48,192,64327,5,0
464,192,64673,6,0,B|408:192,1,35,2|0
256,192,65019,5,0
256,192,65250,1,2
256,192,66173,5,0
256,288,66404,1,2
208,288,66519,1,2
160,288,66634,1,0
64,288,66865,1,2
96,256,66981,1,2
56,232,67096,1,0
96,200,67211,1,0
56,112,67442,1,0
104,112,67558,1,2
200,112,67788,1,2
256,192,68019,5,0
256,288,68250,1,2
304,288,68365,1,2
352,288,68481,1,0
448,288,68711,1,0
416,256,68827,1,2
456,232,68942,1,0
416,200,69058,1,0
456,112,69288,1,0
408,112,69404,1,2
312,112,69634,1,2
256,192,69865,5,0
160,192,70096,1,2
112,192,70211,1,2
64,192,70327,1,0
64,288,70558,1,2
112,288,70673,1,2
160,288,70788,1,2
256,288,71019,1,0
256,288,71250,1,0
256,288,71481,1,2
256,24,72173,5,4
256,24,72634,5,4
256,24,73096,5,4
256,24,73558,5,0
256,120,73788,1,2
256,168,73904,1,2
256,216,74019,1,0
352,216,74250,1,2
328,256,74365,1,2
288,288,74481,1,0
248,312,74596,1,2
200,328,74711,1,0
152,344,74827,1,0
104,352,74942,1,2
104,256,75173,1,2
104,40,75634,5,2
200,40,75865,1,0
344,40,76211,1,2
392,40,76327,1,0
440,40,76442,1,0
488,40,76558,1,2
488,136,76788,1,0
392,136,77019,1,0
392,232,77250,1,2
488,232,77481,1,2
488,328,77711,1,0
392,328,77942,5,0
344,328,78058,1,0
296,328,78173,1,0
296,232,78404,1,0
392,232,78634,1,2
488,232,78865,1,2
256,192,79558,5,4
256,192,80019,5,4
256,192,80481,5,4
256,192,80942,5,4
256,96,81173,1,2
304,96,81288,1,2
352,96,81404,1,0
448,96,81634,1,2
416,128,81750,1,2
456,152,81865,1,0
416,184,81981,1,0
456,272,82211,1,0
408,272,82327,1,2
312,272,82558,1,2
256,192,82788,5,0
256,96,83019,1,2
208,96,83134,1,2
160,96,83250,1,0
64,96,83481,1,0
96,128,83596,1,2
56,152,83711,1,0
96,184,83827,1,0
56,272,84058,1,0
104,272,84173,1,2
200,272,84404,1,2
256,192,84634,5,0
352,192,84865,1,2
400,192,84981,1,2
448,192,85096,1,0
448,96,85327,1,2
400,96,85442,1,2
352,96,85558,1,2
256,96,85788,1,0
256,96,86019,1,0
256,96,86250,1,2
64,320,86942,5,0
160,320,87173,1,0
160,224,87404,1,2
208,224,87519,1,2
256,224,87634,1,0
352,224,87865,1,2
352,128,88096,1,0
304,128,88211,1,0
256,128,88327,5,0
160,128,88558,1,2
160,80,88673,1,2
160,32,88788,1,0
256,32,89019,1,2
296,56,89134,1,2
256,88,89250,1,0
296,112,89365,1,2
256,144,89481,1,0
296,168,89596,1,0
256,192,89711,1,2
256,288,89942,1,0
88,192,90404,5,2
184,192,90634,1,0
328,192,90981,1,2
376,192,91096,1,0
424,192,91211,1,0
472,192,91327,1,2
472,96,91558,1,0
376,96,91788,1,0
376,192,92019,1,2
376,288,92250,1,2
280,288,92481,1,0
184,288,92711,5,2
152,328,92827,1,0
128,288,92942,1,0
128,192,93173,1,0
128,192,93404,1,2
128,192,93634,1,2
40,32,93865,5,4
256,352,94327,5,6
472,32,94788,5,4
376,32,95019,1,2
328,32,95134,1,2
280,32,95250,1,2
448,336,95711,5,4
384,336,95942,1,2
320,336,96173,1,0
224,336,96519,2,0,B|280:336,2,35
192,336,96865,2,2,B|152:336,1,35,2|0
128,336,97096,1,0
64,336,97327,1,2
64,48,97558,5,0
128,48,97788,1,2
192,48,98019,1,0
288,48,98365,2,0,B|232:48,2,35,0|0|2
320,48,98711,2,0,B|360:48,1,35
384,48,98942,1,2
448,48,99173,1,2
64,328,99404,5,0
112,288,99634,1,2
64,248,99865,1,0
120,168,100211,2,0,B|88:208,2,35
88,152,100558,2,2,B|128:128,1,35,2|0
112,96,100788,1,0
64,56,101019,1,2
448,56,101250,5,0
400,96,101481,1,2
448,136,101711,1,0
392,216,102058,2,0,B|424:176,2,35
424,232,102404,2,2,B|384:256,1,35,2|0
400,288,102634,1,2
448,328,102865,1,2
0,192,103327,5,4
0,192,103558,1,4
0,192,103788,1,6
512,192,104250,5,4
512,192,104481,1,4
512,192,104711,1,6
256,32,105173,5,6
256,32,105404,1,6
256,32,105634,1,6
256,352,106096,5,6
256,352,106327,1,6
256,352,106558,1,6
256,32,106788,5,0
256,96,107019,1,2
256,160,107250,1,0
256,256,107596,2,0,B|256:304,2,35
256,224,107942,2,0,B|320:224,1,35,2|0
320,224,108173,1,0
384,224,108404,1,2
432,328,108634,5,0
256,256,108981,1,2
256,256,109096,1,0
256,128,109327,1,2
144,192,109558,1,4
