osu file format v5

[General]
AudioFilename: EkiBEN2000.mp3
AudioLeadIn: 518
PreviewTime: -1
Countdown: 0
SampleSet: Normal
StackLeniency: 0.5
Mode: 0
LetterboxInBreaks: 1
EditorBookmarks: 23862,48750,74102,97985

[Metadata]
Title:EKiBEN2000
Artist:Taiko No Tatsujin
Creator:crystalsuicune
Version:Hard
Source:
Tags:

[Difficulty]
HPDrainRate:5
CircleSize:5
OverallDifficulty:4
SliderMultiplier:1.5
SliderTickRate:2

[Events]
//Background and Video events
//Break Periods
2,13102,23036
2,43771,47371
2,68439,73039
2,87132,97052
//Storyboard Layer 0 (Background)
//Storyboard Layer 1 (Failing)
//Storyboard Layer 2 (Passing)
//Storyboard Layer 3 (Foreground)
//Storyboard Sound Samples
//Background Colour Transformations
3,100,163,162,255

[TimingPoints]
3767,309.166795486165,4,1,0,100,1

[Colours]
Combo1 : 112,196,193
Combo2 : 243,89,34
Combo3 : 112,196,193
Combo4 : 243,89,34

[HitObjects]
96,64,288,1,0
160,64,443,1,2
224,64,598,1,0
448,32,1293,1,0
448,128,1602,1,0
352,160,1911,2,2,B|192:160,1,150
160,224,2453,5,0
160,320,2762,1,0
224,320,2916,1,0
288,320,3071,1,2
288,224,3380,1,2
288,96,3766,5,0
192,96,4076,1,0
128,96,4230,1,0
64,96,4385,1,2
128,32,4694,1,2
224,32,5003,5,0
288,32,5158,1,0
352,32,5312,1,0
416,32,5467,1,0
480,32,5622,1,2
480,128,5931,1,2
480,224,6240,5,0
416,224,6394,1,0
352,224,6549,1,0
288,224,6704,1,0
288,288,6858,1,2
224,288,7090,1,0
128,288,7322,5,0
128,224,7554,1,0
128,160,7708,1,0
128,64,8018,1,0
192,64,8172,1,0
288,64,8481,1,0
352,64,8636,1,0
352,160,8945,1,0
288,160,9100,1,0
288,256,9409,1,2
352,256,9563,1,0
352,320,9718,1,2
288,320,9873,1,0
224,320,10027,1,2
224,256,10182,1,0
224,192,10336,1,2
480,224,10645,5,0
480,288,10800,1,0
352,288,11187,1,0
288,288,11341,1,0
288,160,11728,1,0
224,160,11882,1,2
224,96,12037,1,0
160,96,12191,1,2
160,160,12346,1,0
160,224,12500,1,2
96,224,12655,1,0
96,160,12810,1,2
96,64,23940,5,0
160,64,24094,1,2
288,64,24481,1,0
288,128,24635,1,2
288,224,24944,1,0
384,128,25331,1,2
384,192,25485,1,0
384,256,25640,1,2
352,288,25795,1,0
288,288,25949,1,2
192,288,26258,1,0
192,160,26645,5,2
256,160,26799,1,0
256,64,27109,1,0
320,64,27263,1,2
256,160,27572,1,0
256,256,27882,1,0
192,256,28036,1,2
160,192,28191,1,0
128,160,28345,1,2
96,192,28500,1,2
96,256,28654,1,0
96,320,28809,1,0
160,256,29118,5,0
160,320,29273,1,2
256,320,29582,1,0
256,256,29737,1,2
352,256,30046,1,2
352,160,30355,1,0
352,96,30509,1,2
288,96,30664,1,0
224,96,30819,1,2
160,96,30973,1,2
160,160,31205,1,2
160,288,31592,5,2
256,288,31901,1,0
288,192,32210,1,0
352,192,32364,1,2
416,192,32519,1,0
416,256,32674,1,2
352,256,32828,1,0
352,320,32983,1,2
288,320,33137,1,0
256,256,33369,1,2
160,256,33678,1,0
64,192,33988,5,0
64,128,34142,1,2
64,64,34297,1,0
192,96,34683,1,0
256,96,34838,1,2
320,96,34992,1,0
416,128,35302,2,0,B|416:288,4,150
320,128,36847,5,0
256,128,37002,1,2
256,192,37157,1,0
256,288,37466,1,0
160,288,37775,1,2
96,192,38084,1,0
96,96,38393,1,2
192,64,38702,1,0
288,64,39012,5,0
288,128,39166,1,2
288,224,39475,1,0
352,224,39630,1,2
352,128,39939,1,0
448,128,40248,1,2
448,224,40557,1,2
448,320,40867,1,0
352,320,41176,1,0
224,320,41562,5,0
224,256,41717,1,2
224,160,42026,1,0
160,160,42180,1,2
160,32,42567,1,0
256,32,42876,1,0
352,32,43185,1,0
352,128,43494,1,0
64,64,48905,5,0
160,64,49214,1,2
256,64,49523,1,0
352,64,49832,1,2
352,160,50142,1,0
352,224,50296,1,0
352,288,50451,1,2
256,288,50760,1,0
160,224,51069,1,0
256,224,51378,5,0
160,288,51687,1,2
64,224,51997,1,0
64,128,52306,1,2
160,128,52615,1,0
224,128,52769,1,2
288,128,52924,1,0
288,32,53233,1,0
384,32,53542,1,0
384,128,53852,5,2
288,128,54161,1,2
288,224,54470,1,0
384,224,54779,1,0
288,320,55165,1,0
224,320,55320,1,2
224,256,55475,1,0
128,256,55784,1,2
128,160,56093,1,0
128,64,56402,5,0
224,64,56711,1,2
224,160,57020,1,0
320,160,57330,1,0
320,64,57639,1,0
384,64,57793,1,2
448,64,57948,1,0
416,160,58257,1,2
416,256,58566,1,0
288,256,58953,5,0
192,256,59262,1,0
192,160,59571,1,0
192,64,59880,1,0
288,64,60189,1,0
384,64,60499,1,0
448,64,60653,1,2
416,96,60808,1,0
416,192,61117,5,0
416,288,61426,1,0
320,288,61735,1,0
320,192,62044,1,0
224,192,62354,1,0
224,288,62663,1,0
128,192,63049,1,0
64,192,63204,1,2
96,224,63358,1,0
128,96,63745,5,0
224,96,64054,1,0
320,96,64363,1,0
416,96,64672,1,0
416,192,64982,2,2,B|256:192,1,150
320,256,65523,1,0
224,320,65832,1,0
128,320,66141,1,0
128,224,66450,5,2
192,160,66759,1,2
192,32,67146,1,0
288,32,67455,1,0
384,32,67764,1,0
384,128,68073,1,0
320,128,68228,1,2
352,160,68382,1,2
96,64,74257,5,0
160,160,74566,1,0
224,160,74720,1,0
224,96,74875,1,0
416,96,75416,1,0
320,96,75725,1,0
384,128,75957,2,2,B|384:384,1,225
288,320,76730,5,0
288,224,77039,1,0
224,224,77194,1,0
160,256,77348,1,2
160,160,77657,1,2
160,64,77967,1,0
256,64,78276,1,0
320,64,78430,1,0
320,128,78585,1,2
448,128,78971,1,2
416,224,79280,5,0
416,288,79435,1,0
352,288,79590,1,0
352,224,79744,1,0
288,224,79899,1,2
288,128,80208,1,2
192,128,80517,5,0
128,96,80672,1,0
128,160,80826,1,0
128,224,80981,1,0
192,224,81135,1,2
192,320,81445,1,2
288,320,81754,5,0
288,256,81908,1,0
288,160,82218,1,0
288,96,82372,1,0
224,160,82681,1,0
224,224,82836,1,0
128,224,83145,1,0
128,160,83300,1,0
128,64,83609,1,2
192,64,83763,1,2
256,64,83918,1,2
320,64,84073,1,2
384,128,84304,5,0
384,192,84459,1,0
352,288,84768,1,0
288,288,84923,1,0
160,256,85309,1,0
160,192,85464,1,0
160,96,85773,1,0
224,128,86005,1,0
288,128,86159,1,2
352,128,86314,1,0
352,192,86469,1,2
288,192,86623,1,0
288,256,86778,1,2
352,256,86932,1,0
32,64,98372,5,0
128,64,98681,1,0
192,64,98835,1,0
256,64,98990,1,0
448,64,99531,1,0
384,64,99763,2,2,B|384:256,2,187.5
320,160,100845,5,0
192,160,101231,1,0
192,224,101386,1,0
192,288,101540,1,0
256,192,101850,5,2
256,288,102159,1,0
352,288,102468,1,0
352,224,102623,1,0
416,224,102777,1,0
416,128,103086,1,2
320,128,103395,5,0
320,64,103550,1,0
256,64,103705,1,0
192,64,103859,1,0
128,64,104014,1,2
128,160,104323,1,2
128,288,104709,5,0
192,288,104864,1,0
256,288,105019,1,0
256,224,105173,1,0
192,224,105328,1,2
192,128,105637,1,2
320,128,106023,5,0
384,128,106178,1,0
384,224,106487,1,0
384,288,106642,1,0
288,288,106951,1,0
288,224,107106,1,0
192,224,107415,1,0
192,288,107569,1,0
128,192,107878,1,0
128,128,108033,1,0
192,128,108188,1,0
256,128,108342,1,0
320,128,108497,5,2
384,128,108651,1,2
384,224,108961,1,0
448,224,109115,1,0
448,320,109424,1,0
384,320,109579,1,0
288,256,109888,1,0
288,320,110043,1,0
224,256,110274,1,0
160,256,110429,1,2
160,192,110584,1,0
224,192,110738,1,2
288,192,110893,1,0
288,128,111047,1,2
224,128,111202,1,0
160,128,111357,1,2
160,32,111666,5,0
224,32,111820,1,0
320,32,112129,1,0
384,32,112284,1,0
384,128,112593,1,0
384,192,112748,1,0
384,288,113057,1,0
320,288,113212,1,0
224,224,113521,5,2
224,288,113675,1,0
128,288,113984,1,0
128,224,114139,1,0
128,128,114448,1,0
192,128,114603,1,0
288,128,114912,1,0
352,128,115067,1,0
352,224,115376,5,0
352,288,115530,1,0
256,288,115839,1,0
256,224,115994,1,0
192,128,116303,1,0
256,128,116458,1,0
256,64,116999,5,2
384,64,117385,1,0
384,192,117772,1,0
224,192,118236,1,0
224,352,118699,1,0
384,352,119163,1,0
384,192,119627,1,0
384,32,120091,1,0
224,32,120554,1,0
224,192,121018,1,0
224,352,121482,1,0
96,256,121946,1,0
256,192,122177,12,0,124266
