osu file format v5

[General]
AudioFilename: taikoranbu (Water).mp3
AudioLeadIn: 0
PreviewTime: -1
Countdown: 1
SampleSet: Normal
StackLeniency: 0.7
Mode: 1
LetterboxInBreaks: 1

[Metadata]
Title:taikoranbu (Water)
Artist:Taiko
Creator:satandragonv1
Version:Oni *********
Source:Taiko drum master
Tags:

[Difficulty]
HPDrainRate:5
CircleSize:5
OverallDifficulty:5
SliderMultiplier:1.4
SliderTickRate:1

[Events]
//Background and Video events
//Break Periods
//Storyboard Layer 0 (Background)
//Storyboard Layer 1 (Failing)
//Storyboard Layer 2 (Passing)
//Storyboard Layer 3 (Foreground)
//Storyboard Sound Samples
//Background Colour Transformations
3,100,163,162,255

[TimingPoints]
980,461.538461538462,4,1,0,90

[HitObjects]
64,192,980,5,2
96,192,1096,1,2
96,192,1211,1,2
128,192,1326,1,2
128,192,1442,1,2
64,192,1673,5,2
96,192,1789,1,2
96,192,1904,1,2
128,192,2019,1,2
128,192,2135,1,2
224,128,2365,1,2
256,128,2480,1,2
256,128,2596,1,2
64,192,2826,5,2
96,192,2942,1,2
96,192,3057,1,2
128,192,3172,1,2
128,192,3288,1,2
224,256,3403,1,2
256,256,3519,1,2
64,64,3980,1,6
128,64,4211,1,6
64,192,4673,5,2
96,192,4789,1,2
96,192,4904,1,2
128,192,5019,1,2
128,192,5135,1,2
64,192,5365,5,2
96,192,5481,1,2
96,192,5596,1,2
128,192,5711,1,2
128,192,5827,1,2
160,128,6057,1,2
192,128,6172,1,2
224,128,6287,1,2
64,192,6518,5,2
96,192,6634,1,2
96,192,6749,1,2
128,192,6864,1,2
224,224,6980,1,2
224,224,7095,1,2
224,224,7210,1,2
320,224,7673,1,6
384,224,7904,1,6
96,64,8250,1,2
224,96,8307,1,2
160,64,8365,1,0
384,128,8596,1,0
416,128,8711,1,2
192,224,8942,1,0
256,224,9057,1,2
96,160,9288,1,2
96,288,9365,1,2
192,320,9442,1,2
192,128,9519,1,2
96,160,9750,1,0
96,288,9827,1,0
192,320,9904,1,0
192,128,9981,1,0
256,192,10211,12,0,11596
128,192,12057,1,0
160,192,12173,1,0
224,224,12403,1,2
224,224,12519,1,2
288,224,12750,1,0
320,224,12865,1,0
224,128,13096,1,2
256,128,13211,1,2
288,160,13326,1,0
320,160,13442,1,0
128,192,13903,1,4
192,192,14134,1,4
256,256,14365,1,0
320,256,14480,1,0
352,256,14711,1,0
384,288,14826,1,2
416,288,15288,1,6
96,192,15750,5,0
192,160,15980,1,2
224,160,16096,1,2
256,192,16211,1,0
160,256,16442,1,2
192,256,16557,1,2
224,288,16673,1,0
256,288,16788,1,2
288,256,17019,1,2
320,256,17134,1,0
352,256,17250,1,0
384,192,17365,1,2
96,192,17596,5,0
192,160,17826,1,2
224,160,17942,1,2
256,192,18057,1,0
160,256,18288,1,2
192,256,18403,1,2
224,288,18519,1,0
256,288,18634,1,2
288,256,18865,1,2
320,256,18980,1,0
352,256,19096,1,0
384,192,19211,1,2
96,192,19442,5,0
192,160,19672,1,2
224,160,19788,1,2
256,192,19903,1,0
160,256,20134,1,2
192,256,20249,1,2
224,288,20365,1,0
256,288,20480,1,2
288,256,20711,1,2
320,256,20826,1,0
352,256,20942,1,0
384,192,21057,1,2
128,128,21288,1,0
128,128,21403,1,0
192,128,21519,1,2
256,128,21634,1,2
320,128,21750,1,0
256,128,21865,1,2
288,128,21980,1,0
256,160,22096,1,2
288,192,22211,1,0
288,192,22326,1,0
288,192,22442,1,2
320,192,22557,1,2
384,192,22673,1,0
384,192,22903,1,2
96,192,23134,5,0
192,160,23364,1,2
224,160,23480,1,2
256,192,23595,1,0
160,256,23826,1,2
192,256,23941,1,2
224,288,24057,1,0
256,288,24172,1,2
288,256,24403,1,2
320,256,24518,1,0
352,256,24634,1,0
384,192,24749,1,2
96,192,24980,5,0
192,160,25210,1,2
224,160,25326,1,2
256,192,25441,1,0
160,256,25672,1,2
192,256,25787,1,2
224,288,25903,1,0
256,288,26018,1,2
288,256,26249,1,2
320,256,26364,1,0
352,256,26480,1,0
384,192,26595,1,2
96,192,26826,5,0
192,160,27056,1,2
224,160,27172,1,2
256,192,27287,1,0
160,256,27518,1,2
192,256,27633,1,2
224,288,27749,1,0
256,288,27864,1,2
288,256,28095,1,2
320,256,28210,1,0
352,256,28326,1,0
384,192,28441,1,2
64,128,28673,1,0
224,128,28903,1,2
256,128,29019,1,2
256,128,29134,1,2
96,224,29365,1,0
128,224,29480,1,0
128,224,29596,1,0
256,224,29826,1,2
256,224,29942,1,2
256,224,30057,1,2
320,256,30288,1,0
128,128,30365,1,0
128,128,30442,1,0
96,288,30519,1,0
224,320,30750,1,2
320,320,30865,1,0
160,224,31096,1,2
192,192,31211,1,0
224,224,31326,1,0
256,224,31442,1,0
288,224,31673,1,2
288,224,31788,1,0
96,224,32019,1,2
192,256,32134,1,0
224,256,32250,1,0
224,256,32365,1,0
224,128,32596,1,2
288,128,32711,1,0
256,192,32942,1,2
288,192,33057,1,0
320,192,33173,1,0
352,192,33288,1,0
288,256,33519,1,2
160,256,33634,1,0
160,256,33750,1,0
160,256,33865,1,0
192,288,33980,1,2
224,288,34096,1,2
288,256,34211,1,0
128,160,34442,1,2
224,128,34557,1,0
256,224,34788,1,2
288,160,34903,1,0
288,160,35019,1,0
288,160,35134,1,0
224,224,35365,1,2
288,192,35480,1,0
192,224,35711,1,2
288,192,35826,1,0
352,224,35942,1,0
352,224,36057,1,0
192,288,36288,1,2
224,288,36403,1,0
64,256,36634,1,2
192,256,36750,1,0
192,256,36865,1,0
224,256,36980,1,0
224,256,37096,1,2
224,256,37211,1,2
256,288,37326,1,0
288,288,37442,1,0
320,256,37557,1,2
320,256,37673,1,2
320,256,37788,1,2
96,288,37903,5,0
224,320,38134,1,2
320,320,38249,1,0
160,224,38480,1,2
192,192,38595,1,0
224,224,38710,1,0
256,224,38826,1,0
288,224,39057,1,2
288,224,39172,1,0
96,224,39403,1,2
192,256,39518,1,0
224,256,39634,1,0
224,256,39749,1,0
224,128,39980,1,2
288,128,40095,1,0
256,192,40326,1,2
288,192,40441,1,0
320,192,40557,1,0
352,192,40672,1,0
288,256,40903,1,2
160,256,41018,1,0
160,256,41134,1,0
160,256,41249,1,0
192,288,41364,1,2
224,288,41480,1,2
288,256,41595,1,0
128,160,41826,1,2
224,128,41941,1,0
256,224,42172,1,2
288,160,42287,1,0
288,160,42403,1,0
288,160,42518,1,0
224,224,42749,1,2
288,192,42864,1,0
192,224,43095,1,2
288,192,43210,1,0
352,224,43326,1,0
352,224,43441,1,0
128,192,43673,1,2
160,192,43788,1,2
160,160,43903,1,2
160,256,44134,1,0
160,256,44250,1,0
192,256,44365,1,0
192,224,44596,1,2
192,224,44711,1,2
224,224,44826,1,2
288,256,45057,1,0
96,192,45288,5,4
160,160,45750,1,2
192,128,45980,1,2
224,128,46211,1,2
256,160,46326,1,2
96,160,46442,1,2
96,160,46557,1,2
128,224,46673,1,2
160,256,46788,1,2
192,256,46903,1,2
192,256,47019,1,2
256,224,47134,1,0
256,224,47365,1,2
288,224,47480,1,0
320,256,47711,1,0
352,160,47826,1,2
320,160,48057,1,0
224,160,48288,1,2
288,192,48403,1,0
224,288,48634,1,0
256,288,48750,1,2
96,224,48980,1,0
96,224,49096,1,0
128,224,49211,1,0
160,224,49326,1,0
224,224,49442,1,2
224,224,49557,1,2
224,224,49673,1,2
256,224,49788,1,2
288,256,49903,1,0
320,256,50019,1,0
352,224,50134,1,2
384,224,50250,1,2
384,160,50365,1,0
384,160,50480,1,0
320,160,50596,1,2
288,160,50711,1,2
224,160,50826,1,0
96,224,50903,1,0
96,224,50980,1,0
64,128,51057,1,2
160,224,51288,1,0
192,256,51403,1,0
256,256,51519,1,2
320,224,51634,1,0
320,224,51750,1,0
160,192,51980,1,2
224,160,52211,1,0
256,160,52326,1,0
352,128,52442,1,2
384,160,52557,1,0
96,320,52673,5,0
224,288,52903,1,0
256,288,53019,1,0
128,160,53365,1,2
160,160,53480,1,2
192,160,53596,1,2
256,128,53711,1,0
288,160,53942,1,2
224,192,54057,1,0
224,224,54288,1,0
192,256,54519,1,2
192,288,54750,1,0
224,288,54865,1,2
128,224,55326,1,0
160,192,55442,1,0
224,192,55557,1,2
288,192,55673,1,0
288,192,55788,1,0
384,160,55903,1,2
192,288,56250,1,0
256,288,56365,1,0
320,256,56480,1,2
192,128,56557,1,2
224,128,56634,1,2
64,128,56788,1,2
64,192,56942,1,2
160,192,57096,1,2
192,192,57250,1,2
128,224,57403,1,2
192,256,57557,1,2
192,160,57711,1,2
160,192,57865,1,0
192,288,58096,1,0
256,288,58211,1,0
320,256,58326,1,2
192,128,58403,1,2
224,128,58480,1,2
64,128,58634,1,2
64,192,58788,1,2
160,192,58942,1,2
192,192,59096,1,2
128,224,59249,1,2
192,256,59403,1,2
192,160,59557,1,2
160,192,59711,1,0
192,288,59942,1,0
256,288,60057,1,0
320,256,60172,1,2
192,128,60249,1,2
224,128,60326,1,2
64,128,60480,1,2
64,192,60634,1,2
160,192,60788,1,0
192,192,60942,1,0
128,224,61095,1,2
192,256,61249,1,2
192,160,61403,1,0
256,160,61673,1,6
320,256,62018,1,2
192,128,62095,1,2
224,128,62172,1,2
64,128,62326,1,2
64,192,62480,1,2
160,192,62634,1,0
192,192,62788,1,2
128,224,62941,1,0
192,256,63095,1,0
192,160,63249,1,2
160,192,63403,1,2
256,192,63557,1,2
320,256,63864,1,2
192,128,63941,1,2
224,128,64018,1,0
64,128,64172,1,0
64,192,64326,1,0
160,192,64480,1,2
192,192,64634,1,2
128,224,64787,1,0
192,256,64941,1,0
192,160,65095,1,0
160,192,65249,1,0
160,128,65403,1,2
224,160,65557,1,2
256,128,65711,1,0
256,224,65942,1,2
288,224,66057,1,2
352,192,66173,1,0
224,192,66403,1,2
288,192,66519,1,2
320,192,66634,1,0
320,256,66980,1,0
384,256,67096,1,2
384,256,67326,1,2
96,192,67557,5,0
192,160,67787,1,2
224,160,67903,1,2
256,192,68018,1,0
160,256,68249,1,2
192,256,68364,1,2
224,288,68480,1,0
256,288,68595,1,2
288,256,68826,1,2
320,256,68941,1,0
352,256,69057,1,0
384,192,69172,1,2
96,192,69403,5,0
192,160,69633,1,2
224,160,69749,1,2
256,192,69864,1,0
160,256,70095,1,2
192,256,70210,1,2
224,288,70326,1,0
256,288,70441,1,2
288,256,70672,1,2
320,256,70787,1,0
352,256,70903,1,0
384,192,71018,1,2
96,192,71249,5,0
192,160,71479,1,2
224,160,71595,1,2
256,192,71710,1,0
160,256,71941,1,2
192,256,72056,1,2
224,288,72172,1,0
256,288,72287,1,2
288,256,72518,1,2
320,256,72633,1,0
352,256,72749,1,0
384,192,72864,1,2
128,128,73095,1,0
128,128,73210,1,0
192,128,73326,1,2
256,128,73441,1,2
320,128,73557,1,0
256,128,73672,1,2
288,128,73787,1,0
256,160,73903,1,2
288,192,74018,1,0
288,192,74133,1,0
288,192,74249,1,2
320,192,74364,1,2
384,192,74480,1,0
384,192,74710,1,2
96,192,74942,5,0
192,160,75172,1,2
224,160,75288,1,2
256,192,75403,1,0
160,256,75634,1,2
192,256,75749,1,2
224,288,75865,1,0
256,288,75980,1,2
288,256,76211,1,2
320,256,76326,1,0
352,256,76442,1,0
384,192,76557,1,2
96,192,76788,5,0
192,160,77018,1,2
224,160,77134,1,2
256,192,77249,1,0
160,256,77480,1,2
192,256,77595,1,2
224,288,77711,1,0
256,288,77826,1,2
288,256,78057,1,2
320,256,78172,1,0
352,256,78288,1,0
384,192,78403,1,2
96,192,78634,5,0
192,160,78864,1,2
224,160,78980,1,2
256,192,79095,1,0
160,256,79326,1,2
192,256,79441,1,2
224,288,79557,1,0
256,288,79672,1,2
288,256,79903,1,2
320,256,80018,1,0
352,256,80134,1,0
384,192,80249,1,2
64,128,80481,1,0
224,128,80711,1,2
256,128,80827,1,2
256,128,80942,1,2
96,224,81173,1,0
128,224,81288,1,0
128,224,81404,1,0
256,224,81634,1,2
256,224,81750,1,2
256,224,81865,1,2
320,256,82096,1,0
128,128,82173,1,0
128,128,82250,1,0
96,288,82326,5,0
256,256,82557,1,2
288,224,82673,1,0
320,128,82903,1,2
320,224,83019,1,0
288,192,83134,1,2
224,224,83250,1,0
224,128,83480,1,2
320,192,83596,1,0
384,192,83826,1,2
384,160,83942,1,0
384,160,84057,1,2
320,160,84173,1,0
320,160,84403,1,2
352,192,84519,1,0
192,224,84749,1,2
224,192,84865,1,0
160,160,84980,1,2
256,160,85095,1,0
256,160,85211,1,2
288,160,85326,1,2
320,224,85442,1,0
320,224,85557,1,0
352,192,85672,1,2
384,192,85788,1,2
384,192,85903,1,2
416,192,86018,1,0
256,256,86249,1,2
288,224,86365,1,0
320,128,86595,1,2
320,224,86711,1,0
288,192,86826,1,2
224,224,86942,1,0
224,128,87172,1,2
320,192,87288,1,0
384,192,87518,1,2
384,160,87634,1,0
384,160,87749,1,2
320,160,87865,1,0
320,160,88095,1,2
352,192,88211,1,0
192,224,88440,1,2
224,192,88556,1,0
160,160,88671,1,2
256,160,88786,1,0
256,160,88902,1,2
288,160,89017,1,2
96,288,89247,1,2
160,288,89362,1,2
256,256,89478,1,0
96,288,89709,5,0
256,256,89940,1,2
288,224,90056,1,0
320,128,90286,1,2
320,224,90402,1,0
288,192,90517,1,2
224,224,90633,1,0
224,128,90863,1,2
320,192,90979,1,0
384,192,91209,1,2
384,160,91325,1,0
384,160,91440,1,2
320,160,91556,1,0
320,160,91786,1,2
352,192,91902,1,0
192,224,92133,1,2
224,192,92249,1,0
160,160,92364,1,2
256,160,92479,1,0
256,160,92595,1,2
288,160,92710,1,2
320,224,92826,1,0
320,224,92941,1,0
352,192,93056,1,2
384,192,93172,1,2
384,192,93287,1,2
416,192,93402,1,0
96,224,93632,1,2
160,224,93747,1,0
192,224,93863,1,0
160,256,93978,1,2
224,256,94094,1,0
288,256,94209,1,2
320,256,94324,1,0
96,224,94555,1,2
160,224,94670,1,0
192,224,94786,1,0
160,256,94901,1,2
224,256,95017,1,0
288,256,95132,1,2
320,256,95247,1,0
128,96,95478,1,2
128,96,95594,1,2
160,128,95709,1,2
288,192,95824,1,0
288,192,95940,1,0
288,192,96055,1,0
320,192,96171,1,0
64,256,96401,1,2
96,224,96517,1,2
96,224,96632,1,2
160,256,96709,1,2
192,256,96786,1,2
224,256,96863,1,2
256,256,96940,1,2
288,256,97017,1,2
128,192,97094,5,0
160,192,97210,1,0
224,224,97440,1,2
224,224,97556,1,2
288,224,97787,1,0
320,224,97902,1,0
224,128,98133,1,2
256,128,98248,1,2
288,160,98363,1,0
320,160,98479,1,0
128,192,98940,1,4
192,192,99171,1,4
256,256,99402,1,0
320,256,99517,1,0
352,256,99748,1,0
384,288,99863,1,2
