osu file format v5

[General]
AudioFilename: X-DAY2000.mp3
AudioLeadIn: 1643
PreviewTime: -1
Countdown: 1
SampleSet: Normal
StackLeniency: 0.7
Mode: 0
LetterboxInBreaks: 1

[Metadata]
Title:X-DAY2000(god mode)
Artist:Taiko - Tatsujin
Creator:EkiBEN2000
Version:20star
Source:
Tags:

[Difficulty]
HPDrainRate:5
CircleSize:5
OverallDifficulty:5
SliderMultiplier:1.4
SliderTickRate:1

[Events]
//Background and Video events
//Break Periods
//Storyboard Layer 0 (Background)
4,0,0,"upperpattern.png",-128,0 L,0,6000 M,0,0,20000,0,0,-776,0
4,0,0,"flowers.png",-30,55 F,0,0,112953,1,1
6,0,0,"starbg.png",0,277,4,300 F,0,83920,112953,1,1
//Storyboard Layer 1 (Failing)
//Storyboard Layer 2 (Passing)
//Storyboard Layer 3 (Foreground)
4,3,0,"fg.png",0,0 F,0,0,112953,1,1
6,3,1,"chibij.png",320,377,16,140 F,0,0,112953,1,1
6,3,1,"d.png",480,377,16,140 F,0,75110,112953,1,1
6,3,1,"m.png",160,377,16,140 F,0,51910,112953,1,1
//Storyboard Sound Samples
//Background Colour Transformations
3,100,0,0,0

[TimingPoints]
236,315.789473684211,4,1,0,100,1,0

[Colours]
Combo1 : 0,0,0
Combo2 : 255,255,0
Combo3 : 52,228,56
Combo4 : 64,73,138
Combo5 : 255,255,255

[HitObjects]
256,192,552,1,4
256,96,5683,1,2
256,192,5920,1,2
256,288,6157,1,2
352,288,6394,1,2
352,288,6551,1,2
352,224,6709,1,2
352,224,6788,1,2
352,160,6946,1,2
352,64,7183,1,2
256,64,7420,1,2
160,64,7684,1,2
160,64,7815,1,2
160,128,7973,1,2
160,128,8052,1,2
160,192,8209,1,2
160,288,8446,1,2
256,288,8683,1,2
352,288,8920,1,2
352,224,9078,1,2
352,160,9236,1,2
352,160,9315,1,2
352,128,9394,1,0
352,96,9473,1,0
352,96,9552,1,0
352,96,9630,1,0
352,96,9709,1,0
352,96,9788,1,0
352,96,9867,1,0
352,96,9946,1,0
352,96,10025,1,0
288,96,10183,1,0
224,96,10341,1,0
160,96,10499,1,0
160,160,10657,1,0
160,160,10736,1,0
160,160,10815,1,0
160,160,10894,1,0
160,160,10973,1,2
160,224,11130,1,2
160,288,11288,1,0
160,288,11367,1,0
160,288,11446,1,0
160,288,11525,1,0
160,288,11604,1,2
192,320,11761,1,2
256,320,11920,1,0
256,320,11999,1,0
256,320,12078,1,0
256,320,12157,1,0
256,320,12236,1,0
256,192,12551,1,0
256,192,12630,1,0
256,192,12709,1,0
256,192,12788,1,0
256,192,12867,1,0
256,64,13183,1,0
256,64,13262,1,0
256,64,13341,1,0
256,64,13420,1,0
256,64,13499,1,2
192,64,13656,1,2
160,96,13815,1,0
160,96,13894,1,0
160,96,13973,1,0
160,96,14052,1,0
160,96,14131,1,2
160,160,14288,1,2
192,192,14446,1,0
192,192,14525,1,0
192,192,14604,1,0
192,192,14683,1,0
192,192,14762,1,0
256,192,14920,1,0
256,256,15078,1,4
320,352,15394,1,4
320,352,15709,1,0
320,320,15788,1,0
320,320,15867,1,0
320,320,15946,1,0
320,320,16025,1,2
320,256,16182,1,2
320,192,16341,1,0
320,192,16420,1,0
320,192,16499,1,0
320,192,16578,1,0
320,192,16657,1,2
320,128,16814,1,2
256,128,16973,1,0
256,128,17052,1,0
256,128,17131,1,0
256,128,17210,1,0
256,128,17289,1,0
128,128,17604,1,0
128,128,17683,1,0
128,128,17762,1,0
128,128,17841,1,0
128,128,17920,1,0
128,192,18236,1,0
128,224,18315,1,0
128,256,18394,1,0
160,288,18473,1,0
192,288,18552,1,2
256,288,18709,1,2
256,224,18868,1,0
256,192,18947,1,0
256,160,19026,1,0
256,128,19105,1,0
256,96,19184,1,2
256,32,19341,1,2
320,32,19499,1,0
320,64,19578,1,0
320,96,19657,1,0
320,128,19736,1,0
320,160,19815,1,0
320,224,19973,1,0
320,288,20130,1,0
352,288,20209,1,0
352,256,20288,1,0
416,256,20446,1,0
448,224,20525,1,0
448,256,20604,1,0
416,224,20762,1,4
256,128,23288,1,0
256,128,23367,1,0
256,128,23446,1,0
256,128,23525,1,0
256,128,23604,1,0
256,64,23920,1,0
256,64,24078,1,0
256,64,24236,1,0
256,160,24552,1,0
256,192,24631,1,0
256,224,24710,1,0
256,256,24789,1,0
256,288,24868,1,0
128,288,25183,1,0
128,160,25499,1,0
128,32,25815,1,0
128,32,25894,1,0
128,32,25973,1,0
128,32,26052,1,0
128,32,26131,1,0
192,96,26447,1,0
256,96,26605,1,0
320,96,26763,1,0
384,32,27078,1,0
384,32,27157,1,0
384,32,27236,1,0
384,32,27315,1,0
384,32,27394,1,0
384,128,27709,1,0
384,160,27788,5,0
384,192,27867,1,0
384,256,28025,1,0
384,288,28104,1,0
352,288,28183,1,0
320,256,28262,1,0
288,224,28341,1,0
256,192,28420,1,0
224,160,28499,1,0
192,128,28578,1,2
160,96,28657,1,0
96,192,28973,1,0
128,224,29130,1,0
160,256,29288,1,0
224,320,29604,1,0
224,320,29683,1,0
224,320,29762,1,0
224,320,29841,1,2
224,320,29920,1,0
256,352,30236,1,0
256,224,30552,1,0
352,256,30867,1,0
320,224,30946,1,0
352,192,31025,1,0
320,160,31104,1,2
352,128,31183,1,0
320,32,31499,1,0
256,32,31657,1,0
192,32,31815,1,0
128,32,31973,1,2
128,96,32130,1,0
128,96,32209,1,0
128,96,32288,1,0
128,96,32367,1,2
128,96,32446,1,0
128,192,32762,1,0
128,192,32841,1,0
128,192,32920,1,0
128,256,33078,1,0
128,256,33157,1,0
128,256,33236,1,0
128,256,33315,1,0
128,256,33394,1,0
128,256,33473,1,0
128,256,33552,1,2
128,256,33630,1,2
128,256,33709,1,0
192,256,33867,1,0
224,224,34025,1,0
256,192,34183,1,2
288,160,34341,1,0
320,128,34499,1,2
352,96,34657,1,0
352,96,34736,1,0
352,96,34815,1,2
352,96,34894,1,2
352,96,34973,1,0
416,96,35130,1,0
416,160,35288,1,0
416,160,35367,1,0
416,160,35446,1,2
384,192,35604,1,0
384,192,35683,1,0
384,192,35762,1,2
384,192,35841,1,2
384,192,35920,1,0
384,192,35999,1,0
352,224,36078,1,2
352,224,36157,1,2
352,224,36236,1,0
288,256,36394,1,0
256,192,36552,1,0
256,128,36709,1,2
256,64,36867,1,0
256,0,37025,1,2
320,0,37183,1,0
320,0,37262,1,0
320,0,37341,1,2
320,0,37420,1,2
320,0,37499,1,0
320,64,37657,1,0
320,128,37815,1,0
320,160,37894,1,0
320,192,37973,1,2
320,256,38130,1,0
288,256,38209,1,0
256,256,38288,1,2
224,256,38367,1,2
192,256,38446,1,0
160,256,38525,1,2
128,256,38604,1,0
96,256,38683,1,0
64,256,38762,1,0
64,192,38920,1,0
128,192,39078,1,0
192,192,39236,1,2
256,192,39394,1,0
320,192,39552,1,2
384,192,39709,1,0
384,192,39788,1,2
384,192,39867,1,0
384,192,39946,1,0
384,192,40025,1,0
384,128,40183,1,0
320,128,40341,1,0
288,128,40420,1,2
256,128,40499,1,0
224,128,40578,1,0
192,128,40657,1,0
160,128,40736,1,2
128,128,40815,1,0
96,128,40894,1,0
64,128,40973,1,0
256,288,42236,1,0
256,256,42315,1,2
256,224,42394,1,2
256,192,42473,1,0
256,160,42552,1,2
256,128,42630,1,2
256,96,42709,1,0
256,32,42867,1,0
224,32,42946,1,2
192,64,43025,1,2
160,32,43104,1,0
128,64,43183,1,2
96,32,43261,1,2
64,64,43340,1,0
32,96,43499,1,0
64,128,43578,1,2
32,160,43657,1,2
64,192,43736,1,0
96,224,43815,1,2
160,224,43973,1,0
160,224,44052,1,2
160,224,44130,1,2
224,224,44288,1,2
224,224,44367,1,2
224,224,44446,1,0
256,320,44762,1,0
256,288,44841,1,2
256,256,44920,1,2
256,224,44999,1,0
256,128,45236,1,0
256,96,45315,1,2
256,96,45394,1,2
256,96,45473,1,2
256,96,45552,1,0
192,96,45709,1,0
128,160,46025,1,0
128,160,46104,1,2
128,160,46183,1,2
128,160,46262,1,0
224,160,46499,5,0
256,160,46578,1,2
288,160,46657,1,2
320,160,46736,1,2
352,160,46815,1,0
416,160,46973,1,0
416,96,47130,1,0
416,32,47288,1,0
416,32,47367,1,2
416,32,47446,1,2
416,32,47525,1,0
352,32,47683,1,2
384,32,47762,1,0
320,32,47920,1,2
320,32,47999,1,2
320,32,48078,1,0
256,32,48236,1,0
256,32,48315,1,0
256,32,48394,1,0
256,96,48552,1,0
256,96,48630,1,2
256,96,48709,1,2
256,96,48788,1,0
256,96,48867,1,2
256,160,49025,1,0
256,192,49104,1,2
256,224,49183,1,2
256,288,49341,1,2
256,288,49420,1,2
256,288,49499,1,0
256,224,49657,1,2
192,224,49815,1,0
192,224,49894,1,2
192,224,49973,1,2
192,224,50052,1,0
128,224,50209,1,2
128,224,50288,1,0
128,224,50367,1,2
128,224,50446,1,2
128,224,50525,1,2
128,224,50604,1,0
128,160,50762,1,0
128,96,50920,1,2
128,32,51078,1,0
160,32,51157,1,2
192,32,51236,1,2
224,32,51315,1,0
288,32,51473,1,2
320,32,51552,1,0
352,32,51630,1,2
384,32,51709,1,2
416,32,51788,1,2
416,64,51867,1,0
416,128,52025,1,0
416,192,52183,1,0
416,256,52341,1,0
416,256,52420,1,2
416,256,52499,1,2
416,256,52578,1,0
352,256,52736,1,2
320,256,52815,1,0
256,224,52973,1,2
224,192,53052,1,2
192,160,53130,1,0
160,128,53209,1,2
128,96,53288,1,0
96,64,53367,1,0
64,32,53446,1,0
96,0,53604,1,0
192,0,53841,1,2
224,32,53920,1,2
256,64,54078,1,2
288,32,54236,1,0
320,0,54315,1,0
352,0,54394,1,0
384,0,54473,1,2
416,0,54552,1,0
448,32,54709,1,0
416,64,54867,1,0
352,128,55104,1,2
320,160,55183,1,2
288,192,55341,1,2
256,224,55499,1,0
224,256,55578,1,0
192,288,55657,1,0
160,320,55736,1,2
128,352,55815,1,0
192,352,55972,1,0
256,320,56130,1,0
320,352,56367,1,2
320,352,56446,1,2
320,352,56525,1,0
320,352,56604,1,2
384,352,56762,1,0
384,352,56841,1,0
384,352,56920,1,0
384,352,56999,1,2
384,352,57078,1,0
352,320,57236,1,0
320,288,57394,1,0
256,224,57630,1,2
256,224,57709,1,2
256,224,57788,1,0
256,224,57867,1,2
256,160,58025,1,0
256,160,58104,1,0
256,160,58183,1,0
256,160,58262,1,2
256,160,58341,1,0
256,96,58499,1,0
256,32,58657,1,0
352,32,58973,1,2
352,32,59052,1,2
352,32,59130,1,0
352,32,59209,1,0
352,32,59288,1,0
416,64,59446,1,0
448,128,59604,1,2
448,224,59920,1,0
416,288,60078,1,2
320,352,60394,1,2
288,352,60473,1,2
256,352,60552,1,0
224,352,60630,1,0
192,352,60709,1,0
128,320,60867,1,0
96,256,61025,1,0
64,192,61183,1,0
64,128,61341,1,2
64,128,61420,1,2
96,64,61657,1,2
96,64,61736,1,2
96,64,61815,1,0
96,64,61894,1,0
96,64,61973,1,0
160,32,62130,1,0
224,32,62288,1,0
256,96,62446,1,0
256,96,62525,1,0
256,96,62604,1,0
256,160,62762,1,0
256,160,62841,1,0
256,160,62920,1,0
256,224,63078,1,0
256,256,63157,1,0
256,224,63236,1,0
256,256,63315,1,0
256,224,63394,1,0
256,256,63473,1,0
256,224,63552,1,0
256,256,63630,1,0
256,224,63709,1,0
256,288,63867,5,2
256,352,64025,1,0
320,352,64183,1,2
320,288,64341,1,0
320,256,64420,1,0
320,224,64499,1,2
320,160,64657,1,0
320,128,64736,1,0
320,96,64815,1,2
320,32,64973,1,0
288,32,65052,1,0
256,32,65130,1,2
224,32,65209,1,2
192,32,65288,1,0
160,32,65367,1,0
128,32,65445,1,2
96,32,65524,1,2
64,32,65604,1,0
32,32,65683,1,2
0,32,65762,1,0
0,32,65841,1,0
0,32,65920,1,2
0,32,65999,1,0
0,32,66078,1,0
0,32,66157,1,2
0,32,66236,1,0
32,96,66394,1,2
64,128,66552,1,0
96,160,66709,1,2
128,192,66867,1,0
160,192,66946,1,0
192,192,67025,1,2
256,192,67183,1,0
288,192,67262,1,0
320,192,67341,1,2
384,192,67499,1,0
416,192,67578,1,0
448,192,67656,1,2
480,192,67735,1,2
512,192,67815,1,0
512,192,67894,1,0
512,192,67972,1,2
512,192,68051,1,2
512,192,68130,1,0
512,192,68209,1,0
512,192,68288,1,2
512,192,68367,1,0
512,192,68446,1,0
512,192,68525,1,2
512,192,68604,1,0
512,192,68683,1,2
512,192,68762,1,0
512,96,68920,1,2
512,32,69078,1,0
448,32,69236,1,2
384,32,69394,1,0
352,32,69473,1,0
320,32,69552,1,2
256,32,69709,1,0
256,32,69788,1,0
256,32,69867,1,2
256,96,70025,1,0
224,128,70104,1,0
192,128,70182,1,2
160,96,70261,1,2
128,96,70341,1,0
96,128,70420,1,0
96,160,70498,1,2
128,192,70577,1,2
160,192,70657,1,0
192,160,70736,1,0
224,160,70814,1,2
256,192,70893,1,2
256,224,70973,1,0
256,256,71052,1,0
256,288,71130,1,2
256,256,71209,1,2
256,224,71288,1,0
0,192,72630,1,0
32,192,72709,1,2
64,192,72788,1,0
96,192,72867,1,0
128,192,72946,1,2
160,192,73025,1,0
160,256,73183,1,0
160,256,73261,1,0
160,256,73340,1,2
160,256,73419,1,0
160,256,73498,1,0
160,256,73577,1,2
160,256,73656,1,0
224,256,73815,1,0
224,288,73894,1,0
256,288,73973,1,0
288,288,74052,1,2
288,256,74130,1,0
352,256,74288,1,2
352,192,74446,1,0
384,192,74525,1,0
416,192,74604,1,0
448,192,74683,1,2
480,192,74761,1,0
480,128,74919,1,2
480,64,75078,1,0
448,64,75157,1,0
416,64,75236,1,0
384,64,75315,1,0
352,64,75394,1,0
320,64,75473,1,0
288,64,75552,1,0
224,64,75709,1,0
192,64,75788,1,0
160,64,75867,1,0
128,64,75946,1,0
96,64,76025,1,0
64,64,76104,1,0
32,64,76183,1,0
32,128,76341,1,0
32,128,76420,1,0
32,128,76499,1,2
32,128,76578,1,0
32,128,76657,1,2
32,192,76815,1,2
96,192,76973,1,0
128,192,77052,1,0
160,192,77131,1,2
192,192,77210,1,0
224,192,77289,1,2
288,192,77447,1,2
352,192,77604,1,0
384,192,77683,1,0
416,192,77762,1,2
448,192,77841,1,0
480,192,77920,1,2
480,224,77999,1,0
480,256,78078,1,0
416,256,78236,1,4
320,320,78552,1,4
192,320,78867,1,0
160,320,78946,1,0
128,288,79025,1,2
96,256,79104,1,0
96,224,79183,1,2
96,160,79341,1,2
96,128,79420,1,2
128,96,79499,1,0
160,64,79578,1,0
192,64,79657,1,2
224,64,79736,1,0
256,96,79815,1,2
288,64,79973,1,2
320,64,80052,1,2
352,64,80130,5,0
384,96,80209,1,0
416,128,80288,1,0
416,160,80367,1,0
416,192,80446,1,0
416,224,80525,1,2
384,256,80604,1,0
352,288,80762,1,0
320,320,80841,1,0
288,320,80920,1,0
256,320,80999,1,0
224,320,81078,1,0
192,320,81157,1,2
160,320,81236,1,0
0,320,81394,1,0
0,320,81473,1,0
0,320,81552,1,2
0,320,81630,1,0
0,320,81709,1,2
0,224,81867,1,2
0,192,81946,1,2
0,160,82025,1,0
0,128,82104,1,0
0,96,82183,1,2
0,64,82262,1,12
0,32,82341,1,2
0,0,82499,1,2
96,0,82657,1,4
96,64,82894,1,4
96,128,83130,1,4
160,192,83367,1,4
192,192,83604,1,4
224,192,83762,1,4
256,192,83920,1,4
256,192,85183,1,2
256,0,86446,1,2
256,352,87709,1,2
192,192,89604,1,4
256,192,89762,1,4
320,192,89920,1,4
256,224,90867,1,4
256,160,91025,1,4
256,96,92130,1,4
256,288,92762,1,2
256,192,94025,1,2
256,160,95920,1,0
256,192,96078,1,0
256,224,96236,1,0
256,128,97183,1,0
256,96,97341,1,0
256,64,98446,1,0
160,64,98762,1,2
64,64,98841,1,2
64,96,98920,1,2
64,128,98999,1,2
64,160,99078,1,0
128,192,99236,1,2
64,224,99394,1,0
64,256,99473,1,0
64,288,99552,1,2
64,352,99709,1,0
96,352,99788,1,0
128,352,99867,1,2
160,352,99946,1,2
192,352,100025,1,0
224,352,100104,1,0
256,320,100183,1,2
256,256,100341,1,0
256,256,100420,1,0
256,256,100499,1,2
256,192,100657,1,0
256,192,100736,1,0
256,192,100815,1,2
256,128,100973,1,0
256,128,101052,1,0
256,128,101130,1,2
256,64,101288,1,0
256,64,101367,1,0
256,64,101445,1,2
320,64,101604,1,0
384,64,101762,1,2
416,96,101841,1,2
416,96,101920,1,0
416,160,102078,1,2
416,160,102157,1,2
416,160,102236,1,0
416,160,102315,1,2
416,224,102473,1,2
384,224,102552,1,0
320,224,102709,1,2
256,224,102867,1,0
192,224,103025,1,2
128,224,103183,1,0
96,192,103262,1,2
64,160,103341,1,2
96,128,103420,1,2
128,96,103499,1,0
160,64,103657,1,2
224,32,103815,1,0
256,32,103894,1,2
288,32,103973,1,2
320,32,104052,1,2
352,32,104130,1,0
384,32,104209,1,0
416,32,104288,1,0
448,32,104367,1,0
480,32,104446,1,0
480,96,104604,1,2
480,128,104683,1,2
480,160,104762,1,0
480,192,104841,1,0
480,224,104920,1,0
480,256,104999,1,2
480,288,105078,1,0
480,320,105157,1,2
448,320,105236,1,2
384,320,105394,1,0
352,320,105473,1,0
320,320,105551,1,2
256,320,105709,1,0
224,320,105788,1,0
192,320,105866,1,2
128,320,106025,1,0
96,320,106104,1,0
64,320,106183,1,0
64,288,106262,1,2
64,256,106341,1,0
64,224,106420,1,2
64,192,106499,1,0
64,128,106657,1,0
96,96,106736,1,0
128,64,106815,1,0
160,32,106894,1,0
192,0,106973,1,0
256,0,107130,1,2
256,32,107209,1,2
224,64,107288,1,0
192,96,107367,1,0
192,128,107446,1,0
224,128,107525,1,2
256,128,107604,1,0
288,96,107683,1,2
320,64,107762,1,2
384,32,107920,1,0
384,64,107999,1,0
384,32,108078,1,0
384,64,108157,1,2
384,32,108236,1,0
384,64,108315,1,0
384,32,108394,1,0
384,64,108473,1,2
384,32,108552,1,0
384,64,108631,1,0
384,32,108710,1,0
384,64,108789,1,2
384,96,108867,1,0
376,90,109025,2,0,B|152:282|152:282|248:282|248:282|376:282|376:282|120:90|120:90|88:58|88:58,1,840
