osu file format v13

[General]
AudioFilename: ALYS - 02 Dans mon Monde (short version).mp3
AudioLeadIn: 0
PreviewTime: -1
Countdown: 0
SampleSet: Normal
StackLeniency: 0.2
Mode: 0
LetterboxInBreaks: 1
WidescreenStoryboard: 1

[Editor]
Bookmarks: 14071,20692,27312,33933,40554,47174,50485,53795,57106,60416,63726,67037,73657,83588
DistanceSpacing: 1.2
BeatDivisor: 4
GridSize: 16
TimelineZoom: 2.1

[Metadata]
Title:Dans mon Monde
TitleUnicode:Dans mon Monde
Artist:Tai Shindehai
ArtistUnicode:Tai Shindehai
Creator:CitronSec
Version:Normal
Source:ALYS (prototype)
Tags:alys voxwave vocaloid cevio tai shindehai french satou pop dans mon monde
BeatmapID:510694
BeatmapSetID:217748

[Difficulty]
HPDrainRate:3
CircleSize:4
OverallDifficulty:3
ApproachRate:7
SliderMultiplier:1.2
SliderTickRate:1

[Events]
//Background and Video events
0,0,"Cover.jpg",0,0
Video,-1544,"Dans_mon_Monde_-_ALYS_1_re_chanteuse_virtuelle_fra (2).avi"
//Break Periods
2,40752,44824
//Storyboard Layer 0 (Background)
//Storyboard Layer 1 (Fail)
//Storyboard Layer 2 (Pass)
//Storyboard Layer 3 (Foreground)
//Storyboard Sound Samples
//Background Colour Transformations
3,100,128,128,128

[TimingPoints]
4138.49019347966,413.793103448276,4,1,0,83,1,0
4240.49019347966,-133.333333333333,4,2,0,83,0,0
27312,-100,4,2,0,83,0,0
46966,-66.6666666666667,4,1,0,83,0,0
47174,-66.6666666666667,4,1,0,83,0,1
66933,-100,4,2,0,83,0,0
73657,-100,4,2,0,83,0,0

[Colours]
Combo1 : 128,0,255
Combo2 : 0,0,255
Combo3 : 0,0,0
Combo4 : 255,255,255

[HitObjects]
203,228,13655,53,0,0:0:0:0:
309,243,14069,1,2,0:0:0:0:
385,167,14483,2,0,P|408:155|436:156,1,45.0000017166138
414,261,15104,1,0,0:0:0:0:
362,274,15310,2,0,P|255:306|151:273,1,225.000008583069
131,221,16552,22,0,P|152:208|174:210,1,45.0000017166138
200,163,16966,2,0,P|195:137|176:128,1,45.0000017166138
126,121,17379,2,2,B|74:132|44:172|51:217,1,135.000005149841,2|0,0:0|0:0,0:0:0:0:
65,270,18207,1,4,0:0:0:0:
388,260,19448,37,0,0:0:0:0:
426,298,19655,2,0,L|461:333,2,45.0000017166138,0|2|0,0:0|0:0|0:0,0:0:0:0:
440,245,20276,21,2,0:0:0:0:
465,140,20690,1,4,0:0:0:0:
373,197,21104,2,0,P|374:175|354:162,1,45.0000017166138
273,231,21724,2,0,P|260:216|232:210,1,45.0000017166138
236,209,22759,5,0,0:0:0:0:
182,213,22966,2,0,P|148:189|145:140,1,90.0000034332277,0|0,0:0|0:0,0:0:0:0:
193,121,23586,2,0,P|201:98|193:75,1,45.0000017166138,0|2,0:0|0:0,0:0:0:0:
91,49,24207,22,0,P|72:58|64:80,1,45.0000017166138
66,133,24621,2,0,B|139:134|139:279|225:276,1,225.000008583069
327,306,26069,38,0,P|348:300|361:282,1,45.0000017166138
348,237,26483,2,0,P|354:218|371:201,1,45.0000017166138,2|0,0:0|0:0,0:0:0:0:
374,93,27104,21,2,0:0:0:0:
374,93,27310,2,0,L|400:51,2,45.0000017166138,4|0|0,0:0|0:0|0:0,0:0:0:0:
387,164,27931,2,0,L|441:136,2,60,0|8|0,0:0|0:0|2:0,0:0:0:0:
353,228,28552,2,0,B|256:299|256:299|161:226,1,240
194,162,29586,37,0,0:0:0:0:
263,143,29793,1,8,0:0:0:0:
316,191,30000,2,0,L|351:139,2,60,0|0|0,0:0|0:0|0:0,0:0:0:0:
318,263,30621,2,0,B|276:276|241:263|234:249|241:235|255:221|269:235|276:249|269:263|234:276|193:263,1,180
123,267,31448,2,8,B|103:249|78:245|41:258|28:295|43:333|77:360|115:349|141:318|138:286|119:262,1,240,8|2,0:0|0:0,0:0:0:0:
124,124,32690,37,0,0:0:0:0:
73,73,32897,2,0,P|50:46|20:24,2,60,0|8|0,0:0|0:0|0:0,0:0:0:0:
55,142,33517,38,0,P|88:186|150:189,1,120,2|4,0:0|0:0,0:0:0:0:
393,120,34345,1,0,0:0:0:0:
393,120,34552,1,0,0:0:0:0:
256,331,34966,1,0,0:0:0:0:
256,331,35172,2,0,P|180:319|121:280,2,120,0|2|0,0:0|0:0|0:0,0:0:0:0:
320,298,36207,2,8,P|352:292|372:272,2,60,0|8|0,0:0|0:0|0:0,0:0:0:0:
286,233,36828,1,0,0:0:0:0:
286,233,37035,2,0,P|356:198|334:112,1,180,4|0,0:0|0:0,0:0:0:0:
334,112,38069,21,8,0:0:0:0:
110,130,38379,1,2,0:0:0:0:
356,202,38690,2,0,P|362:231|339:245,1,60,2|4,0:0|0:0,0:0:0:0:
256,192,39104,12,4,40552,0:0:0:0:
241,251,45724,37,2,3:0:0:0:
184,158,46035,2,0,L|150:169,3,30,0|0|0|0,1:0|1:0|1:0|1:0,1:0:0:0:
296,118,46759,1,2,1:0:0:0:
256,192,46966,21,0,3:0:0:0:
256,192,47172,2,0,B|297:166|297:166|339:173,1,90.0000034332277,4|0,1:0|2:0,0:0:0:0:
378,273,47586,2,0,B|339:297|339:297|292:288,1,90.0000034332277,0|0,2:0|1:0,1:0:0:0:
194,249,48000,2,0,L|140:156,1,90.0000034332277,0|0,2:0|2:0,1:0:0:0:
58,231,48414,37,8,0:0:0:0:
73,124,48621,1,0,2:0:0:0:
194,249,48828,2,0,B|192:303|192:303|157:318,1,90.0000034332277,0|0,0:0|2:0,0:0:0:0:
378,273,49241,2,0,P|413:301|397:339,1,90.0000034332277,0|0,2:0|0:0,0:0:0:0:
154,239,49655,22,0,B|154:272|154:272|202:304,1,90.0000034332277,0|0,2:0|2:0,0:0:0:0:
310,303,50069,2,0,B|358:271|358:271|358:239,1,90.0000034332277,8|0,1:0|2:0,0:0:0:0:
256,276,50483,2,0,L|256:185,1,90.0000034332277,0|0,0:0|2:0,0:0:0:0:
159,135,50897,22,0,P|139:95|159:55,1,90.0000034332277,0|0,2:0|1:0,0:0:0:0:
352,54,51310,2,0,P|369:94|352:134,1,90.0000034332277,0|0,2:0|2:0,0:0:0:0:
256,185,51724,1,8,1:0:0:0:
202,279,51931,38,0,L|178:327,2,45.0000017166138,0|0|0,0:0|0:0|0:0,0:0:0:0:
310,279,52345,2,0,L|334:327,2,45.0000017166138,0|0|0,0:0|0:0|0:0,0:0:0:0:
395,211,52759,2,0,P|479:227|472:157,1,180.000006866455,0|2,0:0|0:0,0:0:0:0:
288,46,53586,1,0,0:0:0:0:
288,46,53793,38,0,P|340:105|416:117,2,135.000005149841,4|0|2,0:0|1:0|1:0,0:0:0:0:
180,64,54621,1,0,2:0:0:0:
180,64,55035,2,0,P|222:100|235:147,1,90.0000034332277,8|0,1:0|2:0,0:0:0:0:
148,197,55448,2,0,B|153:275|153:275|229:297,2,135.000005149841,0|0|2,0:0|0:0|0:0,0:0:0:0:
256,186,56276,21,0,2:0:0:0:
256,186,56483,1,0,2:0:0:0:
336,257,56690,1,8,1:0:0:0:
336,257,56897,1,0,2:0:0:0:
336,257,57104,2,0,P|256:292|176:257,1,180.000006866455,0|0,0:0|2:0,0:0:0:0:
256,186,57724,1,0,0:0:0:0:
256,186,57931,1,0,2:0:0:0:
331,108,58138,1,0,2:0:0:0:
361,211,58345,1,8,1:0:0:0:
437,135,58552,38,0,L|471:107,2,45.0000017166138,0|0|0,0:0|0:0|0:0,0:0:0:0:
462,240,58966,2,0,L|503:224,2,45.0000017166138,0|0|0,0:0|0:0|0:0,0:0:0:0:
387,317,59379,2,0,P|435:340|466:306,2,90.0000034332277,0|0|0,2:0|0:0|2:0,2:0:0:0:
298,254,60000,1,8,1:0:0:0:
368,171,60207,1,0,2:0:0:0:
368,171,60414,22,0,P|440:125|486:63,2,135.000005149841,4|0|2,0:0|0:0|1:0,0:0:0:0:
298,254,61241,2,0,P|257:275|215:262,1,90.0000034332277,0|0,2:0|2:0,0:0:0:0:
129,199,61655,2,0,P|90:187|79:135,1,90.0000034332277,8|0,1:0|2:0,0:0:0:0:
314,90,62069,2,0,B|366:58|421:104|465:66,2,135.000005149841,0|0|2,0:0|0:0|0:0,0:0:0:0:
363,186,62897,2,0,B|363:233|363:233|400:257,1,90.0000034332277,0|0,2:0|2:0,0:0:0:0:
466,341,63310,1,8,1:0:0:0:
361,312,63517,1,0,2:0:0:0:
361,312,63724,2,2,P|327:340|236:346,2,135.000005149841,0|0|2,0:0|0:0|0:0,0:0:0:0:
272,249,64552,38,0,B|259:182|150:228|131:159,1,180.000006866455,0|8,2:0|1:0,0:0:0:0:
130,158,65379,2,0,L|135:111,2,45.0000017166138,0|0|0,0:0|0:0|0:0,0:0:0:0:
43,223,65793,2,0,L|4:200,2,45.0000017166138,0|0|0,0:0|0:0|0:0,0:0:0:0:
92,320,66207,2,0,P|135:302|151:265,1,90.0000034332277,0|0,0:0|2:0,0:0:0:0:
130,158,66621,37,0,3:0:0:0:
130,158,66828,1,0,0:0:0:0:
130,158,67035,2,4,P|149:102|201:78,1,120,4|4,1:0|2:0,0:0:0:0:
255,125,67655,1,0,0:0:0:0:
335,223,67862,22,0,L|287:271,1,60,8|0,0:0|0:0,0:0:0:0:
220,265,68276,2,0,L|173:218,1,60
177,150,68690,2,0,L|225:102,1,60,0|8,0:0|0:0,0:0:0:0:
292,107,69104,2,0,L|339:154,1,60
340,221,69517,2,0,P|305:210|276:227,1,60,8|0,0:0|0:0,0:0:0:0:
194,215,69931,2,0,P|189:247|216:274,1,60,8|0,3:0|0:0,0:0:0:0:
272,292,70345,37,4,0:0:0:0:
272,292,70552,1,0,0:0:0:0:
342,278,70759,1,0,2:0:0:0:
342,278,70966,1,0,0:0:0:0:
384,220,71172,1,8,0:0:0:0:
384,220,71379,1,0,0:0:0:0:
365,150,71586,1,0,0:0:0:0:
365,150,71793,1,0,0:0:0:0:
307,193,72000,1,0,0:0:0:0:
256,243,72207,1,8,0:0:0:0:
205,192,72414,1,0,0:0:0:0:
256,141,72621,38,0,L|258:111,2,30,0|0|8,0:0|0:0|0:0,0:0:0:0:
307,193,73035,1,8,3:0:0:0:
307,193,73241,1,4,3:0:0:0:
256,243,73448,1,0,2:0:0:0:
256,243,73655,1,4,1:0:0:0:
256,192,73759,12,0,76966,2:0:0:0:
