osu file format v14

[General]
AudioFilename: I - Taeyeon.mp3
AudioLeadIn: 0
PreviewTime: 160867
Countdown: 0
SampleSet: Soft
StackLeniency: 0.7
Mode: 0
LetterboxInBreaks: 1
WidescreenStoryboard: 0

[Editor]
DistanceSpacing: 1.2
BeatDivisor: 4
GridSize: 4
TimelineZoom: 1

[Metadata]
Title:I (feat. Verbal Jint)
TitleUnicode:I (feat. 버벌진트)
Artist:Taeyeon
ArtistUnicode:태연
Creator:wasinkingspeedq
Version:Easy
Source:
Tags:Sm.entertainment kpop Girls' Generation SNSD 김태연 The 1st Mini Album
BeatmapID:816348
BeatmapSetID:364750

[Difficulty]
HPDrainRate:2
CircleSize:3
OverallDifficulty:2
ApproachRate:3
SliderMultiplier:1.3
SliderTickRate:1

[Events]
//Background and Video events
0,0,"BG1.jpg",0,0
Video,-2287,"I.avi"
//Break Periods
2,141400,150427
//Storyboard Layer 0 (Background)
//Storyboard Layer 1 (Fail)
//Storyboard Layer 2 (Pass)
//Storyboard Layer 3 (Foreground)
//Storyboard Sound Samples

[TimingPoints]
2534,666.666666666667,4,2,1,55,1,0
23867,-100,4,2,2,65,0,0
55867,-100,4,2,1,55,0,0
66534,-100,4,2,2,65,0,0
98534,-100,4,2,1,55,0,0
119867,-100,4,2,2,70,0,1
130534,-100,4,2,2,65,0,0
141200,-100,4,2,0,30,0,0
151867,-100,4,2,1,55,0,0
162534,-100,4,2,2,70,0,1
183867,-100,4,2,0,30,0,0

[Colours]
Combo1 : 255,255,128
Combo2 : 128,255,128
Combo3 : 192,192,192
Combo4 : 128,255,255

[HitObjects]
455,76,2534,6,0,P|394:56|334:78,1,130
256,212,3867,1,0,0:0:0:0:
144,104,4534,2,0,L|144:32,2,65
84,248,5867,1,2,0:0:0:0:
204,348,6534,2,0,B|252:348|252:348|280:340|280:340|344:340,1,130
488,348,7867,6,0,B|488:308|488:308|476:268|476:268|476:212,1,130
380,96,9200,1,0,0:0:0:0:
256,192,9867,2,0,L|180:192,2,65
380,288,11200,1,2,0:0:0:0:
436,140,11867,2,0,P|396:90|333:85,1,130
256,220,13200,5,0,0:0:0:0:
178,85,13867,2,0,P|115:90|76:140,1,130
156,272,15200,2,0,L|156:336,2,65
188,120,16534,1,2,0:0:0:0:
300,228,17200,2,0,B|348:228|348:228|380:212|380:212|440:212,1,130
308,108,18534,6,0,B|261:108|261:108|229:92|229:92|181:92,1,130
64,192,19867,1,0,0:0:0:0:
148,324,20534,1,0,0:0:0:0:
256,212,21200,2,0,P|344:208|380:160,1,130,2|2,0:0|0:0,0:0:0:0:
256,76,22534,2,0,L|184:76,2,65,2|0|2,0:0|0:0|0:0,0:0:0:0:
408,112,23867,5,4,0:0:0:0:
328,248,24534,2,0,B|280:248|280:248|244:264|244:264|176:264,1,130,8|0,0:0|0:0,0:0:0:0:
132,224,25534,1,0,0:0:0:0:
76,280,25867,2,0,P|52:220|88:156,1,130,8|0,0:0|0:0,0:0:0:0:
188,56,27200,1,8,0:0:0:0:
324,136,27867,2,0,L|404:136,2,65,0|0|8,0:0|0:0|0:0,0:0:0:0:
256,276,29200,5,0,0:0:0:0:
184,136,29867,2,0,P|100:136|60:188,1,130,8|0,0:0|0:0,0:0:0:0:
64,244,30867,1,0,0:0:0:0:
128,292,31200,2,0,B|176:292|176:292|208:276|208:276|268:276,1,130,8|0,0:0|0:0,0:0:0:0:
408,320,32534,1,8,0:0:0:0:
472,180,33200,2,0,L|472:104,2,65,0|0|8,0:0|0:0|0:0,0:0:0:0:
344,92,34534,6,0,P|276:72|220:96,1,130,4|8,0:0|0:0,0:0:0:0:
144,228,35867,2,0,P|204:249|264:229,1,130,0|8,0:0|0:0,0:0:0:0:
408,164,37200,2,0,P|428:240|408:300,1,130,0|8,0:0|0:0,0:0:0:0:
256,268,38534,2,0,L|256:204,2,65,0|0|8,0:0|0:0|0:0,0:0:0:0:
97,287,39867,6,0,P|83:225|104:164,1,130,0|8,0:0|0:0,0:0:0:0:
256,124,41200,2,0,L|256:208,2,65,0|0|8,0:0|0:0|0:0,0:0:0:0:
408,84,42534,1,0,0:0:0:0:
460,232,43200,2,0,B|412:232|412:232|376:248|376:248|312:248,1,130,8|0,0:0|0:0,0:0:0:0:
260,108,44534,2,0,L|180:108,1,65,8|0,0:0|0:0,0:0:0:0:
128,152,45200,6,0,P|104:220|136:280,1,130,4|8,0:0|0:0,0:0:0:0:
256,360,46534,1,0,0:0:0:0:
384,272,47200,2,0,P|428:276|452:268,1,65,8|0,0:0|0:0,0:0:0:0:
476,196,47867,2,0,P|456:132|392:100,1,130,0|8,0:0|0:0,0:0:0:0:
252,76,49200,2,0,B|204:76|204:76|168:92|168:92|112:92,1,130,0|8,0:0|0:0,0:0:0:0:
64,236,50534,6,0,P|76:312|124:344,1,130,0|8,0:0|0:0,0:0:0:0:
240,248,51867,1,0,0:0:0:0:
348,360,52534,2,0,P|388:364|424:356,1,65,8|0,0:0|0:0,0:0:0:0:
464,300,53200,2,0,B|456:252|464:236|464:236|472:212|464:164,1,130,0|8,0:0|0:0,0:0:0:0:
360,52,54534,2,0,P|280:36|216:68,1,130,0|4,0:0|0:0,0:0:0:0:
236,208,55867,6,0,P|297:225|359:208,1,130
228,124,57200,2,0,P|160:172|156:232,1,130
92,268,58200,1,0,0:0:0:0:
52,200,58534,2,0,B|52:156|52:156|68:120|68:120|68:64,1,130,0|2,0:0|0:0,0:0:0:0:
196,160,59867,2,0,P|276:180|324:152,1,130
444,73,61200,6,0,B|444:120|444:120|460:156|460:156|460:200,1,130,2|2,0:0|0:0,0:0:0:0:
332,288,62534,2,0,L|332:364,2,65,2|2|2,0:0|0:0|0:0,0:0:0:0:
256,152,63867,1,2,0:0:0:0:
144,264,64534,1,2,0:0:0:0:
256,152,65200,2,0,L|256:80,2,65,2|2|2,0:0|0:0|0:0,0:0:0:0:
256,308,66534,6,0,B|300:308|300:308|332:324|332:324|396:324,1,130,4|8,0:0|0:0,0:0:0:0:
344,172,67867,2,0,B|344:124|344:124|328:88|328:88|328:40,1,130,0|8,0:0|0:0,0:0:0:0:
179,98,69200,2,0,P|111:74|47:114,1,130,0|8,0:0|0:0,0:0:0:0:
40,256,70534,2,0,L|40:328,2,65,0|0|8,0:0|0:0|0:0,0:0:0:0:
62,97,71867,5,0,0:0:0:0:
188,192,72534,2,0,B|224:204|256:192|256:192|288:180|320:196,1,130,8|0,0:0|0:0,0:0:0:0:
392,332,73867,1,8,0:0:0:0:
468,192,74534,2,0,B|464:144|464:144|472:108|472:108|468:56,1,130,0|8,0:0|0:0,0:0:0:0:
312,48,75867,2,0,L|244:48,2,65,0|0|8,0:0|0:0|0:0,0:0:0:0:
256,192,77200,5,4,0:0:0:0:
120,112,77867,1,8,0:0:0:0:
148,264,78534,2,0,L|148:332,2,65,0|0|8,0:0|0:0|0:0,0:0:0:0:
300,228,79867,2,0,P|372:244|444:216,1,130,0|8,0:0|0:0,0:0:0:0:
360,84,81200,2,0,L|284:84,1,65
228,44,81867,1,8,0:0:0:0:
128,164,82534,6,0,P|96:244|104:296,1,130,0|8,0:0|0:0,0:0:0:0:
256,300,83867,2,0,L|256:364,2,65,0|0|8,0:0|0:0|0:0,0:0:0:0:
412,284,85200,2,0,P|413:219|384:162,1,130,0|8,0:0|0:0,0:0:0:0:
256,76,86534,2,0,L|256:8,2,65,0|0|8,0:0|0:0|0:0,0:0:0:0:
112,136,87867,6,0,B|116:184|116:184|108:216|108:216|112:280,1,130,4|8,0:0|0:0,0:0:0:0:
240,176,89200,2,0,P|276:172|324:184,1,65
323,253,89867,2,0,P|387:273|460:244,1,130,8|0,0:0|0:0,0:0:0:0:
460,100,91200,1,8,0:0:0:0:
446,254,91867,2,0,L|446:346,2,65,0|0|8,0:0|0:0|0:0,0:0:0:0:
304,192,93200,6,0,B|256:192|256:192|220:208|220:208|160:208,1,130,0|8,0:0|0:0,0:0:0:0:
64,104,94534,2,0,L|64:24,2,65,0|0|8,0:0|0:0|0:0,0:0:0:0:
180,208,95867,2,0,P|176:288|136:328,1,130,0|8,0:0|0:0,0:0:0:0:
104,172,97200,2,0,P|176:124|232:144,1,130,0|8,0:0|0:0,0:0:0:0:
116,256,98534,6,0,P|28:212|20:176,1,130
152,104,99867,1,0,0:0:0:0:
256,220,100534,1,0,0:0:0:0:
356,100,101200,2,0,B|356:148|356:148|372:184|372:184|372:248,1,130,2|0,0:0|0:0,0:0:0:0:
256,332,102534,2,0,P|184:352|120:316,1,130
64,192,103867,6,0,P|56:120|76:64,1,130,2|0,0:0|0:0,0:0:0:0:
208,140,105200,2,0,L|292:140,2,65,2|2|2,0:0|0:0|0:0,0:0:0:0:
320,252,106534,2,0,B|364:252|364:252|400:236|400:236|460:236,1,130,2|2,0:0|0:0,0:0:0:0:
328,336,107867,2,0,P|244:288|240:236,1,130
376,192,109200,5,0,0:0:0:0:
256,92,109867,2,0,B|208:92|208:92|172:80|172:80|120:80,1,130
56,216,111200,2,0,P|48:248|72:296,1,65
103,343,111867,2,0,P|166:350|219:316,1,130,0|2,0:0|0:0,0:0:0:0:
316,192,113200,2,0,B|316:144|316:144|332:108|332:108|332:52,1,130
400,208,114534,6,0,P|352:272|296:276,1,130
216,152,115867,1,0,0:0:0:0:
84,240,116534,2,0,L|84:168,1,65
84,96,117200,2,0,P|136:36|204:12,1,130,0|2,0:0|0:0,0:0:0:0:
300,120,118534,2,0,L|300:40,2,65
376,144,119534,1,0,0:0:0:0:
436,196,119867,6,0,B|436:244|436:244|420:276|420:276|420:340,1,130,4|8,0:0|0:0,0:0:0:0:
316,204,121200,2,0,P|252:188|180:216,1,130,0|8,0:0|0:0,0:0:0:0:
140,268,122200,1,0,0:0:0:0:
104,196,122534,2,0,B|96:148|96:148|104:112|104:112|96:64,1,130,0|8,0:0|0:0,0:0:0:0:
256,96,123867,2,0,L|248:176,2,65,0|0|8,0:0|0:0|0:0,0:0:0:0:
408,64,125200,6,0,B|400:107|400:107|408:143|408:143|400:191,1,130,0|8,0:0|0:0,0:0:0:0:
256,260,126534,2,0,L|248:180,2,65,0|0|8,0:0|0:0|0:0,0:0:0:0:
112,320,127867,1,8,0:0:0:0:
256,260,128534,1,8,0:0:0:0:
400,320,129200,2,0,L|484:320,2,65,8|0|8,0:0|0:0|0:0,0:0:0:0:
336,272,130200,1,0,0:0:0:0:
256,260,130534,6,0,B|244:216|256:192|256:192|268:172|256:128,1,130,4|8,0:0|0:0,0:0:0:0:
104,112,131867,1,0,0:0:0:0:
257,132,132534,1,8,0:0:0:0:
408,112,133200,2,0,L|408:28,2,65,0|0|8,0:0|0:0|0:0,0:0:0:0:
316,240,134534,2,0,P|244:264|188:216,1,130,0|8,0:0|0:0,0:0:0:0:
88,128,135867,6,0,P|48:192|56:264,1,130,0|8,0:0|0:0,0:0:0:0:
188,316,137200,2,0,L|256:316,1,65
332,316,137867,1,8,0:0:0:0:
428,192,138534,2,0,B|428:144|428:144|444:108|444:108|444:48,1,130,0|8,0:0|0:0,0:0:0:0:
288,40,139867,2,0,L|216:40,2,65,0|0|4,0:0|0:0|0:0,0:0:0:0:
256,192,141200,5,0,0:0:0:0:
132,120,151867,5,2,0:0:0:0:
256,216,152534,1,0,0:0:0:0:
380,120,153200,1,0,0:0:0:0:
256,24,153867,1,0,0:0:0:0:
180,160,154534,5,2,0:0:0:0:
256,296,155200,1,0,0:0:0:0:
332,160,155867,1,0,0:0:0:0:
256,24,156534,2,0,L|180:24,1,65
256,192,157200,12,4,162534,0:0:0:0:
256,288,164534,1,8,0:0:0:0:
372,184,165200,2,0,P|396:120|356:60,1,130,0|8,0:0|0:0,0:0:0:0:
256,180,166534,2,0,L|256:244,2,65,0|0|8,0:0|0:0|0:0,0:0:0:0:
224,108,167534,1,0,0:0:0:0:
148,132,167867,6,0,B|100:132|100:132|64:120|64:120|12:120,1,130,4|8,0:0|0:0,0:0:0:0:
156,40,169200,2,0,P|200:52|216:68,1,65
257,132,169867,2,0,B|268:172|256:192|256:192|244:216|256:260,1,130,8|0,0:0|0:0,0:0:0:0:
376,160,171200,1,8,0:0:0:0:
472,284,171867,2,0,L|472:372,2,65,0|0|8,0:0|0:0|0:0,0:0:0:0:
376,160,173200,6,0,B|324:160|324:160|296:172|296:172|236:172,1,130,4|8,0:0|0:0,0:0:0:0:
96,148,174534,1,8,0:0:0:0:
64,220,174867,2,0,L|64:288,2,65,0|8|0,0:0|0:0|0:0,0:0:0:0:
96,148,175867,2,0,P|160:124|228:160,1,130,8|8,0:0|0:0,0:0:0:0:
256,296,177200,2,0,L|256:360,2,65,8|0|8,0:0|0:0|0:0,0:0:0:0:
372,188,178534,6,0,B|372:140|372:140|388:104|388:104|388:44,2,130,12|8|8,0:0|0:0|0:0,0:0:0:0:
352,264,180200,1,0,0:0:0:0:
312,332,180534,2,0,P|244:356|184:312,1,130,8|8,0:0|0:0,0:0:0:0:
124,192,181867,1,8,0:0:0:0:
256,108,182534,2,0,L|256:35,2,65,8|0|8,0:0|0:0|0:0,0:0:0:0:
256,192,183867,12,0,186534,0:0:0:0:
