osu file format v8

[General]
AudioFilename: Taeyang - I Need A Girl (Feat. G-Dragon).mp3
AudioLeadIn: 0
PreviewTime: 50171
Countdown: 0
SampleSet: Soft
StackLeniency: 0.7
Mode: 0
LetterboxInBreaks: 0

[Editor]
DistanceSpacing: 1
BeatDivisor: 4
GridSize: 8

[Metadata]
Title:I Need a Girl
Artist:Taeyang feat. G-Dragon
Creator:_llkey_18
Version:Easy
Source:
Tags:Solar Big Bang simplistiC Lizbeth

[Difficulty]
HPDrainRate:1
CircleSize:3
OverallDifficulty:1
ApproachRate:2
SliderMultiplier:1.1
SliderTickRate:1

[Events]
//Background and Video events
0,0,"Tae_Yang_Wallpaper_by_taeminsxwifey.jpg"
//Break Periods
2,67062,73650
//Storyboard Layer 0 (Background)
//Storyboard Layer 1 (Fail)
//Storyboard Layer 2 (Pass)
//Storyboard Layer 3 (Foreground)
//Storyboard Sound Samples
//Background Colour Transformations
3,100,163,162,255

[TimingPoints]
16776,521.739130434787,4,2,2,69,1,0
18687,-100,4,2,2,30,0,0
18948,-100,4,2,2,70,0,0
20774,-100,4,2,2,30,0,0
21035,-100,4,2,2,70,0,0
22861,-100,4,2,2,30,0,0
23122,-100,4,2,2,70,0,0
27035,-100,4,2,2,30,0,0
27296,-100,4,2,2,70,0,0
29122,-100,4,2,2,30,0,0
29383,-100,4,2,2,70,0,0
31209,-100,4,2,2,30,0,0
31470,-100,4,2,2,70,0,0
33296,-100,4,1,2,50,0,0
33557,-100,4,2,2,70,0,0
35383,-100,4,2,2,30,0,0
35644,-100,4,2,2,70,0,0
37470,-100,4,2,2,30,0,0
37731,-100,4,2,2,70,0,0
39557,-100,4,2,2,30,0,0
39817,-100,4,2,2,70,0,0
41644,-100,4,1,2,50,0,0
41904,-100,4,2,2,70,0,0
43731,-100,4,2,2,30,0,0
43991,-100,4,2,2,70,0,0
45817,-100,4,2,2,31,0,0
46078,-100,4,2,2,70,0,0
49991,-100,4,1,2,50,0,0
50122,-100,4,1,2,50,0,1
50252,-100,4,2,2,70,0,1
52078,-100,4,2,2,31,0,1
52339,-100,4,2,2,71,0,1
54165,-100,4,2,2,30,0,1
54426,-100,4,2,2,71,0,1
56252,-100,4,2,2,30,0,1
56513,-100,4,2,2,71,0,1
58339,-100,4,1,2,50,0,1
58600,-100,4,2,2,80,0,1
60426,-100,4,2,2,30,0,1
60687,-100,4,2,2,70,0,1
60687,-100,4,2,2,70,0,1
62513,-100,4,2,2,30,0,1
62774,-100,4,2,2,70,0,1
64600,-100,4,2,2,30,0,1
64861,-100,4,2,2,70,0,1
65383,-100,4,2,2,30,0,1
65644,-100,4,2,2,70,0,1
66846,-100,4,2,2,70,0,0
77140,-100,4,2,2,30,0,0
77401,-100,4,2,2,70,0,0
79227,-100,4,2,2,30,0,0
79488,-100,4,2,2,71,0,0
80009,-100,4,2,2,30,0,0
80270,-100,4,2,2,70,0,0
81314,-100,4,2,2,30,0,0
81575,-100,4,2,2,70,0,0
83401,-100,4,1,2,50,0,0
83662,-100,4,2,2,70,0,0
85488,-100,4,2,2,31,0,0
85749,-100,4,2,2,70,0,0
87575,-100,4,2,2,30,0,0
87835,-100,4,2,2,71,0,0
89662,-100,4,2,2,31,0,0
89922,-100,4,2,2,71,0,0
91749,-100,4,1,2,50,0,0
92009,-100,4,2,2,70,0,0
93835,-100,4,2,2,31,0,0
94096,-100,4,2,2,70,0,0
95922,-100,4,2,2,30,0,0
96183,-100,4,2,2,70,0,0
96705,-100,4,2,2,31,0,0
96966,-100,4,2,2,71,0,0
97519,-100,4,2,2,0,0,0
97749,-100,4,2,2,29,0,0
99575,-100,4,2,2,21,0,0
100096,-100,4,1,2,51,0,0
100227,-100,4,1,2,51,0,1
100357,-100,4,2,2,71,0,1
102183,-100,4,2,2,30,0,1
102444,-100,4,2,2,70,0,1
104270,-100,4,2,2,31,0,1
104531,-100,4,2,2,71,0,1
106357,-100,4,2,2,31,0,1
106618,-100,4,2,2,70,0,1
108444,-100,4,1,2,50,0,1
108705,-100,4,2,2,71,0,1
110531,-100,4,2,2,29,0,1
110792,-100,4,2,2,70,0,1
112618,-100,4,2,2,31,0,1
112760,-100,4,2,2,71,0,0
114575,-100,4,2,2,51,0,0
115096,-100,4,2,2,31,0,0
115618,-100,4,2,2,11,0,0
116140,-100,4,2,2,2,0,0

[Colours]
Combo1 : 128,255,128
Combo2 : 255,128,128
Combo3 : 255,255,128
SliderBorder : 255,128,64

[HitObjects]
384,80,17819,2,0,B|440:144|416:224|400:256|360:296,1,220,2|0
264,280,19384,1,8
152,280,19906,2,0,B|96:256|96:176|112:128|144:88|168:72,1,220,2|0
256,72,21471,1,8
336,152,21993,5,0
256,224,22515,1,8
336,152,23036,2,0,B|456:152,2,110,0|8|2
392,56,24602,1,8
80,152,26167,6,0,B|88:200|128:232|160:240,2,110,2|8|0
184,128,27732,1,8
248,216,28254,1,2
312,304,28776,1,8
424,304,29297,2,0,B|464:256|488:184|464:144|448:112|424:96,2,220,0|2|0
360,216,31906,1,8
168,112,32949,5,2
56,112,33471,1,4
112,208,33993,2,0,B|112:256|144:288|176:312,1,110,8|2
272,304,35036,2,0,B|288:240|336:216,3,110,8|0|8|2
336,216,37123,1,8
392,120,37645,6,0,B|336:64|264:48|208:56|168:64,1,220,0|2
112,144,39210,1,8
88,248,39732,2,0,B|104:304|160:336|232:336|264:336|272:328,1,220,0|2
344,240,41297,5,8
344,128,41819,1,4
272,48,42341,2,0,B|208:24|152:72,1,110,8|2
104,144,43384,2,0,B|96:216|160:256,1,110,8|0
232,184,44428,1,8
232,296,44949,1,2
232,184,45471,1,8
344,184,45993,6,0,B|352:120|312:72|256:56|208:72|184:72,1,220,0|2
96,88,47558,1,8
256,192,48080,12,0,49645
224,120,50167,6,0,B|200:144|176:192|168:248|192:288|208:320|224:344,2,220,4|2|0
336,120,52776,1,8
416,200,53297,1,0
488,120,53819,1,8
416,200,54341,6,0,B|368:192|328:240|328:264,2,110,0|8|2
488,120,55906,1,0
376,120,56428,2,0,B|328:112|288:160|288:184,2,110,0|8|2
376,120,57993,1,8
272,88,58515,6,0,B|248:112|224:160|216:216|240:256|256:288|272:312,2,220,0|2|0
168,64,61123,2,0,B|104:80|104:152,1,110,8|0
104,256,62167,1,8
208,216,62689,6,0,B|224:152|288:136,2,110,0|8|2
312,264,64254,1,8
392,184,64776,1,0
464,264,65297,1,8
392,184,65819,1,2
464,104,66341,2,0,B|440:64|400:48|352:48,1,110,8|0
256,192,75210,5,0
256,192,75732,1,8
256,192,76254,2,0,B|256:80,3,110,2|8|0|8
368,80,78341,6,0,B|488:83,2,110,2|8|0
368,192,79906,1,0
368,304,80428,2,0,B|240:304,2,110,2|8|0
368,192,81993,1,8
256,192,82515,1,2
304,96,83036,6,0,B|176:96,1,110,8|4
80,96,84080,1,8
32,192,84602,2,0,B|32:304,1,110,2|8
144,304,85645,2,0,B|144:192,1,110,0|8
248,216,86689,1,2
432,96,87732,6,0,B|296:56|216:144,1,220,0|2
304,208,89297,1,8
384,280,89819,2,0,B|472:208,2,110,0|8|2
304,208,91384,5,8
232,128,91906,1,4
200,232,92428,2,0,B|96:312,1,110,8|2
88,192,93471,2,0,B|48:144|64:96|88:80,3,110,8|0|8|2
77,90,95558,1,8
192,104,96080,6,0,B|232:160|288:168,1,110,0|8
384,120,97123,2,0,B|440:128|456:184|448:208,1,110
256,192,99732,5,2
216,88,100254,6,0,B|192:112|168:160|160:216|184:256|200:288|216:312,1,220,4|2
304,240,101819,1,8
400,288,102341,1,0
472,208,102862,1,8
376,152,103384,1,0
376,152,103906,1,8
312,64,104428,6,0,B|248:24|192:88,1,110,0|8
128,136,105471,1,2
48,208,105993,1,8
128,280,106515,2,0,B|176:320|240:328|328:328|344:304,1,220,0|2
416,232,108080,1,8
416,120,108602,6,0,B|368:72|288:56|224:56|200:64,1,220,4|2
112,120,110167,2,0,B|72:168|96:240,2,110,0|0|8
208,176,111732,1,0
280,256,112254,2,0,B|400:256,1,110,8|0
256,192,113036,12,2,116428
