osu file format v12

[General]
AudioFilename: Taeyang_-_Ringa_Linga_MV_English_subs__Romanizatio....mp3
AudioLeadIn: 0
PreviewTime: -1
Countdown: 1
SampleSet: None
StackLeniency: 0.7
Mode: 0
LetterboxInBreaks: 1
WidescreenStoryboard: 0

[Editor]
DistanceSpacing: 1.3
BeatDivisor: 4
GridSize: 8

[Metadata]
Title:Ringa Linga
TitleUnicode:Ringa Linga
Artist:Taeyang
ArtistUnicode:Taeyang
Creator:vioLinAngel
Version:Normal
Source:
Tags:
BeatmapID:345455
BeatmapSetID:138297

[Difficulty]
HPDrainRate:5
CircleSize:5
OverallDifficulty:5
ApproachRate:5
SliderMultiplier:1.4
SliderTickRate:1

[Events]
//Background and Video events
0,0,"Taeyang-400x330.jpg",0,0
//Break Periods
2,57980,63038
2,129438,134600
//Storyboard Layer 0 (Background)
//Storyboard Layer 1 (Fail)
//Storyboard Layer 2 (Pass)
//Storyboard Layer 3 (Foreground)
//Storyboard Sound Samples
//Background Colour Transformations
3,100,163,162,255

[TimingPoints]
21321.6666666667,416.666666666667,4,1,0,100,1,0

[HitObjects]
256,192,16946,5,14,0:0:0:0:
144,192,17363,5,0,0:0:0:0:
360,192,17780,5,0,0:0:0:0:
256,144,18300,5,0,0:0:0:0:
256,144,18717,1,0,0:0:0:0:
256,144,19134,1,0,0:0:0:0:
256,192,19550,5,0,0:0:0:0:
256,192,19759,1,0,0:0:0:0:
256,192,19967,1,0,0:0:0:0:
256,232,20384,5,0,0:0:0:0:
256,232,20800,6,0,L|256:192,5,35
256,152,21738,5,0,0:0:0:0:
256,192,22155,5,0,0:0:0:0:
256,232,22571,5,0,0:0:0:0:
256,80,22884,2,0,L|256:144,5,35
256,288,23821,5,0,0:0:0:0:
256,240,24238,1,0,0:0:0:0:
256,184,24655,1,0,0:0:0:0:
200,304,25071,5,0,0:0:0:0:
200,256,25488,5,0,0:0:0:0:
200,216,25905,5,0,0:0:0:0:
200,216,26009,1,0,0:0:0:0:
144,176,26217,6,0,B|256:176|320:168|384:160,1,210
256,192,27155,5,0,0:0:0:0:
256,192,27675,5,0,0:0:0:0:
256,192,28196,1,12,0:0:0:0:
256,240,28613,1,2,0:0:0:0:
256,280,28821,2,2,L|256:344,6,35
256,192,30071,5,0,0:0:0:0:
256,192,30384,5,0,0:0:0:0:
256,192,30592,6,0,L|256:112,2,70
256,192,31321,2,0,L|256:240,14,35
256,232,33196,5,0,0:0:0:0:
256,232,33405,1,0,0:0:0:0:
256,288,33717,6,0,L|256:192,2,70
256,192,34446,2,0,L|360:192,3,105
256,192,36113,5,0,0:0:0:0:
256,224,36530,6,0,L|256:272,4,35
256,40,37363,5,0,0:0:0:0:
256,80,37884,1,0,0:0:0:0:
256,120,38300,2,0,L|256:192,6,70
256,120,39655,1,0,0:0:0:0:
256,216,40800,5,0,0:0:0:0:
256,184,41217,2,0,L|256:112,3,70
256,64,42467,5,0,0:0:0:0:
256,120,42988,1,0,0:0:0:0:
256,120,43196,1,0,0:0:0:0:
256,192,43509,2,0,L|256:256,5,35
256,304,44238,5,0,0:0:0:0:
256,304,44759,1,0,0:0:0:0:
256,256,45175,5,0,0:0:0:0:
256,256,45592,1,0,0:0:0:0:
256,192,46009,1,0,0:0:0:0:
256,192,46425,1,0,0:0:0:0:
256,152,46842,5,0,0:0:0:0:
256,152,47259,1,0,0:0:0:0:
256,104,47363,5,0,0:0:0:0:
256,48,47675,5,0,0:0:0:0:
256,48,48092,1,0,0:0:0:0:
256,104,48509,5,0,0:0:0:0:
256,104,49030,1,0,0:0:0:0:
256,144,49446,5,0,0:0:0:0:
256,144,49863,1,0,0:0:0:0:
256,200,50175,5,0,0:0:0:0:
256,200,50592,1,0,0:0:0:0:
256,360,50696,6,0,L|256:320,5,35
256,272,51530,6,0,L|256:112,2,140
184,200,52780,6,0,L|336:200,4,140
256,360,54863,5,0,0:0:0:0:
256,360,55280,1,0,0:0:0:0:
256,304,55696,1,0,0:0:0:0:
256,304,56113,1,0,0:0:0:0:
256,240,56530,1,0,0:0:0:0:
256,240,57050,1,0,0:0:0:0:
256,192,57467,1,0,0:0:0:0:
256,192,57780,1,0,0:0:0:0:
256,192,64238,5,0,0:0:0:0:
256,192,64446,1,0,0:0:0:0:
256,192,64655,1,0,0:0:0:0:
256,192,65071,5,0,0:0:0:0:
256,192,65280,1,0,0:0:0:0:
256,192,65488,1,0,0:0:0:0:
256,232,65800,2,0,L|256:296,10,35
256,184,67780,5,0,0:0:0:0:
256,184,67988,1,0,0:0:0:0:
256,184,68509,1,0,0:0:0:0:
256,184,69238,1,0,0:0:0:0:
256,184,69446,1,0,0:0:0:0:
256,192,70175,12,0,71009,0:0:0:0:
256,264,71425,5,0,0:0:0:0:
256,264,71842,1,0,0:0:0:0:
256,264,72050,1,0,0:0:0:0:
256,264,72259,1,0,0:0:0:0:
224,184,72675,6,0,L|304:184,5,70
256,192,74134,5,0,0:0:0:0:
256,192,74342,1,0,0:0:0:0:
256,192,74550,1,0,0:0:0:0:
192,208,74863,2,0,L|248:280,2,70
264,264,75696,2,0,L|304:200,4,70
256,192,76946,5,0,0:0:0:0:
256,192,77467,1,0,0:0:0:0:
256,192,77675,1,0,0:0:0:0:
256,192,77884,1,0,0:0:0:0:
256,360,78300,5,0,0:0:0:0:
256,360,78717,1,0,0:0:0:0:
256,296,79134,1,0,0:0:0:0:
256,296,79550,1,0,0:0:0:0:
256,248,79967,1,0,0:0:0:0:
256,176,80384,1,0,0:0:0:0:
256,176,80696,1,0,0:0:0:0:
256,72,81321,1,0,0:0:0:0:
264,120,81738,1,0,0:0:0:0:
256,176,82155,1,0,0:0:0:0:
232,232,82571,1,0,0:0:0:0:
256,280,82988,1,0,0:0:0:0:
296,288,83405,1,0,0:0:0:0:
272,328,83821,1,0,0:0:0:0:
272,328,84238,1,0,0:0:0:0:
176,288,84655,1,0,0:0:0:0:
64,160,85071,6,0,B|104:248|232:248|312:200|376:120|448:112|496:216,1,490
496,336,86738,2,0,B|464:248|400:216|296:224|248:272|208:344|136:352|80:312|48:216,1,525
48,80,88509,2,0,B|104:160|288:128|352:56|440:32|496:72|512:144,1,490
496,264,90175,2,0,B|488:216|440:152|344:152|280:184|184:256|104:280|-8:184,1,560
80,24,91946,6,0,B|40:48|88:112|208:136|344:136|424:192|464:272|456:336|400:384|24:296,1,840
480,40,95071,6,0,B|440:16|312:64|272:144|280:232|208:304|104:288,1,455
256,192,97780,12,0,98821,0:0:0:0:
256,192,101738,5,0,0:0:0:0:
256,192,102155,1,0,0:0:0:0:
256,192,102571,1,0,0:0:0:0:
256,144,102988,5,0,0:0:0:0:
256,80,103821,1,0,0:0:0:0:
256,80,104134,1,0,0:0:0:0:
256,80,104238,1,0,0:0:0:0:
256,304,104759,6,0,L|256:200,2,105
256,192,106009,5,0,0:0:0:0:
256,192,106425,1,0,0:0:0:0:
256,192,106842,1,0,0:0:0:0:
256,192,107259,1,0,0:0:0:0:
256,192,107675,1,0,0:0:0:0:
256,192,108092,1,0,0:0:0:0:
256,192,108509,1,0,0:0:0:0:
256,192,108925,1,0,0:0:0:0:
256,336,109342,6,0,B|288:256|232:200|112:192|96:112|200:48,1,350
304,192,110800,5,0,0:0:0:0:
304,192,111113,1,0,0:0:0:0:
304,192,111530,1,0,0:0:0:0:
256,192,111946,1,0,0:0:0:0:
256,192,112050,1,0,0:0:0:0:
112,240,112675,6,0,B|176:344|264:352|384:240|440:208|496:312,1,420
256,256,114030,5,0,0:0:0:0:
256,200,114446,1,0,0:0:0:0:
256,168,114863,1,0,0:0:0:0:
256,120,115280,1,0,0:0:0:0:
256,64,115696,1,0,0:0:0:0:
256,64,116113,1,0,0:0:0:0:
256,64,116425,1,0,0:0:0:0:
256,64,116634,1,0,0:0:0:0:
352,192,117050,5,0,0:0:0:0:
352,192,117259,1,0,0:0:0:0:
352,192,117467,1,0,0:0:0:0:
312,192,117988,1,0,0:0:0:0:
312,192,118300,1,0,0:0:0:0:
312,192,118717,1,0,0:0:0:0:
264,192,119134,1,0,0:0:0:0:
264,192,119655,1,0,0:0:0:0:
264,192,120071,1,0,0:0:0:0:
256,368,120384,5,0,0:0:0:0:
256,280,120905,5,0,0:0:0:0:
256,280,121321,1,0,0:0:0:0:
256,280,121738,1,0,0:0:0:0:
256,280,122155,1,0,0:0:0:0:
256,32,122571,5,0,0:0:0:0:
256,64,122988,5,0,0:0:0:0:
256,96,123405,5,0,0:0:0:0:
256,184,123821,5,0,0:0:0:0:
256,184,124134,1,0,0:0:0:0:
256,184,124238,1,0,0:0:0:0:
256,352,124550,5,0,0:0:0:0:
256,296,125071,1,0,0:0:0:0:
256,192,125905,5,0,0:0:0:0:
256,152,126425,5,0,0:0:0:0:
256,120,126842,5,0,0:0:0:0:
216,192,127155,2,0,L|296:192,3,70
256,304,128300,5,0,0:0:0:0:
256,256,128821,1,0,0:0:0:0:
256,192,129238,1,0,0:0:0:0:
112,192,135800,5,0,0:0:0:0:
112,192,136009,1,0,0:0:0:0:
112,192,136217,1,0,0:0:0:0:
376,192,136634,5,0,0:0:0:0:
376,192,136842,1,0,0:0:0:0:
376,192,137050,1,0,0:0:0:0:
256,192,137467,5,0,0:0:0:0:
256,192,137675,1,0,0:0:0:0:
256,192,137884,1,0,0:0:0:0:
256,128,138300,5,0,0:0:0:0:
256,128,138509,1,0,0:0:0:0:
256,128,138717,1,0,0:0:0:0:
256,264,139134,5,0,0:0:0:0:
256,264,139342,1,0,0:0:0:0:
168,192,139967,1,0,0:0:0:0:
224,184,140800,6,0,L|304:184,1,70
360,192,141425,6,0,L|168:192,2,175
256,192,142884,5,0,0:0:0:0:
256,256,143405,1,0,0:0:0:0:
256,256,143613,1,0,0:0:0:0:
256,256,143821,1,0,0:0:0:0:
256,72,144238,5,0,0:0:0:0:
256,144,144655,5,0,0:0:0:0:
256,144,145071,5,0,0:0:0:0:
256,200,145488,5,0,0:0:0:0:
256,200,145696,5,0,0:0:0:0:
256,200,145905,5,0,0:0:0:0:
256,240,146321,6,0,L|256:328,2,70
256,200,147259,5,0,0:0:0:0:
256,200,147675,1,0,0:0:0:0:
256,144,148092,1,0,0:0:0:0:
256,144,148509,1,0,0:0:0:0:
256,200,148925,5,0,0:0:0:0:
256,200,149134,1,0,0:0:0:0:
256,200,149342,1,0,0:0:0:0:
256,40,149759,5,0,0:0:0:0:
256,88,150175,5,0,0:0:0:0:
256,128,150592,5,0,0:0:0:0:
256,280,151009,2,0,L|256:216,5,35
256,368,151946,2,0,L|256:216,2,140
256,192,153196,5,0,0:0:0:0:
224,192,153613,5,0,0:0:0:0:
288,192,154030,5,0,0:0:0:0:
256,192,154446,5,0,0:0:0:0:
256,160,154863,5,0,0:0:0:0:
256,232,155280,5,0,0:0:0:0:
256,192,155696,1,0,0:0:0:0:
256,352,156009,6,0,L|256:288,3,35
88,64,156634,2,0,B|96:184|192:216|392:160|480:128|496:264|480:328,1,560
368,336,158717,2,0,B|432:120|248:32|136:104|80:184,1,490
144,352,160384,2,0,B|88:328|96:232|200:152|336:200|480:96|472:16|352:0|240:40|128:104|96:112,1,700
72,24,162884,6,0,B|48:80|152:176|336:152|408:152|432:304|296:320|192:280|72:296,1,665
400,96,165592,2,0,B|360:48|248:80|264:256|216:320|96:400|376:304,1,525
256,48,167675,5,0,0:0:0:0:
256,48,167884,1,0,0:0:0:0:
256,48,168092,1,0,0:0:0:0:
256,184,168509,5,0,0:0:0:0:
256,184,168925,1,0,0:0:0:0:
256,88,169446,6,0,L|256:232,1,140
232,192,171946,5,0,0:0:0:0:
280,192,172363,1,0,0:0:0:0:
256,224,175280,5,0,0:0:0:0:
256,168,175696,1,0,0:0:0:0:
192,192,177050,2,0,L|336:192,1,140
256,304,177884,5,0,0:0:0:0:
256,248,178300,5,0,0:0:0:0:
256,192,178717,5,0,0:0:0:0:
256,192,179134,1,0,0:0:0:0:
256,192,179550,1,0,0:0:0:0:
264,360,179967,6,0,P|264:320|256:208,2,140
256,128,181634,5,0,0:0:0:0:
256,128,182155,1,0,0:0:0:0:
256,128,182571,1,0,0:0:0:0:
256,128,182988,1,0,0:0:0:0:
256,128,183405,1,0,0:0:0:0:
256,216,183821,6,0,B|248:336|248:368|256:376|256:384,3,140
224,192,185592,2,0,B|328:184|392:128|376:56,1,210
256,192,187259,5,0,0:0:0:0:
256,192,187675,1,0,0:0:0:0:
256,192,187884,1,0,0:0:0:0:
256,192,188092,1,0,0:0:0:0:
256,296,188509,5,0,0:0:0:0:
256,248,188925,5,0,0:0:0:0:
256,248,189342,1,0,0:0:0:0:
256,248,189759,1,0,0:0:0:0:
256,248,190175,1,0,0:0:0:0:
256,192,190592,12,0,191321,0:0:0:0:
256,192,192363,5,0,0:0:0:0:
256,192,192571,1,0,0:0:0:0:
256,192,192780,1,0,0:0:0:0:
256,192,192988,1,0,0:0:0:0:
256,192,193196,1,0,0:0:0:0:
256,192,193405,1,0,0:0:0:0:
256,192,193613,1,0,0:0:0:0:
256,192,194030,12,0,194863,0:0:0:0:
256,192,195280,5,0,0:0:0:0:
256,192,195696,12,0,197050,0:0:0:0:
256,176,197467,5,0,0:0:0:0:
256,208,197884,5,0,0:0:0:0:
256,208,198092,1,0,0:0:0:0:
256,208,198300,1,0,0:0:0:0:
256,176,198613,5,0,0:0:0:0:
256,176,199134,1,0,0:0:0:0:
256,176,199550,1,0,0:0:0:0:
256,288,199967,5,0,0:0:0:0:
256,288,200175,1,0,0:0:0:0:
256,288,200384,1,0,0:0:0:0:
256,128,200800,5,0,0:0:0:0:
256,168,201217,1,0,0:0:0:0:
256,168,201425,1,0,0:0:0:0:
256,168,201634,1,0,0:0:0:0:
256,208,202050,2,0,L|256:288,2,70
256,168,202988,5,0,0:0:0:0:
256,40,203405,5,0,0:0:0:0:
256,40,203613,1,0,0:0:0:0:
256,40,203821,1,0,0:0:0:0:
256,112,204238,2,0,L|256:184,3,70
256,200,205592,5,0,0:0:0:0:
256,240,206009,1,0,0:0:0:0:
256,272,206425,1,0,0:0:0:0:
256,272,206842,1,0,0:0:0:0:
256,168,207675,5,0,0:0:0:0:
256,128,208092,5,0,0:0:0:0:
256,96,208509,5,0,0:0:0:0:
256,208,208821,6,0,L|256:288,1,70
256,40,209342,5,0,0:0:0:0:
256,40,209759,1,0,0:0:0:0:
256,40,209967,1,0,0:0:0:0:
256,192,210592,5,0,0:0:0:0:
48,280,211009,6,0,B|96:384|96:384|64:168,1,315
176,152,212259,6,0,B|264:184|368:120|416:88|480:152,1,315
256,224,213613,5,0,0:0:0:0:
256,224,214030,1,0,0:0:0:0:
416,224,214342,6,0,B|416:160|320:72|208:104|128:128|80:104,1,385
48,176,215696,6,0,B|80:232|208:248|344:224|440:264|464:304|472:320,1,455
256,192,217571,5,0,0:0:0:0:
80,320,217884,6,0,B|112:248|224:256|352:216|368:128,1,350
256,96,219238,2,0,B|344:160|432:144|472:240|424:312|352:360,1,385
256,200,220800,2,0,L|256:32,2,140
256,192,222155,12,0,222988,0:0:0:0:
256,192,223405,5,0,0:0:0:0:
256,192,223821,12,0,225280,0:0:0:0:
