osu file format v7

[General]
AudioFilename: Taeyang - Look at me.mp3
AudioLeadIn: 0
PreviewTime: 69226
Countdown: 1
SampleSet: Soft
StackLeniency: 0.7
Mode: 0
LetterboxInBreaks: 1

[Editor]
DistanceSpacing: 0.800000011920929
BeatDivisor: 4
GridSize: 8

[Metadata]
Title:Look Only At Me
Artist:Taeyang
Creator:_llkey_18
Version:Easy
Source:
Tags:K-Pop Hot Big Bang Lizbeth

[Difficulty]
HPDrainRate:2
CircleSize:3
OverallDifficulty:2
SliderMultiplier:1
SliderTickRate:1

[Events]
//Background and Video events
0,0,"029841.jpg"
//Break Periods
//Storyboard Layer 0 (Background)
//Storyboard Layer 1 (Fail)
//Storyboard Layer 2 (Pass)
//Storyboard Layer 3 (Foreground)
//Storyboard Sound Samples
//Background Colour Transformations
3,100,163,162,255

[TimingPoints]
425,428.571428571429,4,2,0,57,1,0
27853,-100,4,1,0,62,0,0
41782,-100,4,2,0,57,0,0
48425,-100,4,1,0,58,0,0
54727,-100,4,2,0,57,0,0
68782,-100,4,1,0,57,0,0
68996,-100,4,1,0,57,0,1
71767,-100,4,2,0,57,0,1
75195,-100,4,1,0,57,0,1
78624,-100,4,2,0,57,0,1
82052,-100,4,1,0,57,0,0
92767,-100,4,2,0,57,0,0

[Colours]
Combo1 : 184,202,53
Combo2 : 168,215,215
Combo3 : 122,238,17
Combo4 : 240,5,5
Combo5 : 255,128,255

[HitObjects]
96,168,14567,2,0,B|128:232|192:256|272:288,2,200
96,88,16710,2,0,B|184:40|240:40|304:40,1,200,8|0
288,120,17996,1,0
216,152,18425,1,8
280,200,18853,1,2
280,200,19710,2,0,B|168:200,1,100
96,200,20567,1,2
96,40,21425,6,0,B|144:40|224:48|280:80|376:160,1,300,0|0
312,216,23139,1,2
232,216,23567,1,8
392,216,24425,2,0,B|448:176|472:144|400:120|328:136|312:144,2,200,0|8|0
336,272,26567,2,0,B|448:272,2,100,0|8|0
432,200,28067,5,0
432,200,28282,2,0,B|432:136|384:96|344:64|256:32,1,250
192,80,29782,1,0
192,80,29996,2,0,B|192:120|208:192|248:240|272:264|312:304,1,250
360,192,31710,5,0
304,136,32139,1,8
360,80,32567,1,0
256,192,33210,12,0,34496
344,176,34925,5,0
344,176,35139,1,0
264,176,35567,2,8,B|184:176,2,75,8|0|8
264,96,36639,5,0
264,96,36853,1,0
184,96,37282,2,0,B|104:96,2,75,8|0|8
264,96,38353,2,0,B|320:96,5,50
376,200,40067,6,0,B|272:200,1,100,0|0
240,200,40710,1,8
240,120,41139,2,0,B|128:120,1,100
136,40,41996,5,2
296,40,42853,1,2
296,200,43710,1,2
216,200,44139,2,2,B|128:200,2,75,8|2|2
216,96,45424,5,2
296,96,45853,1,8
216,96,46282,2,0,B|152:96,1,50,0|2
88,96,46924,2,0,B|16:144|16:184|32:224|48:248|88:256|152:336|152:336,1,300,8|2
216,288,48639,5,0
216,288,48853,1,0
216,208,49282,2,8,B|312:208,2,75,8|0|0
216,128,50353,5,0
216,128,50567,1,0
216,48,50996,2,8,B|304:48,2,75,8|0|8
136,48,52067,5,8
136,48,52282,1,0
136,128,52710,2,0,B|24:128,1,100,8|0
120,216,53782,6,0,B|176:216,3,50
176,296,54853,2,0,B|240:280|328:232|448:128,1,300
384,80,56567,5,2
224,80,57424,1,2
224,240,58282,1,2
152,272,58710,6,0,B|152:160,1,100,8|2
72,168,59567,2,0,B|32:168|0:168|-8:136|8:112|16:112,1,100,8|2
256,192,60639,12,0,61924
200,160,62567,5,2
360,160,63424,1,2
200,160,64282,1,2
40,160,65139,1,2
96,104,65567,6,8,B|216:104,1,100,8|2
256,48,66424,2,0,B|144:48,1,100,8|2
256,192,67282,12,0,68567
104,176,68996,6,0,B|208:176,1,100
200,96,69853,1,8
280,96,70282,2,8,B|352:96,1,50,0|0
400,192,71139,6,0,B|424:152|424:128|400:88,1,100,0|8
336,56,71996,2,0,B|312:32|264:32|192:56|112:88|48:136,1,300,2|8
64,288,74139,1,2
184,288,74782,1,0
184,288,74996,1,8
304,176,75853,6,0,B|192:176,1,100
200,96,76710,1,8
280,96,77139,1,0
280,96,77353,1,0
368,176,77996,6,0,B|368:64,1,100,0|8
288,64,78853,2,0,B|264:80|240:112|240:168|264:360,1,300,2|8
392,256,80996,1,2
392,136,81639,1,0
392,136,81853,1,8
232,168,82710,6,0,B|120:168,2,100,0|4|0
312,168,83996,1,0
312,168,84210,1,0
312,88,84639,1,0
312,88,84853,1,0
232,88,85282,2,0,B|128:88,1,100
136,88,86139,1,0
72,40,86567,2,0,B|16:56|64:104|144:152|152:120|56:112|8:144|-8:200|24:272,1,300,0|4
184,264,88710,6,0,B|256:264,4,50
184,184,89996,2,0,B|304:184,1,100,0|8
368,184,90853,1,0
368,184,91067,1,0
368,104,91496,1,0
368,104,91710,1,0
288,104,92139,2,0,B|176:104,1,100
184,184,92996,5,8
184,184,93210,1,8
104,184,93639,1,2
104,104,94067,1,2
104,24,94496,1,8
256,192,94925,12,8,97283
