osu file format v12

[General]
AudioFilename: Taecyoun - Dream High.mp3
AudioLeadIn: 0
PreviewTime: 52635
Countdown: 0
SampleSet: Soft
StackLeniency: 0.5
Mode: 0
LetterboxInBreaks: 0
WidescreenStoryboard: 0

[Editor]
Bookmarks: 7281,22872,37990,53108,68226,83344,98462,113580,128698,143817
DistanceSpacing: 1.2
BeatDivisor: 4
GridSize: 8

[Metadata]
Title:Dream High
TitleUnicode:Dream High
Artist:Taecyeon, Suzy, Kim Soohyun, Wooyoung & JOO
ArtistUnicode:택연, 수지, 김수현, 우영 & JOO
Creator:Sonnyc
Version:Hard
Source:Dream High
Tags:드림하이 kbs2 kdrama 아이유 IU 함은정
BeatmapID:317594
BeatmapSetID:124614

[Difficulty]
HPDrainRate:6
CircleSize:4
OverallDifficulty:7
ApproachRate:7
SliderMultiplier:2
SliderTickRate:2

[Events]
//Background and Video events
0,0,"BG.jpg",0,0
//Break Periods
//Storyboard Layer 0 (Background)
//Storyboard Layer 1 (Fail)
//Storyboard Layer 2 (Pass)
//Storyboard Layer 3 (Foreground)
//Storyboard Sound Samples
//Background Colour Transformations
3,100,0,0,0

[TimingPoints]
195,472.44094488189,4,2,0,60,1,0
53108,-100,4,2,0,70,0,1
66336,-100,4,2,0,70,0,0
68226,-100,4,2,0,70,0,1
81454,-100,4,2,0,70,0,0
83344,-100,4,2,0,60,0,0
113580,-100,4,2,0,70,0,1
126809,-100,4,2,0,70,0,0
128698,-100,4,2,0,70,0,1
141927,-100,4,2,0,70,0,0
143817,-100,4,2,0,60,0,0

[Colours]
Combo1 : 255,255,0
Combo2 : 85,255,255
Combo3 : 191,128,255
Combo4 : 255,0,115

[HitObjects]
256,32,7281,1,0,0:0:0:0:
256,128,7517,1,0,0:0:0:0:
304,216,7754,2,0,B|352:216|392:176,2,100,2|0|8,0:0|0:0|0:0,0:0:0:0:
208,216,8462,2,0,B|160:216|120:176,2,100,0|2|0,0:0|0:0|0:0,0:0:0:0:
304,216,9171,1,8,0:0:0:0:
344,304,9407,2,0,B|296:360|216:360|168:304,1,200,2|0,0:0|0:0,0:0:0:0:
136,208,10116,1,8,0:0:0:0:
72,288,10352,1,0,0:0:0:0:
32,192,10588,5,2,0:0:0:0:
120,72,10824,1,0,0:0:0:0:
232,168,11061,1,8,0:0:0:0:
288,248,11297,6,0,B|360:208|328:136|400:88,1,200,2|0,0:0|0:0,0:0:0:0:
448,176,12006,1,8,0:0:0:0:
416,272,12242,2,0,B|384:336|320:368|248:352,1,200,2|0,0:0|0:0,0:0:0:0:
176,288,12950,1,8,0:0:0:0:
232,208,13187,2,0,B|264:152|240:56|160:48,1,200,2|0,0:0|0:0,0:0:0:0:
72,80,13895,2,0,B|88:128|144:144,1,100,8|0,0:0|0:0,0:0:0:0:
328,136,14368,5,2,0:0:0:0:
416,88,14604,1,0,0:0:0:0:
328,40,14840,1,8,0:0:0:0:
176,64,15076,6,0,B|112:80|72:160|104:232,1,200,2|0,0:0|0:0,0:0:0:0:
160,304,15785,1,8,0:0:0:0:
256,320,16021,2,0,B|256:264|216:224,1,100,2|0,0:0|0:0,0:0:0:0:
312,192,16494,2,0,B|312:248|352:288,1,100,2|8,0:0|0:0,0:0:0:0:
440,320,16966,2,0,B|480:272|480:184|448:128,1,200,2|0,0:0|0:0,0:0:0:0:
352,96,17675,1,8,0:0:0:0:
56,128,18147,5,2,0:0:0:0:
152,160,18383,1,0,0:0:0:0:
136,64,18620,1,8,0:0:0:0:
56,128,18856,2,0,B|24:192|48:272|112:304,1,200,2|0,0:0|0:0,0:0:0:0:
208,312,19565,2,0,B|208:208,1,100,8|0,0:0|0:0,0:0:0:0:
304,184,20037,2,0,B|304:284,2,100,2|0|8,0:0|0:0|0:0,0:0:0:0:
392,136,20746,6,0,B|456:176|472:248|440:312,1,200,2|0,0:0|0:0,0:0:0:0:
352,360,21454,2,0,B|280:384|224:328|152:352,1,200,8|2,0:0|0:0,0:0:0:0:
72,296,22163,5,0,0:0:0:0:
96,272,22281,1,0,0:0:0:0:
120,248,22399,1,8,0:0:0:0:
192,184,22635,1,0,0:0:0:0:
216,208,22753,1,0,0:0:0:0:
240,232,22871,5,2,0:0:0:0:
312,304,23108,1,0,0:0:0:0:
408,264,23344,1,8,0:0:0:0:
408,168,23580,2,0,B|408:96|352:40|280:40,1,200,2|0,0:0|0:0,0:0:0:0:
184,56,24289,1,8,0:0:0:0:
248,128,24525,1,0,0:0:0:0:
152,144,24761,6,0,B|96:160|80:224,1,100,2|0,0:0|0:0,0:0:0:0:
112,312,25234,2,0,B|168:296|184:232,1,100,8|0,0:0|0:0,0:0:0:0:
280,224,25706,5,2,0:0:0:0:
360,288,25943,1,0,0:0:0:0:
440,224,26179,1,8,0:0:0:0:
400,136,26415,2,0,B|368:96|312:96|312:96|208:96,1,200,2|0,0:0|0:0,0:0:0:0:
112,96,27124,1,8,0:0:0:0:
112,192,27360,2,0,B|112:248|80:288,1,100,0|0,0:0|0:0,0:0:0:0:
0,344,27832,1,2,0:0:0:0:
288,248,28541,6,0,B|344:232|392:264,1,100,0|2,0:0|0:0,0:0:0:0:
392,152,29013,2,0,B|336:168|288:136,1,100,8|0,0:0|0:0,0:0:0:0:
352,56,29486,5,2,0:0:0:0:
448,72,29722,1,0,0:0:0:0:
496,160,29958,1,8,0:0:0:0:
440,248,30195,2,0,B|373:301|313:225|247:279,1,200,2|0,0:0|0:0,0:0:0:0:
192,360,30903,1,8,0:0:0:0:
288,368,31139,1,0,0:0:0:0:
249,277,31376,6,0,B|224:224|160:208,1,100,2|0,0:0|0:0,0:0:0:0:
80,208,31848,1,8,0:0:0:0:
40,120,32084,2,0,B|112:40|216:40,1,200,0|2,0:0|0:0,0:0:0:0:
320,56,32793,1,8,0:0:0:0:
360,144,33029,2,0,B|400:176|456:176,2,100,2|0|0,0:0|0:0|0:0,0:0:0:0:
256,136,33738,2,0,B|256:240,1,100,8|0,0:0|0:0,0:0:0:0:
170,288,34210,6,0,B|203:334|260:348|315:330|345:281,1,200,2|8,0:0|0:0,0:0:0:0:
340,188,34919,2,0,B|306:141|249:127|194:145|164:194,1,200,2|0,0:0|0:0,0:0:0:0:
256,240,35628,1,8,0:0:0:0:
256,144,35864,2,0,B|280:96|344:64|424:104|432:168,1,200,2|0,0:0|0:0,0:0:0:0:
448,232,36572,6,0,B|440:288|400:320,1,100,8|0,0:0|0:0,0:0:0:0:
304,344,37045,1,0,0:0:0:0:
208,344,37281,1,2,0:0:0:0:
109,318,37517,2,0,B|72:288|64:232,1,100,8|0,0:0|0:0,0:0:0:0:
112,88,37990,5,2,0:0:0:0:
184,160,38226,1,0,0:0:0:0:
208,64,38462,1,8,0:0:0:0:
304,64,38698,2,0,B|376:64|432:120|432:192,1,200,2|0,0:0|0:0,0:0:0:0:
432,288,39407,1,8,0:0:0:0:
432,288,39643,1,0,0:0:0:0:
336,256,39880,2,0,B|288:224|288:168,1,100,0|2,0:0|0:0,0:0:0:0:
192,160,40352,2,0,B|144:192|144:248,1,100,8|0,0:0|0:0,0:0:0:0:
184,336,40824,5,2,0:0:0:0:
336,256,41061,1,0,0:0:0:0:
192,160,41297,1,8,0:0:0:0:
96,176,41533,6,0,B|104:232|160:272|224:272|264:224,1,200,2|0,0:0|0:0,0:0:0:0:
296,144,42242,1,8,0:0:0:0:
280,48,42478,2,0,B|224:64|208:112,1,100,0|0,0:0|0:0,0:0:0:0:
387,176,42950,2,0,B|401:119|367:81,1,100,2|8,0:0|0:0,0:0:0:0:
168,224,43659,5,0,0:0:0:0:
256,272,43895,1,2,0:0:0:0:
360,280,44132,2,0,B|352:336|296:368,1,100,8|0,0:0|0:0,0:0:0:0:
160,360,44604,5,2,0:0:0:0:
72,312,44840,1,0,0:0:0:0:
48,216,45076,1,8,0:0:0:0:
27,116,45313,2,0,B|96:104|160:168|144:240,1,200,2|0,0:0|0:0,0:0:0:0:
400,144,46257,5,0,0:0:0:0:
367,239,46494,1,2,0:0:0:0:
464,224,46730,1,0,0:0:0:0:
496,128,46966,1,8,0:0:0:0:
432,48,47202,2,0,B|377:33|331:50|296:96|298:152,1,200,0|2,0:0|0:0,0:0:0:0:
80,48,48147,2,0,B|135:33|181:50|216:96|214:152,1,200,2|0,0:0|0:0,0:0:0:0:
208,248,48856,2,0,B|256:272|304:248,1,100,8|0,0:0|0:0,0:0:0:0:
352,336,49328,6,0,B|256:384|160:336,1,200,2|8,0:0|0:0,0:0:0:0:
96,256,50037,2,0,B|128:216|120:160,1,100,2|0,0:0|0:0,0:0:0:0:
208,112,50509,2,0,B|256:136|304:112,1,100,2|8,0:0|0:0,0:0:0:0:
391,161,50982,2,0,B|384:216|416:256,1,100,2|0,0:0|0:0,0:0:0:0:
488,192,51454,5,0,0:0:0:0:
488,160,51572,1,0,0:0:0:0:
488,128,51691,1,8,0:0:0:0:
392,24,51927,1,0,0:0:0:0:
360,32,52045,1,0,0:0:0:0:
328,40,52163,1,0,0:0:0:0:
184,40,52399,1,0,0:0:0:0:
152,32,52517,1,0,0:0:0:0:
120,24,52635,1,8,0:0:0:0:
24,128,52872,1,0,0:0:0:0:
24,160,52991,1,0,0:0:0:0:
24,192,53108,6,0,B|24:248|56:288,1,100,2|0,0:0|0:0,0:0:0:0:
160,336,53580,1,8,0:0:0:0:
216,232,53817,2,0,B|216:176|184:136,1,100,2|0,0:0|0:0,0:0:0:0:
196,19,54289,1,0,0:0:0:0:
316,19,54525,1,8,0:0:0:0:
326,138,54761,2,0,B|296:176|296:232,1,100,2|0,0:0|0:0,0:0:0:0:
352,336,55234,1,0,0:0:0:0:
457,285,55470,2,0,B|488:248|488:192,1,100,8|0,0:0|0:0,0:0:0:0:
408,48,55943,5,2,0:0:0:0:
256,160,56179,1,0,0:0:0:0:
104,48,56415,1,8,0:0:0:0:
224,40,56651,6,0,B|208:120|144:120|120:208,1,200,2|0,0:0|0:0,0:0:0:0:
104,328,57360,1,8,0:0:0:0:
208,264,57596,2,0,B|208:216|256:181|256:181|304:216|304:264,1,200,2|0,0:0|0:0,0:0:0:0:
408,328,58305,1,8,0:0:0:0:
391,207,58541,2,0,B|368:120|304:120|288:40,1,200,2|0,0:0|0:0,0:0:0:0:
408,48,59250,5,2,0:0:0:0:
256,192,59486,1,0,0:0:0:0:
120,208,59722,5,2,0:0:0:0:
256,80,59958,1,0,0:0:0:0:
392,208,60195,1,8,0:0:0:0:
344,320,60431,6,0,B|296:264|216:264|168:320,1,200,2|0,0:0|0:0,0:0:0:0:
48,304,61139,1,8,0:0:0:0:
120,208,61376,2,0,B|160:176|216:168,1,100,2|0,0:0|0:0,0:0:0:0:
392,208,61848,2,0,B|352:176|296:168,1,100,2|8,0:0|0:0,0:0:0:0:
168,320,62320,2,0,B|216:376|296:376|344:320,1,200,2|0,0:0|0:0,0:0:0:0:
464,304,63029,1,8,0:0:0:0:
320,112,63502,5,2,0:0:0:0:
256,216,63738,1,0,0:0:0:0:
192,112,63974,1,8,0:0:0:0:
344,280,64210,2,0,B|296:336|216:336|168:280,1,200,2|0,0:0|0:0,0:0:0:0:
168,152,64919,2,0,B|216:96|296:96|344:152,1,200,8|2,0:0|0:0,0:0:0:0:
448,216,65628,1,0,0:0:0:0:
448,216,65864,5,8,0:0:0:0:
392,320,66100,2,0,B|360:368|304:368,1,100,0|2,0:0|0:0,0:0:0:0:
208,352,66572,5,0,0:0:0:0:
176,344,66691,1,0,0:0:0:0:
144,336,66809,1,8,0:0:0:0:
8,296,67045,1,0,0:0:0:0:
32,280,67163,1,0,0:0:0:0:
56,264,67281,1,0,0:0:0:0:
56,120,67517,1,0,0:0:0:0:
32,104,67635,1,0,0:0:0:0:
8,88,67753,1,8,0:0:0:0:
144,48,67990,1,0,0:0:0:0:
176,40,68108,1,0,0:0:0:0:
208,32,68226,6,0,B|256:16|312:16,1,100,2|0,0:0|0:0,0:0:0:0:
408,80,68698,1,8,0:0:0:0:
304,144,68935,2,0,B|253:144|205:128,1,100,2|0,0:0|0:0,0:0:0:0:
85,132,69407,1,0,0:0:0:0:
85,252,69643,1,8,0:0:0:0:
205,255,69880,2,0,B|253:239|304:240,1,100,2|0,0:0|0:0,0:0:0:0:
406,301,70352,1,0,0:0:0:0:
306,367,70588,2,0,B|256:368|208:352,1,100,8|0,0:0|0:0,0:0:0:0:
85,252,71061,5,2,0:0:0:0:
256,176,71297,1,0,0:0:0:0:
427,252,71533,1,8,0:0:0:0:
480,144,71769,6,0,B|480:72|417:18|345:30,1,200,2|0,0:0|0:0,0:0:0:0:
256,112,72478,1,8,0:0:0:0:
32,144,72714,2,0,B|32:72|94:18|166:30,1,200,2|0,0:0|0:0,0:0:0:0:
256,112,73423,1,8,0:0:0:0:
344,192,73659,2,0,B|296:248|215:248|167:191,1,200,2|0,0:0|0:0,0:0:0:0:
256,112,74368,5,2,0:0:0:0:
256,320,74604,1,0,0:0:0:0:
85,244,74840,5,2,0:0:0:0:
256,320,75076,1,0,0:0:0:0:
427,244,75312,1,8,0:0:0:0:
328,176,75549,6,0,B|288:104|224:104|184:40,1,200,2|0,0:0|0:0,0:0:0:0:
184,40,76257,1,8,0:0:0:0:
327,40,76494,2,0,B|288:104|224:104|184:176,1,200,2|0,0:0|0:0,0:0:0:0:
183,176,77202,1,8,0:0:0:0:
120,280,77439,2,0,B|168:304|224:288,1,100,2|0,0:0|0:0,0:0:0:0:
392,280,77911,2,0,B|344:256|288:272,1,100,2|8,0:0|0:0,0:0:0:0:
72,192,78620,5,2,0:0:0:0:
144,96,78856,1,0,0:0:0:0:
256,64,79092,1,8,0:0:0:0:
368,96,79328,2,0,B|416:112|432:160|424:216|384:243|330:240,1,200,2|0,0:0|0:0,0:0:0:0:
206,222,80037,2,0,B|195:172|229:134|281:113|325:134|349:182,1,200,8|2,0:0|0:0,0:0:0:0:
304,300,80746,2,0,B|259:262|280:211,1,100,0|8,0:0|0:0,0:0:0:0:
368,96,81218,1,0,0:0:0:0:
472,200,81454,1,2,0:0:0:0:
256,192,81572,12,8,82872,0:0:0:0:
80,152,83344,5,4,0:0:0:0:
8,224,83580,1,0,0:0:0:0:
80,288,83817,1,8,0:0:0:0:
160,224,84053,2,0,B|216:192|296:192|352:224,1,200,2|0,0:0|0:0,0:0:0:0:
432,288,84761,1,8,0:0:0:0:
504,224,84998,1,0,0:0:0:0:
432,152,85234,6,0,B|400:112|400:56,1,100,0|2,0:0|0:0,0:0:0:0:
256,104,85706,2,0,B|288:144|288:200,1,100,8|0,0:0|0:0,0:0:0:0:
224,272,86179,5,0,0:0:0:0:
128,248,86415,1,2,0:0:0:0:
192,176,86651,1,8,0:0:0:0:
287,196,86887,2,0,B|344:248|328:336|256:368,1,200,0|2,0:0|0:0,0:0:0:0:
168,352,87596,1,8,0:0:0:0:
224,272,87832,1,0,0:0:0:0:
320,296,88069,2,0,B|376:312|424:280,1,100,0|2,0:0|0:0,0:0:0:0:
472,200,88541,1,8,0:0:0:0:
256,32,89013,5,0,0:0:0:0:
184,104,89250,1,2,0:0:0:0:
256,176,89486,1,8,0:0:0:0:
328,104,89722,1,0,0:0:0:0:
256,176,89958,6,0,B|256:280,1,100,0|2,0:0|0:0,0:0:0:0:
256,376,90431,1,8,0:0:0:0:
344,320,90667,2,0,B|296:264|216:264|168:320,1,200,2|0,0:0|0:0,0:0:0:0:
72,344,91376,2,0,B|56:280|112:232,1,100,8|2,0:0|0:0,0:0:0:0:
168,184,91848,5,0,0:0:0:0:
256,136,92084,1,2,0:0:0:0:
168,88,92320,1,8,0:0:0:0:
168,184,92557,2,0,B|200:224|256:240|312:224|344:184,1,200,0|2,0:0|0:0,0:0:0:0:
344,88,93265,1,8,0:0:0:0:
256,136,93502,2,0,B|256:336,1,200,0|2,0:0|0:0,0:0:0:0:
344,376,94210,1,8,0:0:0:0:
256,336,94446,5,0,0:0:0:0:
344,280,94683,2,0,B|296:224|216:224|168:280,1,200,0|8,0:0|0:0,0:0:0:0:
168,376,95391,2,0,B|96:376|48:304|80:232,1,200,0|0,0:0|0:0,0:0:0:0:
128,144,96100,1,8,0:0:0:0:
200,72,96336,2,0,B|240:96|256:152|256:152|272:96|312:72,1,200,0|2,0:0|0:0,0:0:0:0:
411,51,97045,6,0,B|421:106|384:144,1,100,8|0,0:0|0:0,0:0:0:0:
304,208,97517,1,0,0:0:0:0:
312,312,97754,1,2,0:0:0:0:
411,332,97990,2,0,B|421:278|384:240,1,100,8|0,0:0|0:0,0:0:0:0:
312,312,98462,6,0,B|208:312,1,100,0|2,0:0|0:0,0:0:0:0:
112,312,98935,1,8,0:0:0:0:
56,232,99171,2,0,B|72:144|152:168|168:72,1,200,0|2,0:0|0:0,0:0:0:0:
256,24,99880,1,8,0:0:0:0:
256,120,100116,1,0,0:0:0:0:
344,73,100352,2,0,B|360:168|440:144|456:232,1,200,0|8,0:0|0:0,0:0:0:0:
360,248,101061,5,2,0:0:0:0:
304,328,101297,2,0,B|256:352|208:328,1,100,0|0,0:0|0:0,0:0:0:0:
152,248,101769,1,8,0:0:0:0:
216,168,102006,2,0,B|208:96|144:48|72:48,1,200,0|2,0:0|0:0,0:0:0:0:
296,168,102950,2,0,B|304:96|368:48|440:48,1,200,2|0,0:0|0:0,0:0:0:0:
434,48,103659,1,8,0:0:0:0:
360,232,104132,6,0,B|352:288|304:312,1,100,0|2,0:0|0:0,0:0:0:0:
206,311,104604,2,0,B|160:288|152:232,1,100,8|0,0:0|0:0,0:0:0:0:
176,136,105076,5,0,0:0:0:0:
256,192,105313,1,2,0:0:0:0:
336,136,105549,1,8,0:0:0:0:
256,72,105785,2,0,B|192:8|96:32|72:128,1,200,0|2,0:0|0:0,0:0:0:0:
96,192,106494,1,8,0:0:0:0:
176,136,106730,5,0,0:0:0:0:
256,192,106966,2,0,B|288:232|288:288,1,100,0|2,0:0|0:0,0:0:0:0:
224,360,107439,1,8,0:0:0:0:
184,272,107675,2,0,B|240:248|288:285|288:285|336:320|400:304,1,200,0|2,0:0|0:0,0:0:0:0:
448,256,108383,1,8,0:0:0:0:
400,168,108620,2,0,B|344:192|296:155|296:155|248:120|184:136,1,200,2|0,0:0|0:0,0:0:0:0:
120,160,109328,1,8,0:0:0:0:
144,64,109565,5,0,0:0:0:0:
210,131,109801,2,0,B|256:168|256:224|256:224|216:248|216:304,1,200,2|8,0:0|0:0,0:0:0:0:
313,303,110509,2,0,B|350:260|349:202|341:161|310:118,1,200,2|0,0:0|0:0,0:0:0:0:
210,131,111218,1,8,0:0:0:0:
200,232,111454,1,0,0:0:0:0:
256,192,111691,12,8,113108,0:0:0:0:
464,112,113344,5,0,0:0:0:0:
464,112,113462,1,0,0:0:0:0:
464,112,113580,2,0,B|504:152|496:216,1,100,2|0,0:0|0:0,0:0:0:0:
440,304,114053,1,8,0:0:0:0:
336,248,114289,2,0,B|296:208|304:144,1,100,2|0,0:0|0:0,0:0:0:0:
316,37,114761,1,0,0:0:0:0:
196,37,114998,1,8,0:0:0:0:
96,104,115234,2,0,B|32:128|8:216|48:280,1,200,2|0,0:0|0:0,0:0:0:0:
160,312,115943,2,0,B|179:260|145:200,1,100,8|0,0:0|0:0,0:0:0:0:
44,273,116415,5,2,0:0:0:0:
256,352,116651,1,0,0:0:0:0:
467,273,116887,1,8,0:0:0:0:
488,152,117124,6,0,B|488:88|392:32|328:88,1,200,2|0,0:0|0:0,0:0:0:0:
256,176,117832,1,8,0:0:0:0:
24,152,118069,2,0,B|24:88|120:32|184:88,1,200,2|0,0:0|0:0,0:0:0:0:
256,176,118777,1,8,0:0:0:0:
304,288,119013,2,0,B|256:312|208:288,1,100,2|0,0:0|0:0,0:0:0:0:
136,192,119486,1,0,0:0:0:0:
207,96,119722,5,2,0:0:0:0:
376,192,119958,1,0,0:0:0:0:
304,288,120195,5,2,0:0:0:0:
136,192,120431,1,0,0:0:0:0:
304,96,120667,1,8,0:0:0:0:
440,272,120903,6,0,B|440:344|368:392|280:352,1,200,2|0,0:0|0:0,0:0:0:0:
192,296,121612,1,8,0:0:0:0:
136,192,121848,2,0,B|128:144|152:96,1,100,2|0,0:0|0:0,0:0:0:0:
359,95,122320,2,0,B|384:144|376:192,1,100,2|8,0:0|0:0,0:0:0:0:
256,248,122793,2,0,B|256:48,1,200,2|0,0:0|0:0,0:0:0:0:
256,48,123502,1,8,0:0:0:0:
48,168,123974,5,2,0:0:0:0:
64,288,124210,1,0,0:0:0:0:
160,216,124446,1,8,0:0:0:0:
160,216,124683,2,0,B|216:184|296:184|352:216,1,200,2|0,0:0|0:0,0:0:0:0:
448,288,125391,1,8,0:0:0:0:
464,168,125627,1,0,0:0:0:0:
368,96,125864,1,2,0:0:0:0:
256,312,126336,5,8,0:0:0:0:
256,192,126572,2,0,B|256:136|216:96,1,100,0|2,0:0|0:0,0:0:0:0:
112,48,127045,5,0,0:0:0:0:
88,64,127163,1,0,0:0:0:0:
72,88,127281,1,8,0:0:0:0:
152,232,127517,1,0,0:0:0:0:
160,264,127636,1,0,0:0:0:0:
176,288,127754,1,0,0:0:0:0:
336,288,127990,1,0,0:0:0:0:
352,264,128108,1,0,0:0:0:0:
360,232,128227,1,8,0:0:0:0:
440,88,128462,1,0,0:0:0:0:
424,64,128580,1,0,0:0:0:0:
400,48,128698,6,0,B|360:16|304:24,1,100,2|0,0:0|0:0,0:0:0:0:
256,136,129171,1,8,0:0:0:0:
112,48,129407,2,0,B|152:16|208:24,1,100,2|0,0:0|0:0,0:0:0:0:
144,160,129880,1,0,0:0:0:0:
24,152,130116,1,8,0:0:0:0:
88,256,130352,2,0,B|112:296|168:312,1,100,2|0,0:0|0:0,0:0:0:0:
256,224,130824,1,0,0:0:0:0:
424,256,131061,2,0,B|400:296|344:312,1,100,8|0,0:0|0:0,0:0:0:0:
256,224,131533,5,2,0:0:0:0:
171,139,131769,1,0,0:0:0:0:
240,40,132006,1,8,0:0:0:0:
360,40,132242,6,0,B|424:80|424:152|487:192,1,200,2|0,0:0|0:0,0:0:0:0:
336,192,132950,1,8,0:0:0:0:
360,343,133187,2,0,B|424:303|424:231|488:192,1,200,2|0,0:0|0:0,0:0:0:0:
336,192,133895,1,8,0:0:0:0:
216,192,134132,2,0,B|152:192|96:128|24:128,1,200,2|0,0:0|0:0,0:0:0:0:
24,288,134840,5,2,0:0:0:0:
232,288,135076,1,0,0:0:0:0:
96,352,135313,1,2,0:0:0:0:
216,192,135549,1,0,0:0:0:0:
192,368,135785,1,8,0:0:0:0:
392,344,136021,6,0,B|456:320|496:248|480:168,1,200,2|0,0:0|0:0,0:0:0:0:
448,64,136730,1,8,0:0:0:0:
336,104,136966,2,0,B|291:138|291:203,1,100,2|0,0:0|0:0,0:0:0:0:
184,144,137439,2,0,B|228:109|228:44,1,100,2|8,0:0|0:0,0:0:0:0:
104,56,137911,2,0,B|48:112|56:192|112:240,1,200,2|0,0:0|0:0,0:0:0:0:
224,264,138620,1,8,0:0:0:0:
456,192,139092,5,2,0:0:0:0:
368,112,139328,2,0,B|328:152|336:208,1,100,0|8,0:0|0:0,0:0:0:0:
368,320,139801,2,0,B|304:344|232:296|168:328,1,200,2|0,0:0|0:0,0:0:0:0:
56,368,140509,1,8,0:0:0:0:
64,248,140746,1,0,0:0:0:0:
56,368,140982,1,2,0:0:0:0:
72,128,141454,5,8,0:0:0:0:
168,200,141691,2,0,B|200:240|256:256|312:240|344:200,1,200,2|0,0:0|0:0,0:0:0:0:
360,176,142281,1,0,0:0:0:0:
376,152,142399,1,8,0:0:0:0:
448,56,142635,1,0,0:0:0:0:
464,80,142754,1,0,0:0:0:0:
480,104,142871,1,0,0:0:0:0:
480,232,143108,5,2,0:0:0:0:
384,312,143344,2,0,B|344:352|288:344,1,100,8|0,0:0|0:0,0:0:0:0:
144,312,143817,5,4,0:0:0:0:
