osu file format v14

[General]
AudioFilename: charlotted.mp3
AudioLeadIn: 0
PreviewTime: 47772
Countdown: 0
SampleSet: Soft
StackLeniency: 0.7
Mode: 0
LetterboxInBreaks: 0
WidescreenStoryboard: 0

[Editor]
DistanceSpacing: 1.4
BeatDivisor: 4
GridSize: 32
TimelineZoom: 1

[Metadata]
Title:Yakeochinai Tsubasa (TV Size)
TitleUnicode:灼け落ちない翼 (TV Size)
Artist:Tada Aoi
ArtistUnicode:多田葵
Creator:Mackenzie
Version:Normal
Source:Charlotte
Tags:麻枝准 シャーロット ANANT-GRADE EYES Bravely You Maeda Jun P.A.WORKS Key IamKwaN Alex_Li
BeatmapID:739790
BeatmapSetID:333184

[Difficulty]
HPDrainRate:4
CircleSize:3
OverallDifficulty:4
ApproachRate:5
SliderMultiplier:1.2
SliderTickRate:1

[Events]
//Background and Video events
0,0,"BG (1).jpg",0,0
Video,4623,"ed.avi"
//Break Periods
//Storyboard Layer 0 (Background)
//Storyboard Layer 1 (Fail)
//Storyboard Layer 2 (Pass)
//Storyboard Layer 3 (Foreground)
//Storyboard Sound Samples

[TimingPoints]
4619,461.538461538462,4,2,1,60,1,0
19388,-100,4,2,1,50,0,0
48926,-100,4,2,1,60,0,1
63234,-100,4,2,1,60,0,0
63695,-100,4,2,1,60,0,1
78003,-100,4,2,1,60,0,0
78465,-100,4,2,1,60,0,1
93119,-100,4,2,1,5,0,0

[Colours]
Combo1 : 169,130,251
Combo2 : 0,19,187
Combo3 : 6,166,138
Combo4 : 151,239,255

[HitObjects]
274,56,12003,6,0,P|280:120|280:191,1,120,2|0,0:0|0:0,0:0:0:0:
153,285,12926,2,0,P|117:277|56:262,2,90,2|2|2,0:0|0:0|0:0,0:0:0:0:
216,340,13849,2,0,P|265:324|341:321,1,120,0|0,0:0|0:0,0:0:0:0:
496,358,14772,2,0,L|486:294,1,60,0|2,0:0|0:0,0:0:0:0:
409,265,15234,2,0,L|419:201,1,60,2|2,0:0|0:0,0:0:0:0:
465,135,15695,6,0,P|416:148|356:93,1,120,2|0,0:0|0:0,0:0:0:0:
216,26,16619,2,0,L|91:41,1,120,2|2,0:0|0:0,0:0:0:0:
2,179,17542,2,0,L|127:194,1,120,2|2,0:0|0:0,0:0:0:0:
279,138,18465,2,0,L|289:218,2,60,0|2|2,0:0|0:0|0:0,0:0:0:0:
196,284,19388,6,0,P|277:264|322:281,1,120,0|0,0:0|0:0,0:0:0:0:
459,351,20311,2,0,L|450:225,1,120,2|0,0:0|0:0,0:0:0:0:
376,80,21234,2,0,L|367:199,1,120,0|0,0:0|0:0,0:0:0:0:
220,118,22157,2,0,P|212:72|223:23,2,90,0|0|0,0:0|0:0|0:0,0:0:0:0:
253,195,23080,6,0,L|114:179,1,120,0|2,0:0|0:0,0:0:0:0:
48,36,24003,2,0,P|25:95|35:166,1,120,2|0,0:0|0:0,0:0:0:0:
101,302,24926,2,0,L|240:286,1,120,0|0,0:0|0:0,0:0:0:0:
369,365,25849,2,0,P|410:378|461:377,2,90,0|0|0,0:0|0:0|0:0,0:0:0:0:
310,304,26772,6,0,L|319:174,2,120,2|2|2,0:0|0:0|0:0,0:0:0:0:
439,196,28157,1,0,0:0:0:0:
381,134,28388,2,0,P|319:148|265:103,1,120,2|0,0:0|0:0,0:0:0:0:
118,56,29311,2,0,P|106:120|98:193,1,120,2|0,0:0|0:0,0:0:0:0:
152,240,30003,2,0,L|235:224,1,60,2|0,0:0|0:0,0:0:0:0:
256,299,30465,6,0,P|213:352|143:349,1,120,2|0,0:0|0:0,0:0:0:0:
91,315,31157,2,0,L|100:176,1,120,2|0,0:0|0:0,0:0:0:0:
139,121,31849,1,0,0:0:0:0:
282,208,32311,2,0,L|403:197,1,120,2|0,0:0|0:0,0:0:0:0:
489,340,33234,2,0,L|368:329,1,120,0|0,0:0|0:0,0:0:0:0:
211,271,34157,6,0,P|185:214|214:142,1,120,2|0,0:0|0:0,0:0:0:0:
283,15,35080,1,2,0:0:0:0:
353,61,35311,2,0,L|365:121,1,60,0|2,0:0|0:0,0:0:0:0:
340,200,35772,2,0,L|486:207,2,120,2|0|2,0:0|0:0|0:0,0:0:0:0:
207,97,37157,2,0,L|87:102,1,120,0|0,0:0|0:0,0:0:0:0:
27,162,37849,5,2,0:0:0:0:
175,240,38311,2,0,L|165:308,1,60,0|0,0:0|0:0,0:0:0:0:
237,344,38772,2,0,L|310:329,1,60,2|0,0:0|0:0,0:0:0:0:
338,259,39234,1,0,0:0:0:0:
379,332,39465,2,0,P|426:356|508:346,1,120,2|0,0:0|0:0,0:0:0:0:
407,207,40388,2,0,L|271:223,2,120,2|0|0,0:0|0:0|0:0,0:0:0:0:
462,143,41542,5,2,0:0:0:0:
323,47,42003,2,0,L|316:109,1,60,0|0,0:0|0:0,0:0:0:0:
238,138,42465,2,0,L|248:213,2,60,2|0|0,0:0|0:0|0:0,0:0:0:0:
183,74,43157,2,0,P|136:69|50:60,1,120,2|0,0:0|0:0,0:0:0:0:
36,227,44080,2,0,P|83:222|169:213,1,120,2|0,0:0|0:0,0:0:0:0:
256,192,45003,12,0,47080,0:0:0:0:
179,102,48926,6,0,L|167:238,2,120,6|10|2,0:0|0:0|0:0,0:0:0:0:
240,45,50080,2,0,L|308:62,1,60,0|10,0:0|0:0,0:0:0:0:
305,143,50542,2,0,P|361:125|425:164,1,120,2|0,0:0|0:0,0:0:0:0:
471,211,51234,2,0,L|466:286,1,60,8|0,0:0|0:0,0:0:0:0:
399,320,51695,2,0,L|257:332,1,120,2|10,0:0|0:0,0:0:0:0:
120,273,52619,6,0,P|56:265|27:217,1,120,2|10,0:0|0:0,0:0:0:0:
49,140,53311,2,0,L|174:153,1,120,0|0,0:0|0:0,0:0:0:0:
204,228,54003,2,0,L|277:215,1,60,8|0,0:0|0:0,0:0:0:0:
301,142,54465,2,0,L|308:9,1,120,2|8,0:0|0:0,0:0:0:0:
446,117,55388,2,0,L|439:250,1,120,2|10,0:0|0:0,0:0:0:0:
306,339,56311,6,0,P|390:353|447:330,2,120,6|10|2,0:0|0:0|0:0,0:0:0:0:
242,283,57465,2,0,L|169:311,1,60,0|10,0:0|0:0,0:0:0:0:
110,341,57926,2,0,P|127:291|116:208,1,120,2|0,0:0|0:0,0:0:0:0:
41,199,58619,2,0,L|39:125,1,60,8|0,0:0|0:0,0:0:0:0:
88,71,59080,2,0,B|133:84|133:84|222:75,1,120,2|10,0:0|0:0,0:0:0:0:
331,188,60003,6,0,P|267:196|221:149,1,120,2|10,0:0|0:0,0:0:0:0:
385,105,60926,2,0,L|374:39,2,60,2|0|10,0:0|0:0|0:0,0:0:0:0:
454,153,61619,2,0,P|479:204|458:288,1,120,10|8,0:0|0:0,0:0:0:0:
416,328,62311,2,0,L|346:322,1,60,8|0,0:0|0:0,0:0:0:0:
274,301,62772,2,0,P|229:319|161:288,1,120,2|10,0:0|0:0,0:0:0:0:
52,169,63695,6,0,P|35:219|52:298,1,120,6|10,0:0|0:0,0:0:0:0:
137,143,64619,2,0,L|123:57,2,60,2|0|10,0:0|0:0|0:0,0:0:0:0:
207,188,65311,2,0,P|269:167|351:171,1,120,2|0,0:0|0:0,0:0:0:0:
394,210,66003,2,0,L|384:292,1,60,8|0,0:0|0:0,0:0:0:0:
456,317,66465,2,0,P|490:269|471:198,1,120,2|10,0:0|0:0,0:0:0:0:
407,60,67388,6,0,L|271:67,1,120,2|10,0:0|0:0,0:0:0:0:
238,134,68080,2,0,P|177:98|120:126,1,120,2|0,0:0|0:0,0:0:0:0:
92,185,68772,2,0,L|100:267,1,60,8|2,0:0|0:0,0:0:0:0:
154,307,69234,1,0,0:0:0:0:
293,214,69695,1,8,0:0:0:0:
402,341,70157,2,0,P|329:341|296:302,1,120,2|10,0:0|0:0,0:0:0:0:
460,262,71080,6,0,L|466:137,2,120,6|10|2,0:0|0:0|0:0,0:0:0:0:
376,248,72234,2,0,L|381:171,1,60,0|8,0:0|0:0,0:0:0:0:
341,113,72695,2,0,P|283:136|223:103,1,120,2|0,0:0|0:0,0:0:0:0:
156,77,73388,2,0,L|77:96,1,60,8|0,0:0|0:0,0:0:0:0:
29,140,73849,2,0,P|13:201|39:265,1,120,2|10,0:0|0:0,0:0:0:0:
171,344,74772,6,0,L|296:335,2,120,6|10|2,0:0|0:0|0:0,0:0:0:0:
107,288,75926,2,0,L|116:220,1,60,0|8,0:0|0:0,0:0:0:0:
192,195,76388,2,0,P|235:220|303:204,1,120,10|8,0:0|0:0,0:0:0:0:
254,135,77080,2,0,L|248:68,1,60,8|0,0:0|0:0,0:0:0:0:
315,23,77542,2,0,L|443:38,1,120,2|10,0:0|0:0,0:0:0:0:
501,190,78465,6,0,P|433:179|385:231,1,120,6|10,0:0|0:0,0:0:0:0:
432,371,79388,2,0,L|504:364,2,60,2|0|10,0:0|0:0|0:0,0:0:0:0:
358,330,80080,2,0,B|310:319|292:355|233:338,1,120,2|0,0:0|0:0,0:0:0:0:
177,283,80772,2,0,L|183:220,1,60,8|0,0:0|0:0,0:0:0:0:
104,190,81234,2,0,L|92:320,1,120,2|10,0:0|0:0,0:0:0:0:
29,153,82157,6,0,P|76:157|126:88,1,120,2|10,0:0|0:0,0:0:0:0:
187,52,82849,2,0,L|321:46,1,120,2|0,0:0|0:0,0:0:0:0:
380,87,83542,2,0,L|369:158,1,60,10|2,0:0|0:0,0:0:0:0:
409,220,84003,1,0,0:0:0:0:
263,135,84465,1,8,0:0:0:0:
132,240,84926,2,0,L|266:223,1,120,2|10,0:0|0:0,0:0:0:0:
366,346,85849,6,0,P|310:353|252:301,2,120,6|10|2,0:0|0:0|0:0,0:0:0:0:
383,263,87003,2,0,L|454:255,1,60,0|10,0:0|0:0,0:0:0:0:
475,178,87465,2,0,P|427:147|420:81,1,120,2|0,0:0|0:0,0:0:0:0:
333,90,88157,2,0,L|259:82,1,60,8|0,0:0|0:0,0:0:0:0:
281,167,88619,2,0,P|226:189|161:157,1,120,2|10,0:0|0:0,0:0:0:0:
18,238,89542,6,0,L|35:91,2,120,2|8|2,0:0|0:0|0:0,0:0:0:0:
66,306,90695,1,2,0:0:0:0:
143,272,90926,2,0,L|215:271,1,60,10|8,0:0|0:0,0:0:0:0:
256,192,91388,12,0,93119,0:0:0:0:
