osu file format v10

[General]
AudioFilename: Rewrite Harvest festa!OP.mp3
AudioLeadIn: 0
PreviewTime: 50184
Countdown: 0
SampleSet: Soft
StackLeniency: 0.7
Mode: 0
LetterboxInBreaks: 0

[Editor]
Bookmarks: 14667,56781,68992,69089,86781
DistanceSpacing: 1
BeatDivisor: 4
GridSize: 4

[Metadata]
Title:Harvest
TitleUnicode:
Artist:Tada Aoi
ArtistUnicode:
Creator:S o r d a
Version:Shizuru
Source:Rewrite Harvest festa!
Tags:Melophobia Suzully Gina alacat aabc271 sorda key fandisk galgame opening
BeatmapID:164157
BeatmapSetID:53534

[Difficulty]
HPDrainRate:8
CircleSize:4
OverallDifficulty:7
ApproachRate:8
SliderMultiplier:1.8
SliderTickRate:1

[Events]
//Background and Video events
0,0,"BG.jpg"
//Break Periods
//Storyboard Layer 0 (Background)
//Storyboard Layer 1 (Fail)
//Storyboard Layer 2 (Pass)
//Storyboard Layer 3 (Foreground)
//Storyboard Sound Samples
//Background Colour Transformations
3,100,163,162,255

[TimingPoints]
8589,408.163265306122,4,2,1,50,1,0
9439,384.615384615385,4,2,1,60,1,0
24054,-100,4,2,1,50,0,0
24246,-100,4,2,1,40,0,0
24342,-100,4,2,1,30,0,0
24438,-100,4,2,1,20,0,0
24727,-200,4,2,1,50,0,0
27418,-200,4,2,1,60,0,0
27708,-100,4,1,1,40,0,0
30688,-200,4,2,1,50,0,0
33765,-100,4,1,1,40,0,0
37066,-100,4,2,1,60,0,0
42227,-100,4,2,1,50,0,0
47514,-100,4,2,1,30,0,0
47900,-100,4,2,1,50,0,0
48284,-100,4,2,1,70,0,0
48861,-100,4,2,1,50,0,0
49341,-100,4,2,1,40,0,0
49630,-100,4,2,1,30,0,0
49822,-100,4,2,1,30,0,0
50208,-100,4,2,1,40,0,0
50784,-100,4,2,1,80,0,1
62996,-100,4,2,1,80,0,0
63092,-100,4,2,1,80,0,1
78668,-100,4,2,1,60,0,0
90111,-200,4,2,1,60,0,0
91361,-200,4,2,1,40,0,0
92130,-200,4,2,1,20,0,0
92899,-200,4,2,1,10,0,0
93669,-200,4,2,1,5,0,0

[Colours]
Combo1 : 192,192,192
Combo2 : 255,128,64
Combo3 : 255,255,0
Combo4 : 255,128,128

[HitObjects]
84,80,8588,1,0,0:0:0
108,212,8895,1,8,0:0:0
108,212,8997,1,8,0:0:0
152,292,9201,1,8,0:0:0
191,312,9303,1,0,0:0:0
236,324,9439,6,0,B|273:316|287:302|299:262,1,90,4|0,0:0|0:0,0:0:0
380,236,9823,1,8,0:0:0
420,156,10015,2,0,B|348:108|244:148,1,180
151,242,10592,1,8,0:0:0
120,72,10785,6,0,B|83:80|69:94|57:134,1,90,0|0,0:0|0:0,0:0:0
248,148,11169,2,0,B|284:139|298:125|310:85,1,90,0|8,0:0|0:0,0:0:0
151,242,11554,2,0,B|336:240,1,180,0|0,0:0|0:0,0:0:0
392,312,12131,2,0,B|428:303|442:289|454:249,1,90,8|0,0:0|0:0,0:0:0
464,164,12515,5,4,0:0:0
376,144,12708,1,0,0:0:0
340,60,12900,1,8,0:0:0
252,76,13092,2,0,B|216:85|202:99|190:139,1,90,0|0,0:0|0:0,0:0:0
132,204,13477,1,0,0:0:0
56,156,13669,1,8,0:0:0
80,68,13862,6,0,B|180:29|252:77,1,180
212,156,14438,1,8,0:0:0
252,76,14631,2,0,B|350:119|367:204,1,180,4|0,0:0|0:0,0:0:0
352,296,15208,2,0,B|392:308,6,22.5,8|0|0|0|0|0|0,0:0|0:0|0:0|0:0|0:0|0:0|0:0,0:0:0
352,296,15592,6,0,B|320:276|300:276|263:296,1,90,4|0,0:0|0:0,0:0:0
184,260,15977,2,0,B|175:224|161:210|121:198,1,90,8|4,0:0|0:0,0:0:0
188,135,16362,1,0,0:0:0
251,71,16554,1,0,0:0:0
340,71,16746,1,8,0:0:0
404,132,16938,2,0,B|361:230|276:247,1,180,0|8,0:0|0:0,0:0:0
336,308,17515,2,0,B|327:272|313:258|273:246,1,90,0|8,0:0|0:0,0:0:0
172,188,17900,5,0,0:0:0
255,106,18092,1,0,0:0:0
276,248,18285,1,8,0:0:0
166,318,18477,1,0,0:0:0
197,349,18573,1,0,0:0:0
228,380,18669,6,0,B|271:282|356:265,1,180,4|2,0:0|0:0,0:0:0
421,200,19246,1,0,0:0:0
264,32,19439,2,0,B|221:130|136:147,1,180,0|2,0:0|0:0,0:0:0
71,212,20015,1,0,0:0:0
388,168,20400,6,0,B|356:148|336:148|299:168,1,90,0|2,0:0|0:0,0:0:0
328,252,20785,2,0,B|228:290|156:242,1,180,0|2,0:0|0:0,0:0:0
64,240,21362,1,0,0:0:0
32,108,21554,1,0,0:0:0
63,76,21650,1,0,0:0:0
94,44,21746,6,0,B|193:5|265:53,1,180,4|2,0:0|0:0,0:0:0
356,56,22323,1,0,0:0:0
448,304,22515,2,0,B|349:343|277:295,1,180,0|2,0:0|0:0,0:0:0
368,196,23092,1,0,0:0:0
368,196,23285,5,4,0:0:0
304,132,23477,1,0,0:0:0
240,68,23669,1,0,0:0:0
176,131,23862,1,0,0:0:0
112,194,24054,2,0,B|96:226,6,30
296,332,24823,6,0,B|328:348|352:348|392:332,1,90,0|2,0:0|0:0,0:0:0
440,264,25400,2,0,B|408:248|384:248|344:264,1,90
172,260,26169,1,2,0:0:0
104,204,26362,2,0,B|112:156|144:112|204:120,1,135,0|2,0:0|0:0,0:0:0
280,96,27323,5,0,0:0:0
343,159,27515,1,8,0:0:0
320,324,27900,6,0,B|240:372|120:320,1,180,4|8,0:0|0:0,0:0:0
68,220,28477,2,0,B|156:180|252:220,1,180,0|0,0:0|0:0,0:0:0
187,75,29054,1,8,0:0:0
264,124,29246,2,0,B|364:85|436:133,1,180,4|0,0:0|0:0,0:0:0
328,212,29823,1,8,0:0:0
336,40,30015,2,0,B|375:140|327:212,1,180,4|0,0:0|0:0,0:0:0
196,244,30592,1,8,0:0:0
84,320,30977,6,0,B|116:336|140:336|180:320,1,90,4|2,0:0|0:0,0:0:0
272,184,31554,2,0,B|240:168|216:168|176:184,1,90,0|0,0:0|0:0,0:0:0
400,344,32323,1,0,0:0:0
400,344,32419,1,0,0:0:0
400,344,32515,2,0,B|408:296|440:252|500:260,1,135,0|2,0:0|0:0,0:0:0
448,180,33477,5,0,0:0:0
384,116,33669,1,8,0:0:0
208,192,34054,5,4,0:0:0
148,312,34246,1,0,0:0:0
208,192,34439,1,8,0:0:0
148,312,34631,2,0,B|236:360|340:312,1,180,0|0,0:0|0:0,0:0:0
256,260,35208,5,8,0:0:0
260,148,35400,2,0,B|360:109|432:157,1,180,4|0,0:0|0:0,0:0:0
260,148,35977,1,8,0:0:0
252,236,36169,2,0,B|152:275|80:227,1,180,4|0,0:0|0:0,0:0:0
252,236,36746,1,8,0:0:0
108,344,36939,1,0,0:0:0
123,328,37035,1,0,0:0:0
139,311,37131,6,0,B|178:211|130:139,1,180,4|8,0:0|0:0,0:0:0
296,68,37900,2,0,B|396:107|468:59,1,180,0|8,0:0|0:0,0:0:0
448,152,38477,2,0,B|409:252|457:324,1,180,4|0,0:0|0:0,0:0:0
366,324,39054,1,8,0:0:0
276,324,39246,2,0,B|315:224|267:152,1,180,0|0,0:0|0:0,0:0:0
192,32,39823,1,8,0:0:0
116,80,40015,2,0,B|77:180|125:252,1,180,0|0,0:0|0:0,0:0:0
215,252,40592,5,8,0:0:0
296,288,40785,2,0,B|396:327|468:279,1,180,0|0,0:0|0:0,0:0:0
448,192,41362,1,8,0:0:0
400,116,41554,2,0,B|300:77|228:125,1,180,0|0,0:0|0:0,0:0:0
220,260,42131,2,0,B|229:296|243:310|283:322,1,90,8|4,0:0|0:0,0:0:0
256,188,42515,5,0,0:0:0
256,188,42900,1,8,0:0:0
256,192,43092,12,4,44631,0:0:0
500,72,45592,6,0,B|440:40|372:48|320:116,1,180,0|8,0:0|0:0,0:0:0
372,180,46169,2,0,B|363:216|349:230|309:242,1,90,0|4,0:0|0:0,0:0:0
249,304,46554,1,0,0:0:0
68,300,46938,2,0,B|100:240|92:172|24:120,1,180,0|0,0:0|0:0,0:0:0
224,120,47708,5,4,0:0:0
403,120,48092,1,4,0:0:0
404,300,48477,1,4,0:0:0
224,300,48862,1,0,0:0:0
224,300,49054,2,0,B|224:252,14,30
104,300,50208,5,0,0:0:0
197,203,50400,1,0,0:0:0
292,107,50592,1,2,0:0:0
408,36,50785,2,0,B|440:96|432:164|364:216,1,180,4|0,0:0|0:0,0:0:0
299,313,51362,1,8,0:0:0
220,358,51554,1,0,0:0:0
136,325,51746,2,0,B|100:316|86:302|74:262,1,90,0|0,0:0|0:0,0:0:0
88,188,52131,1,8,0:0:0
120,104,52323,2,0,B|177:149|234:140|299:88,1,180
360,48,52900,1,8,0:0:0
428,164,53092,1,0,0:0:0
372,279,53285,5,0,0:0:0
280,184,53477,1,0,0:0:0
180,89,53669,1,8,0:0:0
68,164,53862,2,0,B|32:212|24:300|124:372|200:324,1,270,4|8,0:0|0:0,0:0:0
220,248,54631,1,0,0:0:0
300,208,54823,2,0,B|336:199|350:185|362:145,2,90,0|0|8,0:0|0:0|0:0,0:0:0
284,296,55400,2,0,B|216:324|164:300|116:232,1,180,4|0,0:0|0:0,0:0:0
52,196,55977,1,8,0:0:0
140,180,56169,2,0,B|168:112|144:60|76:12,1,180,4|0,0:0|0:0,0:0:0
32,92,56746,1,8,0:0:0
52,196,56938,6,0,B|24:264|48:316|116:364,1,180,0|0,0:0|0:0,0:0:0
176,304,57515,1,8,0:0:0
264,292,57708,2,0,B|235:224|181:204|99:218,1,180,4|0,0:0|0:0,0:0:0
109,126,58285,1,8,0:0:0
188,84,58477,2,0,B|256:111|308:87|356:19,1,180,0|0,0:0|0:0,0:0:0
416,88,59054,1,8,0:0:0
448,172,59246,1,4,0:0:0
340,316,59631,1,0,0:0:0
252,300,59823,6,0,B|212:336|144:356|76:324,1,180,8|4,0:0|0:0,0:0:0
80,140,60592,1,8,0:0:0
164,104,60785,1,0,0:0:0
312,220,61169,2,0,B|380:247|432:223|480:155,1,180,0|4,0:0|0:0,0:0:0
316,72,61938,1,0,0:0:0
243,126,62131,1,8,0:0:0
179,189,62323,1,4,0:0:0
115,252,62515,2,0,B|83:271|63:271|26:251,2,90,0|0|8,0:0|0:0|0:0,0:0:0
348,312,63092,6,0,B|280:339|228:315|180:247,1,180,4|0,0:0|0:0,0:0:0
280,240,63669,2,0,B|289:203|303:189|343:177,1,90,8|0,0:0|0:0,0:0:0
407,110,64054,1,0,0:0:0
343,46,64246,1,0,0:0:0
253,46,64438,1,8,0:0:0
189,109,64631,2,0,B|121:82|69:106|21:174,1,180,0|0,0:0|0:0,0:0:0
64,232,65208,2,0,B|95:213|115:213|152:233,1,90,8|0,0:0|0:0,0:0:0
195,34,65592,5,0,0:0:0
61,90,65785,1,0,0:0:0
200,156,65977,1,8,0:0:0
108,14,66169,2,0,B|140:96|140:96|112:140|124:196,1,180,4|0,0:0|0:0,0:0:0
60,336,66746,2,0,B|68:300|82:286|122:274,1,90,8|0,0:0|0:0,0:0:0
208,284,67131,1,0,0:0:0
296,288,67323,1,0,0:0:0
372,240,67515,1,8,0:0:0
392,152,67708,2,0,B|360:171|336:172|303:151,1,90,4|0,0:0|0:0,0:0:0
252,84,68092,2,0,B|184:57|128:76|84:149,1,180,0|4,0:0|0:0,0:0:0
316,292,69054,5,8,0:0:0
232,320,69246,2,0,B|164:347|112:323|64:255,1,180,4|0,0:0|0:0,0:0:0
196,92,69823,1,8,0:0:0
280,64,70015,2,0,B|348:37|400:61|448:129,1,180,4|0,0:0|0:0,0:0:0
448,212,70592,1,8,0:0:0
192,296,70785,2,0,B|220:228|274:209|356:223,1,180,4|0,0:0|0:0,0:0:0
304,304,71362,1,8,0:0:0
448,212,71554,2,0,B|380:183|361:129|375:47,1,180,4|0,0:0|0:0,0:0:0
284,52,72131,1,8,0:0:0
220,115,72323,1,0,0:0:0
132,144,72515,6,0,B|100:163|76:164|43:143,1,90,4|0,0:0|0:0,0:0:0
52,236,72900,1,8,0:0:0
120,296,73092,2,0,B|148:228|202:209|284:223,1,180,0|0,0:0|0:0,0:0:0
424,312,73669,1,8,0:0:0
268,120,73862,2,0,B|335:148|354:202|340:284,1,180,0|0,0:0|0:0,0:0:0
279,331,74438,1,8,0:0:0
215,267,74631,1,0,0:0:0
140,216,74823,2,0,B|108:235|84:236|51:215,2,90,0|0|8,0:0|0:0|0:0,0:0:0
256,192,75400,12,2,77708,0:0:0
256,192,78285,5,8,0:0:0
256,56,78477,1,0,0:0:0
332,168,78669,6,0,B|360:100|414:81|496:95,1,180,4|8,0:0|0:0,0:0:0
412,260,79246,2,0,B|383:327|329:346|247:332,1,180,0|0,0:0|0:0,0:0:0
188,248,79823,1,8,0:0:0
100,244,80015,2,0,B|128:176|182:157|264:171,1,180,0|0,0:0|0:0,0:0:0
320,116,80592,1,8,0:0:0
244,64,80785,6,0,B|212:83|188:84|155:63,1,90,0|0,0:0|0:0,0:0:0
69,65,81169,1,0,0:0:0
28,144,81362,2,0,B|47:176|48:200|27:233,1,90,8|0,0:0|0:0,0:0:0
168,168,81746,5,4,0:0:0
263,263,81938,1,0,0:0:0
398,263,82131,1,8,0:0:0
493,167,82323,1,4,0:0:0
492,168,82708,6,0,B|460:187|436:188|403:167,1,90,0|8,0:0|0:0,0:0:0
316,164,83092,2,0,B|288:232|234:251|152:237,1,180,4|0,0:0|0:0,0:0:0
137,207,83573,1,0,0:0:0
123,164,83669,1,8,0:0:0
141,122,83765,1,0,0:0:0
180,99,83862,2,0,B|237:68|297:68|353:112,1,180,4|0,0:0|0:0,0:0:0
399,232,84438,5,8,0:0:0
290,340,84631,1,0,0:0:0
442,340,84823,1,4,0:0:0
290,340,85015,6,0,B|258:359|234:360|201:339,1,90,0|8,0:0|0:0,0:0:0
144,200,85400,2,0,B|172:267|147:319|79:367,1,180,4|0,0:0|0:0,0:0:0
52,276,85977,1,8,0:0:0
101,130,86169,2,0,B|168:102|220:127|268:195,1,180,4|0,0:0|0:0,0:0:0
292,264,86746,1,8,0:0:0
220,353,86938,6,0,B|188:334|164:333|131:354,2,90,4|0|0,0:0|0:0|0:0,0:0:0
164,225,87515,1,8,0:0:0
256,192,87708,12,8,89823,0:0:0
256,124,90208,6,0,B|256:228,1,90,0|8,0:0|0:0,0:0:0
256,192,90785,12,0,94054,0:0:0
