osu file format v10

[General]
AudioFilename: Rewrite Harvest festa!OP.mp3
AudioLeadIn: 0
PreviewTime: 50184
Countdown: 0
SampleSet: Soft
StackLeniency: 0.7
Mode: 0
LetterboxInBreaks: 0

[Editor]
DistanceSpacing: 1.1
BeatDivisor: 4
GridSize: 4

[Metadata]
Title:Harvest
TitleUnicode:
Artist:Tada Aoi
ArtistUnicode:
Creator:S o r d a
Version:Kagari
Source:Rewrite Harvest festa!
Tags:Melophobia Suzully Gina alacat aabc271 sorda key fandisk galgame opening
BeatmapID:164635
BeatmapSetID:53534

[Difficulty]
HPDrainRate:6
CircleSize:4
OverallDifficulty:6
ApproachRate:7
SliderMultiplier:1.7
SliderTickRate:1

[Events]
//Background and Video events
0,0,"BG.jpg"
//Break Periods
//Storyboard Layer 0 (Background)
//Storyboard Layer 1 (Fail)
//Storyboard Layer 2 (Pass)
//Storyboard Layer 3 (Foreground)
//Storyboard Sound Samples
//Background Colour Transformations
3,100,163,162,255

[TimingPoints]
8589,408.163265306122,4,2,1,40,1,0
9439,384.615384615385,4,2,1,50,1,0
18668,-100,4,2,1,40,0,0
24053,-100,4,2,1,30,0,0
27899,-100,4,2,1,50,0,0
30976,-100,4,2,1,30,0,0
34053,-100,4,2,1,50,0,0
41938,-100,4,2,1,40,0,0
43091,-100,4,2,1,50,0,0
50785,-100,4,2,1,60,0,1
62996,-100,4,2,1,60,0,0
63092,-100,4,2,1,60,0,1
78669,-100,4,2,1,50,0,0
91361,-200,4,2,1,40,0,0
92130,-200,4,2,1,20,0,0
92899,-200,4,2,1,10,0,0
93669,-200,4,2,1,5,0,0

[Colours]
Combo1 : 192,192,192
Combo2 : 255,128,64
Combo3 : 255,255,0
Combo4 : 255,128,128

[HitObjects]
68,248,8588,1,2,0:0:0
128,320,8793,2,0,B|112:364,2,42.5,0|8|8,0:0|0:0|0:0,0:0:0
220,300,9201,5,8,0:0:0
220,300,9303,1,8,0:0:0
220,300,9439,2,0,B|260:280|302:293,1,85,4|0,0:0|0:0,0:0:0
392,316,9823,1,8,0:0:0
468,260,10015,2,0,B|484:220|473:176,1,85,2|0,0:0|0:0,0:0:0
393,56,10400,2,0,B|377:96|388:140,1,85,2|8,0:0|0:0,0:0:0
324,212,10785,6,0,B|284:232|241:212,1,85,0|2,0:0|0:0,0:0:0
200,128,11169,1,0,0:0:0
200,128,11362,1,8,0:0:0
108,144,11554,2,0,B|64:216|80:308,1,170,2|2,0:0|0:0,0:0:0
160,356,12131,2,0,B|252:356,1,85,8|2,0:0|0:0,0:0:0
336,332,12515,6,0,B|360:296|356:250,1,85,4|0,0:0|0:0,0:0:0
316,164,12900,1,8,0:0:0
248,104,13092,2,0,B|224:140|227:185,1,85,2|0,0:0|0:0,0:0:0
140,212,13477,2,0,B|144:255|176:287,1,85,2|8,0:0|0:0,0:0:0
260,332,13862,6,0,B|320:272|417:285,1,170,2|0,0:0|0:0,0:0:0
488,224,14438,1,8,0:0:0
460,136,14631,2,0,B|400:76|302:89,1,170,4|2,0:0|0:0,0:0:0
232,152,15208,2,0,B|240:188,3,28.3333333333333,8|0|0|0,0:0|0:0|0:0|0:0,0:0:0
168,240,15592,6,0,B|124:248|89:216,1,85,4|0,0:0|0:0,0:0:0
224,316,15977,1,10,0:0:0
308,280,16169,2,0,B|352:272|387:304,1,85,0|2,0:0|0:0,0:0:0
476,336,16554,1,0,0:0:0
460,244,16746,1,10,0:0:0
476,152,16938,1,2,0:0:0
476,152,17323,5,8,0:0:0
396,88,17515,1,2,0:0:0
352,180,17708,1,8,0:0:0
272,120,17900,2,0,B|232:104|188:116,1,85,2|2,0:0|0:0,0:0:0
124,180,18285,1,8,0:0:0
44,132,18477,6,0,B|24:116|21:97,2,42.5,0|0|4,0:0|0:0|0:0,0:0:0
156,300,19054,1,0,0:0:0
356,300,19439,1,0,0:0:0
468,132,19823,1,0,0:0:0
168,112,20208,6,0,B|148:152|156:196,1,85,0|2,0:0|0:0,0:0:0
356,196,20592,2,0,B|364:152|344:112,1,85,0|2,0:0|0:0,0:0:0
256,44,20977,1,0,0:0:0
256,144,21169,2,0,B|256:229,1,85,2|0,0:0|0:0,0:0:0
112,300,21746,6,0,B|152:320|194:300,1,85,4|0,0:0|0:0,0:0:0
256,228,22131,1,0,0:0:0
317,300,22323,2,0,B|360:320|400:300,1,85,0|0,0:0|0:0,0:0:0
256,92,22900,1,0,0:0:0
256,192,23285,12,4,24823,0:0:0
100,136,27131,6,0,B|132:232,1,85,0|2,0:0|0:0,0:0:0
92,296,27515,2,0,B|136:240|206:251,1,127.5,8|0,0:0|0:0,0:0:0
248,268,27900,6,0,B|344:268,1,85,4|0,0:0|0:0,0:0:0
464,200,28285,1,8,0:0:0
464,200,28477,2,0,B|404:200|404:200|360:180|360:180|298:180,1,170,2|2,0:0|0:0,0:0:0
212,144,29054,1,8,0:0:0
116,156,29246,6,0,B|84:188|85:233,1,85,4|2,0:0|0:0,0:0:0
180,232,29631,2,0,B|176:277|206:311,1,85,0|8,0:0|0:0,0:0:0
292,344,30015,2,0,B|348:276|444:288,1,170,4|2,0:0|0:0,0:0:0
444,288,30592,1,8,0:0:0
256,104,30977,5,4,0:0:0
324,220,33285,6,0,B|363:241|372:288,1,85,0|2,0:0|0:0,0:0:0
459,252,33669,2,0,B|448:181|388:150,1,127.5,8|0,0:0|0:0,0:0:0
344,136,34054,6,0,B|252:136,1,85,4|0,0:0|0:0,0:0:0
168,108,34439,1,8,0:0:0
84,152,34631,2,0,B|32:224|54:313,1,170,2|2,0:0|0:0,0:0:0
140,356,35208,1,8,0:0:0
228,320,35400,6,0,B|268:336|310:319,1,85,4|2,0:0|0:0,0:0:0
446,239,35785,2,0,B|406:223|364:240,1,85,0|8,0:0|0:0,0:0:0
229,160,36169,2,0,B|269:176|312:160,1,85,4|0,0:0|0:0,0:0:0
437,77,36554,2,0,B|353:41|272:76,1,170,2|0,0:0|0:0,0:0:0
180,56,37131,6,0,B|136:72|96:58,1,85,4|0,0:0|0:0,0:0:0
20,108,37515,2,0,B|0:148|10:190,1,85,8|2,0:0|0:0,0:0:0
68,264,37900,2,0,B|153:264,1,85,0|2,0:0|0:0,0:0:0
160,356,38285,5,8,0:0:0
160,356,38477,2,0,B|264:356,1,85,4|0,0:0|0:0,0:0:0
340,356,38862,1,2,0:0:0
340,356,39054,1,8,0:0:0
420,312,39246,2,0,B|436:224|400:145,1,170,0|2,0:0|0:0,0:0:0
328,88,39823,1,8,0:0:0
240,112,40015,6,0,B|148:112,1,85,0|4,0:0|0:0,0:0:0
64,128,40400,2,0,B|32:160|32:205,1,85,0|8,0:0|0:0,0:0:0
60,296,40785,2,0,B|136:248|223:272,1,170,2|2,0:0|0:0,0:0:0
312,304,41362,1,8,0:0:0
400,272,41554,1,2,0:0:0
312,104,41938,6,0,B|412:104,2,85,2|8|4,0:0|0:0|0:0,0:0:0
224,72,42515,2,0,B|188:44|144:47,1,85,0|2,0:0|0:0,0:0:0
72,104,42900,1,12,0:0:0
96,196,43092,2,0,B|132:224|175:220,1,85,0|4,0:0|0:0,0:0:0
336,124,43669,5,8,0:0:0
384,204,43862,2,0,B|408:240|400:288,1,85,0|2,0:0|0:0,0:0:0
324,340,44246,1,2,0:0:0
324,340,44438,1,8,0:0:0
232,324,44631,6,0,B|147:324,1,85,4|0,0:0|0:0,0:0:0
144,232,45015,2,0,B|59:232,1,85,2|8,0:0|0:0,0:0:0
228,68,45592,1,2,0:0:0
228,68,45785,2,0,B|268:88|309:84,1,85,2|8,0:0|0:0,0:0:0
400,52,46169,1,0,0:0:0
468,116,46362,6,0,B|496:148|489:195,1,85,4|0,0:0|0:0,0:0:0
417,279,46746,2,0,B|389:247|396:200,1,85,8|2,0:0|0:0,0:0:0
256,284,47323,1,2,0:0:0
256,192,47515,1,8,0:0:0
256,100,47708,6,0,B|264:56|304:32,1,85,4|0,0:0|0:0,0:0:0
335,238,48092,2,0,B|369:266|370:313,1,85,8|2,0:0|0:0,0:0:0
176,238,48477,2,0,B|134:253|93:230,2,85,4|0|2,0:0|0:0|0:0,0:0:0
256,192,49054,1,4,0:0:0
256,192,49150,12,4,50785,0:0:0
136,312,51169,6,0,B|180:328|219:312,1,85,0|8,0:0|0:0,0:0:0
260,228,51554,1,0,0:0:0
344,268,51746,2,0,B|376:300|373:345,2,85,2|2|8,0:0|0:0|0:0,0:0:0
260,228,52323,6,0,B|180:252|96:203,1,170,2|2,0:0|0:0,0:0:0
112,112,52900,2,0,B|192:88|275:136,1,170,8|2,0:0|0:0,0:0:0
364,132,53477,1,2,0:0:0
448,92,53669,1,8,0:0:0
364,132,53862,6,0,B|332:216|359:298,1,170,2|0,0:0|0:0,0:0:0
276,344,54438,2,0,B|236:320|193:328,1,85,8|0,0:0|0:0,0:0:0
100,328,54823,1,2,0:0:0
56,248,55015,2,0,B|44:204|60:164,1,85,2|8,0:0|0:0,0:0:0
108,84,55400,5,4,0:0:0
296,84,55785,1,2,0:0:0
388,84,55977,1,8,0:0:0
296,84,56169,1,6,0:0:0
145,256,56554,2,0,B|241:256,1,85,2|8,0:0|0:0,0:0:0
312,308,56938,1,0,0:0:0
404,284,57131,6,0,B|448:208|421:119,1,170,4|8,0:0|0:0,0:0:0
248,92,57708,2,0,B|204:168|230:256,1,170,6|2,0:0|0:0,0:0:0
312,308,58285,1,8,0:0:0
404,284,58477,6,0,B|492:284,2,85,0|4|0,0:0|0:0|0:0,0:0:0
312,308,59054,1,8,0:0:0
230,256,59246,2,0,B|142:216|66:259,1,170,4|2,0:0|0:0,0:0:0
28,344,59823,1,8,0:0:0
120,120,60208,6,0,B|208:160|283:116,1,170,4|8,0:0|0:0,0:0:0
372,84,60785,2,0,B|416:96|435:138,1,85,0|2,0:0|0:0,0:0:0
352,180,61169,2,0,B|377:217|365:262,1,85,2|8,0:0|0:0,0:0:0
284,304,61554,6,0,B|188:288|130:356,1,170,4|2,0:0|0:0,0:0:0
40,328,62131,1,8,0:0:0
4,240,62323,1,4,0:0:0
60,164,62515,1,0,0:0:0
60,164,62708,2,0,B|100:148|143:162,1,85,2|8,0:0|0:0,0:0:0
212,224,63092,6,0,B|296:256|380:212,1,170,4|2,0:0|0:0,0:0:0
424,132,63669,1,8,0:0:0
332,43,63862,2,0,B|320:83|332:128,1,85,0|2,0:0|0:0,0:0:0
468,304,64246,2,0,B|480:264|468:219,1,85,2|8,0:0|0:0,0:0:0
332,128,64631,6,0,B|244:96|164:128,1,170,2|2,0:0|0:0,0:0:0
164,256,65208,2,0,B|244:288|332:256,1,170,8|2,0:0|0:0,0:0:0
404,192,65785,1,2,0:0:0
404,192,65977,1,8,0:0:0
256,112,66169,6,0,B|216:192|256:276,1,170,4|2,0:0|0:0,0:0:0
340,320,66746,1,8,0:0:0
424,280,66938,2,0,B|512:280,2,85,0|2|2,0:0|0:0|0:0,0:0:0
340,320,67515,1,8,0:0:0
256,360,67708,6,0,B|216:376|172:360,1,85,4|0,0:0|0:0,0:0:0
92,312,68092,1,0,0:0:0
112,220,68285,1,8,0:0:0
112,220,68477,2,0,B|120:176|100:132,1,85,4|0,0:0|0:0,0:0:0
182,28,68862,2,0,B|174:72|192:112,1,85,2|8,0:0|0:0,0:0:0
256,180,69246,6,0,B|296:164|340:180,2,85,0|4|0,0:0|0:0|0:0,0:0:0
192,248,69823,1,8,0:0:0
224,336,70015,2,0,B|312:368|392:336,1,170,4|2,0:0|0:0,0:0:0
444,260,70592,1,8,0:0:0
376,196,70785,6,0,B|360:156|372:112,1,85,0|4,0:0|0:0,0:0:0
488,96,71169,2,0,B|504:136|492:180,1,85,0|8,0:0|0:0,0:0:0
444,260,71554,1,4,0:0:0
140,260,71938,2,0,B|48:260,2,85,2|8|0,0:0|0:0|0:0,0:0:0
212,197,72515,6,0,B|292:157|380:197,1,170,4|8,0:0|0:0,0:0:0
444,260,73092,2,0,B|456:304|431:342,1,85,0|2,0:0|0:0,0:0:0
344,304,73477,2,0,B|324:345|281:359,1,85,2|8,0:0|0:0,0:0:0
228,280,73862,6,0,B|148:320|60:280,1,170,2|2,0:0|0:0,0:0:0
20,196,74438,1,8,0:0:0
216,176,74823,2,0,B|256:196|298:176,1,85,2|2,0:0|0:0,0:0:0
368,112,75208,1,8,0:0:0
448,160,75400,5,0,0:0:0
448,160,75592,2,0,B|476:252|440:328,1,170,4|8,0:0|0:0,0:0:0
348,340,76169,2,0,B|252:340,1,85,0|2,0:0|0:0,0:0:0
236,252,76554,2,0,B|140:252,1,85,2|8,0:0|0:0,0:0:0
84,176,76938,6,0,B|40:212|40:292|83:327,1,170,4|2,0:0|0:0,0:0:0
176,344,77515,2,0,B|212:320|256:328,1,85,8|4,0:0|0:0,0:0:0
444,88,78092,2,0,B|360:88,1,85,0|8,0:0|0:0,0:0:0
276,48,78477,1,0,0:0:0
188,84,78669,6,0,B|132:152|153:244,1,170,4|8,0:0|0:0,0:0:0
308,276,79246,2,0,B|364:208|342:115,1,170,2|2,0:0|0:0,0:0:0
276,48,79823,1,8,0:0:0
188,84,80015,6,0,B|88:84,1,85,0|2,0:0|0:0,0:0:0
124,176,80400,2,0,B|39:176,1,85,0|8,0:0|0:0,0:0:0
100,268,80785,2,0,B|164:268|164:268|208:252|208:252|267:252,1,170,2|2,0:0|0:0,0:0:0
360,252,81362,2,0,B|376:296|360:336,1,85,8|0,0:0|0:0,0:0:0
436,196,81746,6,0,B|420:152|436:112,1,85,4|0,0:0|0:0,0:0:0
380,36,82131,1,8,0:0:0
288,48,82323,2,0,B|188:64,1,85,4|0,0:0|0:0,0:0:0
196,156,82708,2,0,B|96:172,1,85,2|8,0:0|0:0,0:0:0
24,200,83092,5,4,0:0:0
24,200,83285,2,0,B|-4:288|44:368,1,170,2|8,0:0|0:0,0:0:0
136,364,83862,2,0,B|200:308|296:324,1,170,4|2,0:0|0:0,0:0:0
384,296,84438,2,0,B|424:312|467:299,1,85,8|0,0:0|0:0,0:0:0
360,204,84823,6,0,B|320:188|276:200,1,85,4|0,0:0|0:0,0:0:0
188,228,85208,1,8,0:0:0
100,192,85400,2,0,B|76:152|82:110,2,85,4|0|2,0:0|0:0|0:0,0:0:0
72,280,85977,1,8,0:0:0
160,312,86169,1,4,0:0:0
188,228,86362,6,0,B|268:188|376:224,1,170,2|8,0:0|0:0,0:0:0
432,268,86938,1,4,0:0:0
432,268,87323,1,2,0:0:0
476,184,87515,1,8,0:0:0
436,100,87708,1,0,0:0:0
356,56,87900,6,0,B|280:12|192:28,1,170,2|8,0:0|0:0,0:0:0
228,116,88477,2,0,B|141:131|84:199,1,170,2|2,0:0|0:0,0:0:0
156,264,89054,2,0,B|120:296|120:348,2,85,8|0|2,0:0|0:0|0:0,0:0:0
304,148,89823,6,0,B|364:76,1,85,8|2,0:0|0:0,0:0:0
428,144,90208,2,0,B|488:72,2,85,0|2|8,0:0|0:0|0:0,0:0:0
256,192,90785,12,0,94054,0:0:0
