osu file format v12

[General]
AudioFilename: Rewrite HF OP.mp3
AudioLeadIn: 0
PreviewTime: 48926
Countdown: 0
SampleSet: Soft
StackLeniency: 0.3
Mode: 0
LetterboxInBreaks: 0
WidescreenStoryboard: 0

[Editor]
DistanceSpacing: 1.2
BeatDivisor: 4
GridSize: 4
TimelineZoom: 1

[Metadata]
Title:Harvest
TitleUnicode:Harvest
Artist:Tada Aoi
ArtistUnicode:多田葵
Creator:Momochikun
Version:Insane
Source:Rewrite Harvest festa!
Tags:リライト ハーヴェストフェスタ! opening key visual novel sekai sekai-nyan suzully natsu
BeatmapID:319795
BeatmapSetID:125678

[Difficulty]
HPDrainRate:7
CircleSize:4
OverallDifficulty:7
ApproachRate:8
SliderMultiplier:1.7
SliderTickRate:1

[Events]
//Background and Video events
Video,959,"Video.avi"
0,0,"Harvest BG.jpg",0,0
//Break Periods
//Storyboard Layer 0 (Background)
//Storyboard Layer 1 (Fail)
//Storyboard Layer 2 (Pass)
//Storyboard Layer 3 (Foreground)
//Storyboard Sound Samples
//Background Colour Transformations
3,100,255,128,255

[TimingPoints]
8470,408.163265306122,4,2,1,40,1,0
8776,-100,4,2,1,60,0,0
9311,384.615384615385,4,2,1,65,1,0
16041,-100,4,2,1,35,0,0
16234,-100,4,2,1,65,0,0
18926,-100,4,2,1,60,0,0
20272,-100,4,2,1,50,0,0
20464,-100,4,2,1,60,0,0
20657,-100,4,2,1,50,0,0
20849,-100,4,2,1,60,0,0
21041,-100,4,2,1,50,0,0
21234,-100,4,2,1,60,0,0
24022,-100,4,2,1,50,0,0
24118,-100,4,2,1,35,0,0
24311,-100,4,2,1,25,0,0
24503,-100,4,2,1,15,0,0
24695,-133.333333333333,4,2,1,25,0,0
25080,-133.333333333333,4,2,1,30,0,0
25272,-133.333333333333,4,2,1,35,0,0
26041,-133.333333333333,4,2,1,30,0,0
26234,-133.333333333333,4,2,1,35,0,0
26426,-133.333333333333,4,2,1,30,0,0
26811,-133.333333333333,4,2,1,35,0,0
27003,-133.333333333333,4,2,2,45,0,0
27195,-133.333333333333,4,2,1,55,0,0
27772,-100,4,2,1,60,0,0
30849,-133.333333333333,4,2,1,25,0,0
31234,-133.333333333333,4,2,1,30,0,0
31426,-133.333333333333,4,2,1,35,0,0
32387,-133.333333333333,4,2,1,30,0,0
32580,-133.333333333333,4,2,1,35,0,0
33157,-133.333333333333,4,2,2,45,0,0
33349,-133.333333333333,4,2,1,55,0,0
33926,-100,4,2,1,60,0,0
37003,-100,4,2,1,65,0,0
38349,-100,4,2,1,50,0,0
38445,-100,4,2,1,65,0,0
40080,-100,4,2,1,55,0,0
40176,-100,4,2,1,65,0,0
42772,-100,4,2,1,55,0,0
42964,-100,4,2,1,65,0,0
43157,-100,4,2,1,55,0,0
43541,-100,4,2,1,65,0,0
44503,-100,4,2,1,55,0,0
44887,-100,4,2,1,65,0,0
47964,-100,4,2,1,70,0,0
48349,-100,4,2,1,75,0,0
49118,-100,4,2,1,45,0,0
49311,-100,4,2,1,35,0,0
49503,-100,4,2,1,30,0,0
49695,-100,4,2,1,25,0,0
49887,-100,4,2,1,20,0,0
50080,-100,4,2,1,55,0,0
50272,-100,4,2,1,45,0,0
50464,-133.333333333333,4,2,1,65,0,0
50657,-100,4,2,1,75,0,1
62387,-100,4,2,1,65,0,0
62580,-100,4,2,1,60,0,0
62772,-100,4,2,1,70,0,0
62964,-100,4,2,1,75,0,1
77772,-100,4,2,1,70,0,1
78157,-100,4,2,1,65,0,1
78445,-100,4,2,1,75,0,0
78541,-100,4,2,1,80,0,1
78637,-100,4,2,1,65,0,0
90657,-100,4,2,1,5,0,0

[Colours]
Combo1 : 89,89,255
Combo2 : 255,128,255
Combo3 : 255,255,128
Combo4 : 179,102,102

[HitObjects]
117,112,8470,5,4,0:3:0:0:
216,200,8674,2,0,L|264:192,2,42.5,2|0|0,0:0|3:0|3:0,0:0:0:0:
100,286,9082,1,0,3:2:0:0:
122,298,9184,1,0,3:0:0:0:
152,312,9311,6,0,P|186:320|236:299,1,85,4|2,1:2|0:0,0:0:0:0:
340,236,9695,1,0,3:0:0:0:
258,138,9887,2,0,L|88:156,1,170,2|2,1:2|1:2,0:0:0:0:
182,188,10464,2,0,P|186:143|171:103,1,85,0|2,3:0|0:0,0:0:0:0:
41,68,10849,5,0,1:0:0:0:
128,16,11041,1,2,0:2:0:0:
172,106,11234,1,0,3:2:0:0:
28,154,11426,2,0,P|99:198|182:188,1,170,2|0,1:2|1:0,0:0:0:0:
269,136,12003,1,0,3:0:0:0:
313,44,12195,1,2,1:2:0:0:
372,174,12387,6,0,L|360:263,1,85,4|2,1:2|0:0,0:0:0:0:
304,344,12772,1,0,3:0:0:0:
172,264,12964,2,0,P|116:252|24:311,1,170,2|2,1:2|1:2,0:0:0:0:
108,368,13541,2,0,P|114:326|97:287,1,85,0|2,3:0|0:0,0:0:0:0:
23,183,13926,6,0,P|17:141|34:103,2,85,0|2|0,1:0|0:0|3:0,0:0:0:0:
141,158,14503,2,0,L|277:168,1,127.5,6|0,1:2|3:0,0:0:0:0:
328,212,14887,1,0,1:0:0:0:
412,72,15080,1,0,3:0:0:0:
464,240,15272,1,0,3:0:0:0:
472,260,15368,1,0,3:0:0:0:
480,280,15464,6,0,L|388:304,1,85,4|0,1:2|0:0,0:0:0:0:
297,320,15849,1,2,3:2:0:0:
183,258,16041,1,4,1:2:0:0:
242,134,16234,1,2,0:0:0:0:
263,233,16426,5,0,1:0:0:0:
192,363,16618,1,2,3:2:0:0:
51,296,16811,1,0,1:2:0:0:
51,296,17195,1,0,3:0:0:0:
112,214,17387,6,0,L|197:204,1,85,2|0,1:2|3:0,0:0:0:0:
292,55,17772,2,0,L|207:65,1,85,2|0,0:0|1:0,0:0:0:0:
132,134,18157,1,2,3:2:0:0:
370,201,18349,1,0,3:0:0:0:
355,228,18445,1,0,3:0:0:0:
339,254,18541,6,0,P|257:260|196:204,1,170,4|0,0:0|1:0,0:0:0:0:
254,119,19118,1,0,0:0:0:0:
359,167,19311,2,0,P|415:227|409:310,1,170,0|0,1:2|1:0,0:0:0:0:
316,348,19887,1,0,0:0:0:0:
409,310,20080,5,0,1:0:0:0:
452,220,20272,2,0,L|440:128,1,85,2|0,0:0|1:0,0:0:0:0:
312,20,20657,2,0,L|322:104,1,85,2|0,0:0|1:0,0:0:0:0:
256,288,21041,2,0,L|244:196,1,85,2|0,0:0|1:0,0:0:0:0:
172,68,21426,1,0,0:0:0:0:
148,72,21522,1,0,3:0:0:0:
124,76,21618,6,0,L|113:160,1,85,4|0,1:2|0:0,0:0:0:0:
156,252,22003,2,0,P|116:268|72:264,1,85,0|0,1:0|0:0,0:0:0:0:
239,163,22387,2,0,P|315:173|386:229,1,170,2|0,1:2|1:0,0:0:0:0:
350,321,22964,1,0,0:0:0:0:
298,214,23157,6,0,P|315:173|311:118,1,85,4|0,1:2|0:0,0:0:0:0:
201,15,23541,2,0,P|184:56|188:111,1,85,0|0,1:0|0:0,0:0:0:0:
234,239,23926,2,0,L|226:268,12,21.25,0|0|0|0|0|0|0|0|0|0|0|0|0,1:0|0:0|0:0|0:0|0:0|0:0|0:0|0:0|1:0|0:0|0:0|0:0|0:0,0:0:0:0:
163,308,24695,6,0,L|33:296,1,127.500004863739,4|0,0:0|0:0,0:0:0:0:
90,209,25272,2,0,P|114:151|98:82,2,127.500004863739,2|2|0,0:0|0:0|0:0,0:0:0:0:
12,144,26234,5,2,0:0:0:0:
90,209,26426,2,0,P|134:217|218:169,1,127.500004863739,0|2,0:0|0:0,0:0:0:0:
240,40,27003,1,0,3:0:0:0:
148,100,27195,1,0,1:0:0:0:
292,200,27387,1,0,3:0:0:0:
316,220,27772,6,0,L|400:212,1,85,4|2,0:0|0:0,0:0:0:0:
480,147,28157,1,0,3:0:0:0:
336,64,28349,2,0,B|290:77|265:109|265:109|227:89|180:101,1,170,4|2,0:0|1:2,0:0:0:0:
113,175,28926,1,0,3:0:0:0:
55,46,29118,6,0,B|80:110|80:110|30:139|45:200,1,170,4|2,0:0|0:0,0:0:0:0:
126,258,29695,1,0,3:0:0:0:
256,296,29887,2,0,B|309:301|344:270|344:270|395:276|418:302,1,170,4|2,0:0|1:2,0:0:0:0:
500,352,30464,1,0,3:0:0:0:
488,168,30657,1,0,1:0:0:0:
343,188,30849,6,0,P|274:186|224:152,1,127.500004863739,4|0,0:0|0:0,0:0:0:0:
156,58,31426,2,0,L|282:76,1,127.500004863739,2|2,0:0|0:0,0:0:0:0:
172,248,32195,6,0,L|108:257,1,63.7500024318696,2|0,0:0|0:0,0:0:0:0:
232,299,32580,2,0,P|249:249|218:183,1,127.500004863739,2|2,0:0|0:0,0:0:0:0:
82,141,33157,2,0,P|109:156|141:162,1,63.7500024318696,0|0,3:0|1:0,0:0:0:0:
274,103,33541,1,0,3:0:0:0:
292,120,33926,6,0,P|322:123|374:107,1,85,4|2,0:0|0:0,0:0:0:0:
457,47,34311,1,0,3:0:0:0:
424,212,34503,2,0,P|366:196|259:238,1,170,4|2,0:0|1:2,0:0:0:0:
346,287,35080,1,0,3:0:0:0:
229,149,35272,6,0,P|154:113|70:120,1,170,4|2,0:0|0:0,0:0:0:0:
1,196,35849,1,0,3:0:0:0:
132,214,36041,2,0,L|171:48,1,170,4|2,0:0|1:2,0:0:0:0:
70,121,36618,1,0,3:0:0:0:
132,214,36811,1,0,3:0:0:0:
156,228,36907,1,0,3:0:0:0:
180,244,37003,6,0,L|196:336,1,85,4|0,0:2|0:0,0:0:0:0:
227,156,37387,1,2,3:2:0:0:
262,253,37580,2,0,P|220:256|180:244,1,85,0|2,1:0|0:0,0:0:0:0:
313,185,37964,2,0,P|337:219|345:261,1,85,0|0,1:0|3:0,0:0:0:0:
427,274,38349,6,0,P|407:191|359:122,1,170,6|0,1:2|1:0,0:0:0:0:
276,53,38926,1,0,3:0:0:0:
75,157,39118,2,0,B|129:165|161:134|161:134|201:130|235:150,1,170,2|0,0:2|1:0,0:0:0:0:
312,217,39695,2,0,P|356:212|395:190,1,85,0|2,3:0|0:0,0:0:0:0:
243,265,40080,6,0,L|256:358,1,85,4|0,1:2|0:0,0:0:0:0:
115,310,40464,1,0,3:0:0:0:
177,217,40657,2,0,L|200:48,1,170,2|0,1:2|1:0,0:0:0:0:
298,18,41234,1,0,3:0:0:0:
272,133,41426,6,0,P|189:141|110:101,1,170,2|0,1:2|1:0,0:0:0:0:
272,133,42003,2,0,P|312:134|356:150,1,85,0|4,3:0|0:0,0:0:0:0:
436,208,42387,1,0,1:0:0:0:
338,261,42580,1,0,1:0:0:0:
427,352,42772,1,4,3:2:0:0:
485,173,42964,1,0,3:0:0:0:
329,343,43157,6,0,B|270:338|270:338|219:353|219:353|146:346,1,170,4|0,1:2|3:0,0:0:0:0:
124,171,43734,2,0,P|113:212|115:255,1,85,2|0,0:0|1:0,0:0:0:0:
208,128,44118,2,0,P|218:86|217:44,1,85,2|0,1:2|3:2,0:0:0:0:
124,171,44503,6,0,P|196:216|276:193,1,170,6|0,1:2|1:0,0:0:0:0:
339,117,45080,1,0,3:0:0:0:
339,117,45464,2,0,P|294:109|258:84,1,85,2|0,1:2|1:0,0:0:0:0:
195,9,45849,1,2,3:2:0:0:
360,48,46041,1,0,0:0:0:0:
384,52,46137,1,0,3:0:0:0:
408,56,46234,6,0,L|496:52,1,85,4|0,0:0|0:0,0:0:0:0:
339,117,46618,1,0,3:0:0:0:
416,300,46811,2,0,P|448:224|408:152,1,170,2|0,1:2|1:0,0:0:0:0:
408,152,47387,1,0,3:0:0:0:
223,183,47580,6,0,P|184:169|148:147,1,85,4|2,0:0|0:0,0:0:0:0:
340,264,47964,2,0,P|384:280|420:304,1,85,4|0,3:2|1:0,0:0:0:0:
104,219,48349,6,0,P|121:180|148:147,1,85,4|2,0:0|0:0,0:0:0:0:
268,68,48734,1,0,1:0:0:0:
340,264,48926,2,0,L|336:304,20,21.25,6|0|0|0|0|0|0|0|0|0|0|0|0|0|0|0|0|0|0|0|0,0:0|0:0|0:0|0:0|0:0|0:0|0:0|0:0|0:0|0:0|0:0|0:0|0:0|0:0|0:0|0:0|0:0|0:0|0:0|0:0|0:0,0:0:0:0:
340,264,50080,5,2,1:2:0:0:
448,172,50272,1,4,1:2:0:0:
384,32,50464,1,2,0:2:0:0:
236,128,50657,2,0,B|199:129|172:109|172:109|139:157|90:164,1,170,4|2,0:0|0:0,0:0:0:0:
0,134,51234,1,0,3:0:0:0:
80,71,51426,1,2,0:0:0:0:
47,236,51618,2,0,P|75:204|90:164,1,85,0|0,1:0|1:0,0:0:0:0:
80,71,52003,1,0,3:0:0:0:
198,144,52195,6,0,P|189:213|171:289,1,127.5,2|0,1:2|0:0,0:0:0:0:
167,320,52580,1,0,1:0:0:0:
262,229,52772,2,0,P|304:229|343:247,1,85,0|0,3:0|0:0,0:0:0:0:
481,316,53157,5,2,1:2:0:0:
343,247,53349,1,0,1:0:0:0:
477,125,53541,1,0,3:0:0:0:
343,247,53734,2,0,B|274:257|223:208|223:208|170:234,1,170,2|2,1:2|1:2,0:0:0:0:
104,292,54311,2,0,P|64:280|28:252,1,85,0|2,3:0|0:0,0:0:0:0:
16,152,54695,1,0,1:0:0:0:
140,96,54887,1,0,1:0:0:0:
96,216,55080,1,0,3:0:0:0:
232,260,55272,6,0,P|276:252|312:216,1,85,4|0,0:0|0:0,0:0:0:0:
328,136,55657,1,0,1:0:0:0:
256,64,55849,1,0,3:0:0:0:
430,124,56041,2,0,L|444:210,1,85,4|0,0:0|0:0,0:0:0:0:
332,244,56426,2,0,L|318:330,1,85,0|0,1:0|3:0,0:0:0:0:
319,328,56811,1,2,0:0:0:0:
85,253,57003,6,0,P|77:165|112:84,1,170,4|0,0:0|3:0,0:0:0:0:
325,148,57580,2,0,P|333:236|298:317,1,170,4|0,0:0|1:0,0:0:0:0:
206,211,58157,1,0,3:0:0:0:
206,211,58349,1,2,0:0:0:0:
325,148,58541,6,0,P|380:120|494:119,1,170,4|0,0:0|3:0,0:0:0:0:
367,242,59118,2,0,P|283:244|206:211,1,170,4|0,0:0|1:0,0:0:0:0:
103,125,59695,1,0,3:0:0:0:
91,130,60080,6,0,B|90:177|55:229|55:229|72:253|72:288,1,170,4|0,0:0|3:0,0:0:0:0:
72,288,60657,1,2,0:0:0:0:
170,338,60849,2,0,P|212:330|257:302,2,85,0|0|0,1:0|1:0|3:0,0:0:0:0:
64,212,61426,6,0,P|136:168|219:158,1,170,4|0,0:2|1:0,0:0:0:0:
298,231,62003,1,0,3:0:0:0:
392,192,62195,1,4,0:2:0:0:
440,28,62387,5,2,0:0:0:0:
344,108,62580,1,0,1:0:0:0:
484,200,62772,1,2,3:2:0:0:
336,112,62964,2,0,B|289:120|253:98|234:57|234:57|190:91,1,170,4|0,0:0|1:0,0:0:0:0:
100,112,63541,2,0,P|58:91|27:57,1,85,0|2,3:0|0:0,0:0:0:0:
120,148,63926,2,0,L|107:241,1,85,0|2,1:0|1:2,0:0:0:0:
48,301,64311,1,0,3:0:0:0:
188,327,64503,6,0,B|229:344|287:315|287:315|307:357|352:351,1,170,2|0,1:2|1:0,0:0:0:0:
429,297,65080,2,0,P|433:253|424:209,1,85,0|0,3:0|0:0,0:0:0:0:
326,44,65464,5,2,1:2:0:0:
197,225,65657,1,0,1:0:0:0:
355,192,65849,1,2,3:2:0:0:
259,80,66041,2,0,B|248:159|248:159|282:193|274:244,1,170,4|0,0:0|1:0,0:0:0:0:
191,301,66618,2,0,P|147:295|112:270,1,85,0|2,3:0|0:0,0:0:0:0:
274,242,67003,2,0,P|290:283|286:325,1,85,0|2,1:0|1:2,0:0:0:0:
187,186,67387,1,0,3:0:0:0:
298,126,67580,6,0,L|394:118,1,85,4|2,0:0|0:0,0:0:0:0:
232,77,67964,2,0,L|147:84,1,85,0|0,1:0|3:0,0:0:0:0:
404,44,68349,2,0,P|455:114|426:186,1,170,4|0,0:0|1:0,0:0:0:0:
360,264,68926,1,0,3:0:0:0:
259,196,69118,1,2,0:0:0:0:
216,313,69311,6,0,L|44:319,1,170,4|0,0:0|3:0,0:0:0:0:
259,196,69887,2,0,L|428:190,1,170,4|0,0:0|1:0,0:0:0:0:
280,272,70464,1,0,3:0:0:0:
280,272,70657,1,2,0:0:0:0:
180,134,70849,6,0,P|109:120|28:180,1,170,4|0,0:0|3:0,0:0:0:0:
333,314,71426,2,0,P|404:328|485:268,1,170,4|0,0:0|1:0,0:0:0:0:
504,184,72003,1,0,3:0:0:0:
424,120,72195,1,2,0:0:0:0:
400,276,72387,6,0,L|420:372,1,85,4|0,0:0|0:0,0:0:0:0:
280,224,72772,2,0,L|264:140,1,85,0|2,3:0|0:0,0:0:0:0:
280,308,73157,2,0,P|237:297|209:268,1,85,0|0,1:0|1:0,0:0:0:0:
180,172,73541,1,0,3:0:0:0:
246,78,73734,6,0,P|297:143|280:223,1,170,2|0,1:2|1:0,0:0:0:0:
174,65,74311,2,0,P|196:27|235:9,1,85,0|2,3:2|0:0,0:0:0:0:
180,172,74695,1,0,1:0:0:0:
106,257,74887,1,0,1:0:0:0:
180,172,75080,1,0,3:0:0:0:
232,327,75272,1,2,0:0:0:0:
350,232,75464,6,0,P|376:153|328:86,1,170,4|0,0:2|3:0,0:0:0:0:
284,195,76041,2,0,P|273:237|287:277,1,85,2|0,0:0|1:0,0:0:0:0:
365,351,76426,1,0,1:0:0:0:
432,266,76618,1,0,3:0:0:0:
365,351,76811,6,0,L|186:341,1,170,4|0,0:0|1:0,0:0:0:0:
106,291,77387,1,0,3:0:0:0:
154,183,77580,1,2,0:0:0:0:
229,271,77772,2,0,P|271:262|307:236,1,85,0|2,3:0|3:2,0:0:0:0:
391,32,78157,2,0,P|349:41|313:67,1,85,0|2,3:0|3:2,0:0:0:0:
257,171,78541,5,4,1:2:0:0:
343,225,78734,1,2,0:0:0:0:
384,318,78926,1,0,3:0:0:0:
227,372,79118,2,0,P|164:303|181:232,1,170,2|0,1:2|1:0,0:0:0:0:
257,171,79695,1,0,3:0:0:0:
178,234,79887,1,2,0:0:0:0:
257,171,80080,6,0,P|266:124|254:67,1,85,0|2,1:0|0:0,0:0:0:0:
178,27,80464,1,0,3:0:0:0:
105,99,80657,2,0,B|116:160|76:216|76:216|104:256,1,170,2|0,1:2|1:0,0:0:0:0:
205,368,81234,2,0,P|211:327|201:286,1,85,0|2,3:0|0:0,0:0:0:0:
257,171,81618,6,0,L|347:157,1,85,4|2,1:2|0:0,0:0:0:0:
411,83,82003,1,0,3:0:0:0:
488,232,82195,2,0,P|456:252|404:248,1,85,4|0,1:2|0:0,0:0:0:0:
257,171,82580,1,0,1:0:0:0:
304,20,82772,1,0,3:0:0:0:
392,160,82964,1,2,0:0:0:0:
304,20,83157,6,0,P|300:64|312:116,1,85,0|2,1:2|0:0,0:0:0:0:
392,160,83541,1,2,3:3:0:0:
255,221,83734,2,0,L|159:229,1,85,4|2,1:2|0:0,0:0:0:0:
67,292,84118,1,0,1:0:0:0:
91,135,84311,1,4,3:2:0:0:
7,183,84503,1,2,0:0:0:0:
160,248,84695,6,0,P|208:256|244:276,1,85,4|2,1:2|0:0,0:0:0:0:
324,332,85080,1,0,3:0:0:0:
400,159,85272,2,0,P|394:201|376:240,1,85,4|2,1:2|0:0,0:0:0:0:
324,332,85657,1,0,1:0:0:0:
376,240,85849,1,0,3:0:0:0:
280,136,86041,1,0,0:0:0:0:
224,260,86234,6,0,L|136:268,1,85,2|0,1:2|0:0,0:0:0:0:
312,204,86618,1,0,3:0:0:0:
416,148,86811,2,0,P|424:104|412:64,1,85,4|2,1:2|0:0,0:0:0:0:
312,204,87195,2,0,P|304:248|316:288,1,85,0|2,1:2|3:2,0:0:0:0:
388,356,87580,1,2,0:0:0:0:
312,204,87772,6,0,P|224:200|152:248,1,170,0|0,1:2|3:0,0:0:0:0:
260,320,88349,2,0,L|236:236,1,85,0|2,1:0|0:0,0:0:0:0:
136,88,88734,2,0,L|112:169,1,85,0|0,1:0|3:0,0:0:0:0:
48,248,89118,1,2,0:0:0:0:
148,336,89311,6,0,B|206:317|212:269|212:269|245:292|283:284,1,170,0|0,1:0|3:0,0:0:0:0:
361,223,89887,1,0,1:0:0:0:
458,191,90080,1,2,0:0:0:0:
480,91,90272,1,0,1:0:0:0:
407,19,90464,1,0,3:0:0:0:
256,192,90657,12,0,93926,0:0:0:0:
