osu file format v14

[General]
AudioFilename: Rewrite CANOE.mp3
AudioLeadIn: 0
PreviewTime: 273355
Countdown: 0
SampleSet: Soft
StackLeniency: 0.7
Mode: 0
LetterboxInBreaks: 1
WidescreenStoryboard: 0

[Editor]
DistanceSpacing: 1
BeatDivisor: 4
GridSize: 4
TimelineZoom: 1

[Metadata]
Title:CANOE
TitleUnicode:CANOE
Artist:Tada Aoi
ArtistUnicode:多田葵
Creator:Azails
Version:Rewrite
Source:Rewrite
Tags:Rewrite Ending Key
BeatmapID:340712
BeatmapSetID:136087

[Difficulty]
HPDrainRate:6
CircleSize:4
OverallDifficulty:6
ApproachRate:8
SliderMultiplier:1.6
SliderTickRate:1

[Events]
//Background and Video events
0,0,"BG.jpg",0,0
//Break Periods
2,66441,89722
2,168172,188375
2,230479,250682
//Storyboard Layer 0 (Background)
//Storyboard Layer 1 (Fail)
//Storyboard Layer 2 (Pass)
//Storyboard Layer 3 (Foreground)
//Storyboard Sound Samples

[TimingPoints]
45088,384.615384615385,3,2,1,5,1,0
45088,-100,3,2,1,30,0,0
47395,-100,3,2,1,20,0,0
48549,-100,3,2,1,25,0,0
49703,-100,3,2,1,30,0,0
65857,-133.333333333333,3,2,1,35,0,0
66241,-100,3,2,1,5,0,0
90472,-133.333333333333,3,2,1,30,0,0
90857,384.615384615385,3,2,1,30,1,0
90857,-133.333333333333,3,2,1,40,0,0
105857,-100,3,2,1,45,0,1
129126,384.615384615385,3,2,1,45,1,1
143356,-100,3,2,1,5,0,1
144126,-100,3,2,1,40,0,0
167972,-100,3,2,1,5,0,0
188741,384.615384615385,3,2,1,40,1,0
230279,-100,3,2,1,5,0,0
250279,384.615384615385,3,2,1,40,1,0
273355,-100,3,2,1,30,0,0
274894,384.615384615385,3,2,1,45,1,1
291817,-100,3,2,1,40,0,0
293740,-100,3,2,1,45,0,1
298163,384.615384615385,3,2,1,45,1,1
312009,-100,3,2,1,40,0,0
316239,-100,3,2,1,5,0,0

[Colours]
Combo1 : 255,117,51
Combo2 : 153,67,248
Combo3 : 255,136,255
Combo4 : 49,170,242

[HitObjects]
256,192,42780,12,8,44703,0:0:0:0:
124,128,45088,6,0,P|179:160|263:128,1,160,0|0,0:0|0:0,0:0:0:0:
336,268,45857,1,0,0:0:0:0:
180,260,46241,1,0,0:0:0:0:
300,192,46626,2,0,B|356:168|424:200|420:276,1,160
141,332,47395,6,0,P|128:324|100:268,1,80,0|2,0:0|0:0,0:0:0:0:
180,260,47780,1,8,0:0:0:0:
236,192,47972,2,0,L|328:200,2,80,0|0|2,0:0|0:0|0:0,0:0:0:0:
260,72,48549,2,0,L|180:65,1,80,0|2,0:0|0:0,0:0:0:0:
132,132,48934,1,8,0:0:0:0:
260,72,49126,1,0,0:0:0:0:
236,192,49318,1,0,0:0:0:0:
236,192,49511,6,0,L|315:198,1,80,2|0,0:0|0:0,0:0:0:0:
384,252,49895,1,2,0:0:0:0:
484,168,50088,2,0,B|444:152|388:180,1,80,8|0,0:0|0:0,0:0:0:0:
236,192,50472,2,0,B|280:208|314:196,2,80,0|2|0,0:0|0:0|0:0,0:0:0:0:
180,64,51049,1,2,0:0:0:0:
252,96,51241,2,0,B|304:72|304:72|364:76|396:120,1,160,0|8,0:0|0:0,0:0:0:0:
252,96,52203,6,0,B|236:200,1,80,2|8,0:0|0:0,0:0:0:0:
308,235,52588,2,0,B|321:156,2,80,0|0|2,0:0|0:0|0:0,0:0:0:0:
216,292,53357,1,0,0:0:0:0:
368,348,53741,2,0,B|424:364|480:332,1,80,0|0,0:0|0:0,0:0:0:0:
388,232,54126,2,0,B|332:216|276:248,1,80,0|8,0:0|0:0,0:0:0:0:
216,292,54703,1,2,0:0:0:0:
216,292,55472,5,0,0:0:0:0:
176,224,55664,2,0,B|152:240|152:240|112:244|72:220,1,80,2|8,0:0|0:0,0:0:0:0:
136,80,56049,2,0,B|116:124|133:162,1,80,0|0,0:0|0:0,0:0:0:0:
252,192,56434,2,0,B|267:225|247:269,2,80,2|8|0,0:0|0:0|0:0,0:0:0:0:
208,124,57011,2,0,B|256:104|256:104|316:100|368:124,2,160,8|0|2,0:0|0:0|0:0,0:0:0:0:
131,157,57972,5,0,0:0:0:0:
64,112,58164,1,8,0:0:0:0:
64,112,58357,1,0,0:0:0:0:
304,260,58741,1,0,0:0:0:0:
380,226,58934,1,8,0:0:0:0:
448,272,59126,1,0,0:0:0:0:
432,116,59511,6,0,B|476:108|476:108|512:76,2,80,0|8|0,0:0|0:0|0:0,0:0:0:0:
452,196,60088,2,0,B|408:204|408:204|372:236,2,80,0|0|8,0:0|0:0|0:0,0:0:0:0:
448,272,60664,1,2,0:0:0:0:
448,272,60857,2,0,B|396:316|396:316|316:312|304:252,1,160,0|0,0:0|0:0,0:0:0:0:
256,192,61434,1,0,0:0:0:0:
196,104,61626,2,0,B|196:72|116:68|116:68|64:112,1,160,0|8,0:0|0:0,0:0:0:0:
4,184,62203,2,0,L|12:268,1,80
104,284,62588,1,0,0:0:0:0:
104,284,62780,2,0,L|96:200,2,80,2|0|0,0:0|0:0|0:0,0:0:0:0:
192,320,63357,1,0,0:0:0:0:
402,282,63549,6,0,B|380:280|352:256|352:256|304:288|256:256,1,160,8|0,0:0|0:0,0:0:0:0:
284,344,64126,1,0,0:0:0:0:
284,344,64318,2,0,P|320:256|300:192,1,160,0|2,0:0|0:0,0:0:0:0:
136,100,65088,1,0,0:0:0:0:
196,176,65280,2,0,L|361:154,1,160,0|0,0:0|0:0,0:0:0:0:
400,232,65857,6,0,L|264:249,1,120.000004577637,0|0,0:0|0:0,0:0:0:0:
160,232,90472,6,0,P|132:304|152:360,1,120.000004577637,0|2,0:0|0:0,0:0:0:0:
256,168,91241,1,8,0:0:0:0:
280,248,91433,1,0,0:0:0:0:
228,328,91626,2,0,L|144:344,1,60.0000022888184,0|0,0:0|0:0,0:0:0:0:
96,232,92010,2,0,L|180:216,1,60.0000022888184,0|0,0:0|0:0,0:0:0:0:
256,168,92395,1,0,0:0:0:0:
370,343,92780,6,0,P|380:304|352:232,2,120.000004577637,0|2|8,0:0|0:0|0:0,0:0:0:0:
288,300,93741,2,0,L|228:300,1,60.0000022888184,0|0,0:0|0:0,0:0:0:0:
352,232,94126,2,0,L|412:232,1,60.0000022888184,0|8,0:0|0:0,0:0:0:0:
440,148,94510,1,0,0:0:0:0:
388,72,94703,2,0,L|268:72,1,120.000004577637
192,208,95472,6,0,P|188:168|192:149,2,60.0000022888184,2|0|8,0:0|0:0|0:0,0:0:0:0:
284,240,96049,1,0,0:0:0:0:
284,240,96241,2,0,P|288:284|284:299,1,60.0000022888184
360,276,96626,2,0,L|420:276,1,60.0000022888184
472,216,97010,2,0,P|455:167|471:103,1,120.000004577637,0|0,0:0|0:0,0:0:0:0:
388,64,97587,1,0,0:0:0:0:
316,116,97779,2,0,P|264:128|192:112,1,120.000004577637,2|8,0:0|0:0,0:0:0:0:
199,115,98933,5,0,0:0:0:0:
40,200,99510,2,0,L|100:200,1,60.0000022888184,0|0,0:0|0:0,0:0:0:0:
244,308,100280,2,0,L|184:308,2,60.0000022888184,0|0|0,0:0|0:0|0:0,0:0:0:0:
128,352,100857,2,0,P|164:280|148:224,1,120.000004577637,0|0,0:0|0:0,0:0:0:0:
80,284,101433,5,0,0:0:0:0:
128,352,101626,1,8,0:0:0:0:
204,320,101818,2,0,P|240:316|284:328,1,60.0000022888184,0|0,0:0|0:0,0:0:0:0:
344,348,102203,2,0,P|364:352|403:348,1,60.0000022888184,0|0,0:0|0:0,0:0:0:0:
376,268,102587,1,0,0:0:0:0:
344,188,102780,2,0,P|336:160|348:104,1,60.0000022888184,0|0,0:0|0:0,0:0:0:0:
476,152,103164,2,0,L|400:148,2,60.0000022888184,0|0|8,0:0|0:0|0:0,0:0:0:0:
376,268,103933,1,0,0:0:0:0:
376,268,104318,6,0,P|312:280|252:256,1,120.000004577637,0|2,0:0|0:0,0:0:0:0:
292,96,105087,2,0,P|180:88|160:100,1,120.000004577637,0|2,0:0|0:0,0:0:0:0:
48,116,105857,1,4,0:0:0:0:
16,188,106049,1,0,0:0:0:0:
60,256,106241,1,8,0:0:0:0:
184,356,106626,6,0,P|272:328|328:356,1,160,0|8,0:0|0:0,0:0:0:0:
404,336,107203,2,0,L|472:336|472:336,2,40,2|0|0,0:0|0:0|0:0,0:0:0:0:
420,256,107587,1,0,0:0:0:0:
356,192,107780,2,0,P|352:144|368:108,1,80,0|0,0:0|0:0,0:0:0:0:
512,168,108164,2,0,L|424:160,1,80,4|0,0:0|0:0,0:0:0:0:
328,36,108549,2,0,L|416:44,1,80,8|0,0:0|0:0,0:0:0:0:
280,96,108933,2,0,L|192:88,1,80,0|0,0:0|0:0,0:0:0:0:
180,168,109318,6,0,L|104:160,2,40,2|0|0,0:0|0:0|0:0,0:0:0:0:
212,240,109703,2,0,P|220:284|208:328,1,80,8|0,0:0|0:0,0:0:0:0:
212,317,110087,1,0,0:0:0:0:
368,192,110472,6,0,B|432:200|432:200|476:232|480:288,2,160,4|8|0,0:0|0:0|0:0,0:0:0:0:
292,224,111433,1,0,0:0:0:0:
228,172,111626,2,0,P|212:136|216:92,2,80,8|0|0,0:0|0:0|0:0,0:0:0:0:
296,124,112203,1,0,0:0:0:0:
164,36,112396,2,0,P|124:32|76:48,1,80,0|0,0:0|0:0,0:0:0:0:
8,144,112781,1,4,0:0:0:0:
124,192,112973,2,0,P|132:156|124:104,1,80,0|8,0:0|0:0,0:0:0:0:
64,256,113358,2,0,P|100:280|152:276,1,80
196,228,113741,1,0,0:0:0:0:
268,200,113933,6,0,L|336:204,2,40,2|0|0,0:0|0:0|0:0,0:0:0:0:
292,276,114318,2,0,B|376:284|376:284|432:264|456:232,1,160,8|0,0:0|0:0,0:0:0:0:
416,72,115087,2,0,P|372:68|332:84,1,80,4|0,0:0|0:0,0:0:0:0:
260,116,115472,2,0,P|216:120|176:104,1,80,8|0,0:0|0:0,0:0:0:0:
228,40,115857,2,0,L|208:208,1,160,0|8,0:0|0:0,0:0:0:0:
256,264,116433,1,0,0:0:0:0:
200,324,116626,2,0,B|160:332|160:332|128:332|104:312,2,80
452,248,117395,6,0,L|456:160,1,80,4|0,0:0|0:0,0:0:0:0:
308,104,117780,2,0,L|304:192,1,80,8|0,0:0|0:0,0:0:0:0:
256,264,118164,1,0,0:0:0:0:
376,224,118357,1,0,0:0:0:0:
272,344,118549,2,0,P|220:336|188:308,1,80,8|0,0:0|0:0,0:0:0:0:
180,288,118837,1,0,0:0:0:0:
180,288,118933,2,0,L|176:204,1,80,0|0,0:0|0:0,0:0:0:0:
20,176,119318,2,0,L|24:260,1,80,0|0,0:0|0:0,0:0:0:0:
76,328,119703,6,0,B|126:344|174:324|174:324|228:348,1,160,0|0,0:0|0:0,0:0:0:0:
308,208,120472,2,0,P|380:180|454:207,2,160,0|0|0,0:0|0:0|0:0,0:0:0:0:
168,296,121626,2,0,L|272:288,2,80,0|0|8,0:0|0:0|0:0,0:0:0:0:
212,192,122203,2,0,L|132:198,1,80
80,260,122587,1,0,0:0:0:0:
0,252,122780,1,0,0:0:0:0:
168,296,123164,5,0,0:0:0:0:
168,296,123357,2,0,P|220:296|272:320,1,80,0|0,0:0|0:0,0:0:0:0:
312,352,123741,2,0,P|356:360|392:352,1,80,0|0,0:0|0:0,0:0:0:0:
444,284,124126,2,0,L|440:200,1,80,0|8,0:0|0:0,0:0:0:0:
324,156,124510,1,0,0:0:0:0:
324,156,124703,6,0,L|332:316,1,160,4|8,0:0|0:0,0:0:0:0:
252,316,125280,2,0,P|208:324|160:308,1,80,0|0,0:0|0:0,0:0:0:0:
104,220,125664,2,0,P|137:211|181:219,1,80,0|8,0:0|0:0,0:0:0:0:
324,156,126241,1,0,0:0:0:0:
284,80,126433,1,0,0:0:0:0:
348,28,126626,2,0,P|388:20|436:24,1,80,8|0,0:0|0:0,0:0:0:0:
284,80,127010,2,0,P|244:88|200:84,1,80,0|0,0:0|0:0,0:0:0:0:
128,60,127395,1,0,0:0:0:0:
60,104,127587,2,0,L|64:192,1,80,0|4,0:0|0:0,0:0:0:0:
63,183,127972,1,0,0:0:0:0:
136,220,128164,5,0,0:0:0:0:
151,232,128260,1,0,0:0:0:0:
167,244,128357,1,0,0:0:0:0:
183,256,128453,1,0,0:0:0:0:
199,269,128549,2,0,P|208:312|196:352,2,80,0|0|0,0:0|0:0|0:0,0:0:0:0:
260,208,129126,6,0,P|348:180|424:216,1,160,4|0,0:0|0:0,0:0:0:0:
161,305,129895,2,0,P|132:312|84:300,1,80
182,202,130280,2,0,P|212:196|260:208,1,80,8|0,0:0|0:0,0:0:0:0:
323,339,130664,2,0,L|320:260,1,80
404,152,131049,2,0,L|408:232,1,80
388,320,131433,2,0,P|300:344|239:320,1,160,4|0,0:0|0:0,0:0:0:0:
160,180,132202,6,0,L|168:264,1,80,0|0,1:0|0:0,0:0:0:0:
68,332,132587,2,0,L|60:248,2,80,2|0|0,0:0|0:0|0:0,0:0:0:0:
220,352,133356,2,0,P|264:344|320:364,1,80
344,259,133741,6,0,L|352:180,1,80,4|0,1:0|0:0,0:0:0:0:
451,252,134126,2,0,L|444:332,2,80
488,180,134702,1,0,0:0:0:0:
452,108,134895,2,0,P|380:84|301:106,1,160,4|0,0:0|0:0,0:0:0:0:
288,192,135472,1,0,1:0:0:0:
344,260,135664,2,0,L|260:276,1,80,0|0,0:0|0:0,0:0:0:0:
376,344,136049,2,0,L|460:328,1,80,8|0,0:0|0:0,0:0:0:0:
488,236,136433,1,0,0:0:0:0:
440,148,136626,2,0,L|361:162,1,80,0|0,0:0|0:0,0:0:0:0:
288,192,137010,1,0,0:0:0:0:
215,158,137202,6,0,P|195:218|219:311,2,160,4|8|0,0:0|0:0|0:0,0:0:0:0:
288,192,138164,1,0,0:0:0:0:
288,192,138356,2,0,P|300:152|288:104,2,80,8|0|0,0:0|0:0|0:0,0:0:0:0:
356,328,138933,2,0,L|264:316,1,80,0|0,0:0|0:0,0:0:0:0:
288,192,139318,2,0,L|367:202,1,80,0|8,0:0|0:0,0:0:0:0:
224,136,139702,1,0,0:0:0:0:
148,160,139895,2,0,L|68:149,2,80
204,212,140472,2,0,P|212:272|192:320,1,80,0|0,0:0|0:0,0:0:0:0:
256,192,140856,12,0,143356,0:0:0:0:
96,52,144510,6,0,L|52:44,2,40,0|0|0,0:0|0:0|0:0,0:0:0:0:
160,100,144895,1,0,0:0:0:0:
232,64,145087,1,0,0:0:0:0:
228,144,145279,6,0,P|248:220|228:300,1,160,4|8,0:0|0:0,0:0:0:0:
164,252,145856,2,0,P|152:292|176:360,1,80,0|0,0:0|0:0,0:0:0:0:
354,329,146241,2,0,P|360:292|348:252,1,80,0|8,0:0|0:0,0:0:0:0:
256,220,146626,1,0,0:0:0:0:
280,296,146818,1,0,0:0:0:0:
355,329,147010,2,0,L|439:332,2,80
428,184,147587,6,0,L|348:181,1,80,8|0,0:0|0:0,0:0:0:0:
256,220,147972,1,0,0:0:0:0:
268,120,148164,1,0,0:0:0:0:
184,204,148356,2,0,P|140:208|92:184,1,80,0|0,0:0|1:2,0:0:0:0:
76,76,148741,2,0,P|120:72|168:96,1,80,8|0,0:0|1:2,0:0:0:0:
268,120,149126,2,0,P|316:124|360:100,1,80,0|0,0:0|1:2,0:0:0:0:
372,24,149510,6,0,L|364:220,2,160,0|8|0,0:0|0:0|0:0,0:0:0:0:
452,64,150472,2,0,L|448:170,1,80
365,183,150856,1,0,0:0:0:0:
310,250,151049,1,0,0:0:0:0:
226,246,151241,1,0,0:0:0:0:
422,298,151626,6,0,P|460:292|506:298,1,80,0|0,0:0|0:0,0:0:0:0:
342,326,152010,2,0,P|296:332|260:316,1,80,0|0,0:0|0:0,0:0:0:0:
226,246,152395,1,0,0:0:0:0:
182,362,152587,1,0,0:0:0:0:
100,272,152779,1,0,0:0:0:0:
100,272,152972,2,0,B|58:224|68:151|110:124,1,160,0|8,0:0|0:0,0:0:0:0:
305,180,153549,2,0,P|309:224|297:257,1,80,0|0,0:0|0:0,0:0:0:0:
229,213,153933,2,0,L|150:205,2,80
366,70,154510,5,8,0:0:0:0:
428,120,154702,2,0,P|440:160|436:208,1,80,0|0,0:0|0:0,0:0:0:0:
364,312,155087,2,0,P|352:268|356:224,1,80,0|0,0:0|0:0,0:0:0:0:
268,272,155472,1,0,0:0:0:0:
268,272,155664,6,0,P|200:296|117:272,1,160,8|0,0:0|0:0,0:0:0:0:
8,196,156241,2,0,P|56:184|96:208,1,80,0|0,0:0|0:0,0:0:0:0:
256,128,156626,2,0,P|212:140|168:128,1,80,0|8,0:0|0:0,0:0:0:0:
212,56,157010,1,0,0:0:0:0:
132,64,157202,1,0,0:0:0:0:
68,16,157395,2,0,P|40:56|40:92,1,80,0|0,0:0|0:0,0:0:0:0:
100,136,157779,2,0,L|208:148|208:148,1,80,0|8,0:0|0:0,0:0:0:0:
208,232,158164,2,0,B|236:235|128:223,2,80
180,308,158741,6,0,P|272:332|328:308,2,160,0|8|0,0:0|0:0|0:0,0:0:0:0:
140,224,159702,2,0,P|92:236|48:224,1,80,0|0,0:0|0:0,0:0:0:0:
112,104,160087,2,0,P|160:92|204:104,2,80
268,136,160664,2,0,P|316:152|360:136,1,80,0|0,0:0|0:0,0:0:0:0:
400,76,161049,1,0,0:0:0:0:
316,68,161241,1,0,0:0:0:0:
464,128,161433,6,0,P|488:164|488:220,1,80,8|0,0:0|0:0,0:0:0:0:
460,272,161818,1,0,0:0:0:0:
380,260,162010,2,0,P|336:248|280:260,2,80
336,324,162587,2,0,L|344:132,1,160,8|0,0:0|0:0,0:0:0:0:
264,120,163164,2,0,L|261:199,1,80
184,136,163549,1,0,0:0:0:0:
184,136,163741,2,0,P|96:148|20:124,1,160,4|8,0:0|0:0,0:0:0:0:
256,192,164318,12,0,167972,0:0:0:0:
104,256,189125,6,0,L|108:172,1,80,8|0,0:0|0:0,0:0:0:0:
208,132,189510,2,0,L|204:216,1,80,0|0,0:0|0:0,0:0:0:0:
256,272,189894,1,0,0:0:0:0:
336,268,190087,2,0,P|380:256|408:224,1,80,0|0,0:0|0:0,0:0:0:0:
448,96,190471,2,0,P|404:108|376:140,1,80,0|0,0:0|0:0,0:0:0:0:
332,192,190856,1,0,0:0:0:0:
208,212,191048,6,0,P|168:204|132:156,1,80,8|0,0:0|0:0,0:0:0:0:
144,72,191433,2,0,P|184:80|220:128,1,80,0|0,0:0|0:0,0:0:0:0:
280,176,191817,2,0,L|276:256,1,80,0|0,0:0|0:0,0:0:0:0:
392,224,192202,2,0,L|396:144,1,80,8|0,0:0|0:0,0:0:0:0:
328,28,192587,2,0,L|324:112,1,80,0|0,0:0|0:0,0:0:0:0:
240,104,192971,2,0,L|243:24,1,80,0|0,0:0|0:0,0:0:0:0:
168,56,193356,6,0,P|88:72|12:48,1,160,4|8,0:0|0:0,0:0:0:0:
14,49,193933,1,0,0:0:0:0:
28,136,194125,1,0,0:0:0:0:
28,136,194317,2,0,L|36:232,1,80,0|8,0:0|0:0,0:0:0:0:
84,288,194702,1,0,0:0:0:0:
100,300,194798,1,0,0:0:0:0:
120,312,194894,2,0,P|160:320|212:304,1,80,0|0,0:0|0:0,0:0:0:0:
276,260,195279,2,0,P|313:251|353:259,1,80,0|0,0:0|0:0,0:0:0:0:
312,340,195664,6,0,L|316:152,1,160,4|8,0:0|0:0,0:0:0:0:
344,96,196241,1,0,0:0:0:0:
420,64,196433,2,0,P|476:64|512:80,1,80,0|0,0:0|0:0,0:0:0:0:
344,96,196817,2,0,P|288:96|252:80,1,80,8|0,0:0|0:0,0:0:0:0:
248,76,197106,1,0,0:0:0:0:
232,64,197202,2,0,P|192:60|148:68,1,80,0|0,0:0|0:0,0:0:0:0:
48,104,197587,2,0,L|44:264,1,160,0|8,0:0|0:0,0:0:0:0:
300,140,198356,6,0,L|298:240,1,80,0|0,0:0|0:0,0:0:0:0:
200,280,198741,2,0,L|201:200,1,80,0|0,0:0|0:0,0:0:0:0:
396,196,199125,2,0,L|394:296,2,80,8|0|0,0:0|0:0|0:0,0:0:0:0:
444,132,199702,2,0,P|404:88|372:80,1,80
332,24,200087,1,0,0:0:0:0:
332,24,200279,2,0,P|256:48|182:23,1,160,4|8,0:0|0:0,0:0:0:0:
128,88,200856,5,0,0:0:0:0:
56,52,201048,2,0,P|48:80|68:144,1,80,0|0,0:0|0:0,0:0:0:0:
122,213,201433,2,0,P|164:272|128:352,1,160,8|0,0:0|0:0,0:0:0:0:
80,284,202010,1,0,0:0:0:0:
133,347,202202,1,0,0:0:0:0:
204,320,202394,2,0,P|248:312|288:320,1,80,0|0,0:0|0:0,0:0:0:0:
364,344,202779,2,0,P|384:348|408:344,2,40,0|0|0,0:0|0:0|0:0,0:0:0:0:
384,264,203164,1,0,0:0:0:0:
344,188,203356,2,0,P|340:132|356:104,1,80,0|0,0:0|0:0,0:0:0:0:
412,156,203741,6,0,L|220:144,2,160,8|0|0,0:0|0:0|0:0,0:0:0:0:
448,84,204702,1,0,0:0:0:0:
392,28,204894,1,8,0:0:0:0:
312,48,205087,1,0,0:0:0:0:
292,56,205183,1,0,0:0:0:0:
272,56,205279,1,0,0:0:0:0:
196,28,205471,2,0,P|200:84|220:112,2,80
272,56,206048,2,0,L|248:224,2,160,8|0|0,0:0|0:0|0:0,0:0:0:0:
120,288,207202,6,0,P|200:264|269:288,1,160,4|8,0:0|0:0,0:0:0:0:
352,268,207779,2,0,P|372:232|372:184,1,80,0|0,0:0|0:0,0:0:0:0:
316,128,208164,1,0,0:0:0:0:
292,208,208356,1,8,0:0:0:0:
352,268,208548,2,0,L|432:280,1,80,0|0,0:0|0:0,0:0:0:0:
480,160,208933,2,0,L|400:148,1,80,0|0,0:0|0:0,0:0:0:0:
316,128,209317,1,0,0:0:0:0:
268,60,209510,5,4,0:0:0:0:
196,104,209702,1,0,0:0:0:0:
244,172,209894,1,8,0:0:0:0:
196,20,210086,1,0,0:0:0:0:
116,116,210279,2,0,L|104:195,1,80,0|0,0:0|0:0,0:0:0:0:
233,252,210664,2,0,L|244:172,2,80,8|0|0,0:0|0:0|0:0,0:0:0:0:
316,128,211240,1,0,0:0:0:0:
400,132,211433,2,0,P|440:148|468:184,1,80,0|0,0:0|0:0,0:0:0:0:
384,352,211817,6,0,P|348:272|392:212,1,160,4|8,0:0|0:0,0:0:0:0:
432,284,212394,1,0,0:0:0:0:
384,352,212586,1,0,0:0:0:0:
308,320,212778,2,0,P|268:312|223:322,1,80,0|8,0:0|0:0,0:0:0:0:
152,340,213163,2,0,P|108:348|56:324,1,80
116,264,213548,1,0,0:0:0:0:
160,196,213741,2,0,P|168:152|148:112,1,80
8,172,214125,5,4,0:0:0:0:
8,172,214317,2,0,L|96:164,1,80
196,40,214702,2,0,L|112:48,2,80
184,120,215279,2,0,B|256:112|256:112|308:124|352:164,1,160,8|0,0:0|0:0,0:0:0:0:
392,208,215856,2,0,L|471:200,2,80
312,228,216433,5,4,0:0:0:0:
248,176,216625,2,0,P|232:136|236:96,1,80,0|0,0:0|0:0,0:0:0:0:
316,128,217010,1,0,0:0:0:0:
184,40,217202,2,0,P|140:36|96:52,1,80,0|0,0:0|0:0,0:0:0:0:
28,148,217587,1,8,0:0:0:0:
144,196,217779,2,0,P|156:152|144:108,1,80,0|0,0:0|0:0,0:0:0:0:
84,260,218164,2,0,P|104:276|172:272,1,80
224,236,218548,6,0,L|303:228,1,80,0|4,0:0|0:0,0:0:0:0:
368,180,218933,2,0,P|384:220|372:264,1,80,0|8,0:0|0:0,0:0:0:0:
328,320,219317,1,0,0:0:0:0:
248,324,219510,2,0,L|168:331,1,80
104,284,219894,2,0,P|88:244|96:200,1,80,8|0,0:0|0:0,0:0:0:0:
68,132,220279,2,0,P|112:128|152:144,1,80
224,128,220664,2,0,P|264:136|308:116,1,80,0|0,0:0|0:0,0:0:0:0:
256,60,221048,6,0,L|276:232,1,160,4|8,0:0|0:0,0:0:0:0:
274,218,221625,1,0,0:0:0:0:
344,256,221817,1,0,0:0:0:0:
328,336,222010,2,0,P|384:328|416:300,1,80,0|8,0:0|0:0,0:0:0:0:
480,304,222394,2,0,L|484:224,1,80,0|0,0:0|0:0,0:0:0:0:
348,176,222779,2,0,L|344:256,2,80
304,108,223356,6,0,P|236:88|152:120,1,160,4|8,0:0|0:0,0:0:0:0:
100,180,223933,1,0,0:0:0:0:
20,180,224125,2,0,P|40:232|64:248,1,80,0|0,0:0|0:0,0:0:0:0:
132,284,224510,1,8,0:0:0:0:
208,244,224702,2,0,L|216:328,1,80,0|0,0:0|0:0,0:0:0:0:
300,244,225087,2,0,L|292:164,2,80
372,204,225664,6,0,B|436:220|436:220|476:216|520:176,1,160,4|8,0:0|0:0,0:0:0:0:
468,112,226241,1,0,0:0:0:0:
496,36,226433,2,0,P|452:32|416:48,1,80
384,120,226817,2,0,B|320:104|320:104|280:108|236:148,1,160,8|0,0:0|0:0,0:0:0:0:
172,200,227394,1,0,0:0:0:0:
92,168,227587,2,0,P|84:208|100:256,2,80,0|0|4,0:0|0:0|0:0,0:0:0:0:
256,192,228164,12,0,230279,0:0:0:0:
112,93,251432,6,0,P|151:91|191:107,1,80,8|0,0:0|0:0,0:0:0:0:
196,124,251721,1,0,0:0:0:0:
204,144,251817,2,0,P|244:160|283:158,1,80,0|0,0:0|0:0,0:0:0:0:
368,132,252202,1,0,0:0:0:0:
256,80,252394,1,0,0:0:0:0:
348,56,252586,6,0,P|396:56|436:88,1,80,8|0,0:0|0:0,0:0:0:0:
436,104,252875,1,0,0:0:0:0:
436,104,252971,2,0,L|424:204|424:204,1,80,0|0,0:0|0:0,0:0:0:0:
344,216,253355,1,0,0:0:0:0:
280,159,253548,1,0,0:0:0:0:
264,240,253740,6,0,P|216:240|184:228,1,80,8|0,0:0|0:0,0:0:0:0:
176,212,254029,1,0,0:0:0:0:
168,196,254125,2,0,L|84:192,1,80,0|0,0:0|0:0,0:0:0:0:
52,112,254509,1,0,0:0:0:0:
112,48,254702,2,0,P|164:36|208:52,1,80,0|8,0:0|0:0,0:0:0:0:
280,160,255086,5,0,0:0:0:0:
280,160,255182,1,0,0:0:0:0:
280,160,255279,2,0,P|232:172|184:156,1,80,0|0,0:0|0:0,0:0:0:0:
236,84,255663,1,0,0:0:0:0:
324,84,255855,2,0,P|360:120|364:147,1,80,0|8,0:0|0:0,0:0:0:0:
280,160,256240,5,0,0:0:0:0:
332,232,256432,2,0,P|376:240|408:228,1,80,0|0,0:0|0:0,0:0:0:0:
324,84,256817,2,0,P|280:76|247:87,1,80,0|0,0:0|0:0,0:0:0:0:
176,140,257202,1,8,0:0:0:0:
88,124,257394,1,0,1:0:0:0:
46,235,257586,1,0,0:0:0:0:
46,235,257779,2,0,P|60:220|116:208,1,80,0|0,1:0|0:0,0:0:0:0:
108,284,258163,1,0,1:0:0:0:
184,256,258355,6,0,B|248:272|248:272|296:272|368:236,2,160,4|0|0,0:0|0:0|0:0,0:0:0:0:
160,120,259317,2,0,P|148:76|160:28,2,80,0|8|0,0:0|0:0|0:0,0:0:0:0:
252,168,259893,1,0,0:0:0:0:
272,64,260086,1,0,0:0:0:0:
368,116,260279,2,0,P|396:108|444:120,1,80
400,200,260663,5,8,0:0:0:0:
440,280,260855,2,0,L|468:324,2,40
360,324,261240,2,0,P|332:332|284:320,1,80
204,336,261625,2,0,L|184:244,1,80,0|8,0:0|0:0,0:0:0:0:
112,280,262009,2,0,L|120:319,2,40
84,204,262394,2,0,P|52:184|8:184,1,80
28,264,262779,1,0,0:0:0:0:
187,257,262971,5,8,0:0:0:0:
172,180,263163,2,0,P|175:138|187:117,2,40
252,172,263548,2,0,P|296:172|348:200,1,80,0|0,0:0|0:0,0:0:0:0:
384,244,263932,2,0,P|424:246|464:234,1,80,0|8,0:0|0:0,0:0:0:0:
424,164,264317,2,0,L|400:120,2,40,0|0|0,0:0|0:0|0:0,0:0:0:0:
320,188,264702,2,0,P|300:220|304:272,1,80,0|0,0:0|0:0,0:0:0:0:
336,332,265086,2,0,B|304:348|304:348|244:336,1,80,0|8,0:0|0:0,0:0:0:0:
180,324,265471,6,0,L|104:344,2,40
208,248,265855,1,0,0:0:0:0:
144,200,266048,1,0,0:0:0:0:
176,128,266240,2,0,L|96:116,1,80,0|8,0:0|0:0,0:0:0:0:
36,288,266625,2,0,L|116:276,1,80,8|2,0:0|0:0,0:0:0:0:
244,176,267009,1,8,0:0:0:0:
368,284,267202,2,0,L|288:296,1,80,8|2,0:0|0:0,0:0:0:0:
316,140,267586,6,0,B|366:156|414:136|414:136|468:160,1,160,4|0,0:0|0:0,0:0:0:0:
448,256,268163,2,0,P|452:304|424:344,2,80
348,276,268740,2,0,B|294:252|294:252|246:272|196:256,2,160,8|0|0,0:0|0:0|0:0,0:0:0:0:
208,96,269894,5,2,0:0:0:0:
131,200,270087,1,0,0:0:0:0:
131,71,270279,1,0,0:0:0:0:
208,176,270471,1,0,0:0:0:0:
83,136,270663,2,0,P|56:160|56:224,1,80
196,268,271048,1,8,0:0:0:0:
352,56,273355,5,8,0:0:0:0:
432,120,273547,2,0,P|444:164|432:204,1,80,0|0,0:0|0:0,0:0:0:0:
344,328,273932,2,0,P|332:288|340:240,1,80,0|0,0:0|0:0,0:0:0:0:
364,164,274316,1,0,0:0:0:0:
412,280,274509,1,8,0:0:0:0:
336,250,274702,1,0,0:0:0:0:
256,280,274894,6,0,P|184:256|96:284,1,160,4|8,0:0|0:0,0:0:0:0:
80,192,275470,2,0,P|40:204|0:192,2,80
40,120,276047,1,8,0:0:0:0:
105,277,276240,1,0,0:0:0:0:
176,216,276432,2,0,P|168:172|184:132,1,80,2|0,0:0|0:0,0:0:0:0:
336,168,276817,2,0,P|344:212|328:252,1,80,0|0,0:0|0:0,0:0:0:0:
268,200,277201,6,0,L|436:220,1,160,4|2,0:0|0:0,0:0:0:0:
426,218,277778,1,0,0:0:0:0:
488,272,277970,2,0,P|504:316|496:360,1,80,0|0,0:0|0:0,0:0:0:0:
428,220,278355,2,0,P|412:176|420:132,2,80,8|0|0,0:0|0:0|0:0,0:0:0:0:
344,333,279124,6,0,B|324:336|424:324,1,80,0|0,0:0|0:0,0:0:0:0:
296,247,279509,2,0,B|203:258|224:256,1,80,4|0,0:0|0:0,0:0:0:0:
152,296,279893,2,0,P|140:256|148:219,1,80,8|0,0:0|0:0,0:0:0:0:
148,52,280278,2,0,P|164:92|156:126,1,80,0|0,0:0|0:0,0:0:0:0:
76,100,280662,1,8,0:0:0:0:
148,52,280855,1,0,0:0:0:0:
232,60,281047,2,0,P|264:80|284:120,1,80,2|0,0:0|0:0,0:0:0:0:
260,200,281432,2,0,P|244:240|260:296,1,80,0|0,0:0|0:0,0:0:0:0:
488,252,281817,6,0,L|320:248,1,160,4|2,0:0|0:0,0:0:0:0:
260,200,282394,1,0,0:0:0:0:
200,260,282586,2,0,P|152:272|108:260,1,80
112,104,282970,2,0,P|160:92|204:104,2,80,8|0|0,0:0|0:0|0:0,0:0:0:0:
268,136,283547,2,0,P|316:148|360:136,1,80,0|0,0:0|0:0,0:0:0:0:
400,76,283932,1,0,0:0:0:0:
316,68,284124,6,0,L|304:252,1,160,4|8,0:0|0:0,0:0:0:0:
396,216,284701,2,0,P|444:212|473:222,1,80,0|0,0:0|0:0,0:0:0:0:
340,304,285086,2,0,P|292:308|262:297,2,80,0|8|0,0:0|0:0|0:0,0:0:0:0:
428,288,285663,1,2,0:0:0:0:
396,364,285855,1,0,0:0:0:0:
340,304,286047,1,0,0:0:0:0:
192,344,286240,1,0,0:0:0:0:
192,344,286432,6,0,B|208:300|184:236|184:236|204:164,1,160,4|2,0:0|0:0,0:0:0:0:
278,222,287009,2,0,P|319:234|373:211,1,80
232,115,287394,2,0,P|194:104|156:116,2,80,0|8|0,0:0|0:0|0:0,0:0:0:0:
232,116,287970,1,0,0:0:0:0:
296,52,288163,2,0,P|308:64|320:128,1,80
278,222,288547,1,0,0:0:0:0:
278,222,288740,2,0,B|337:248|337:248|389:244|425:216,1,160,4|8,0:0|0:0,0:0:0:0:
471,320,289317,5,0,0:0:0:0:
468,236,289509,2,0,L|465:149,1,80,0|0,0:0|0:0,0:0:0:0:
344,92,289894,2,0,L|346:171,1,80,8|0,0:0|0:0,0:0:0:0:
278,222,290278,1,2,0:0:0:0:
200,232,290470,2,0,P|156:220|128:188,1,80,0|0,0:0|0:0,0:0:0:0:
208,136,290855,1,0,0:0:0:0:
208,136,291047,2,0,B|172:108|120:104|120:104|60:130,2,160,4|0|0,0:0|0:0|0:0,0:0:0:0:
388,192,292201,5,8,0:0:0:0:
372,272,292394,2,0,P|432:268|452:248,1,80
445,127,292778,1,0,0:0:0:0:
445,127,292970,2,0,P|432:116|372:112,1,80
388,192,293355,2,0,L|356:356,1,160,8|4,0:0|0:0,0:0:0:0:
256,356,293932,6,0,L|276:272,1,80,0|8,0:0|0:0,0:0:0:0:
196,240,294317,2,0,L|177:317,2,80
156,160,294894,2,0,B|120:132|68:128|68:128|8:154,2,160,8|2|0,0:0|0:0|0:0,0:0:0:0:
300,104,295856,2,0,P|340:96|388:100,1,80,0|4,0:0|0:0,0:0:0:0:
236,156,296240,2,0,P|196:164|152:160,1,80,0|2,0:0|0:0,0:0:0:0:
64,120,296625,1,0,0:0:0:0:
76,224,296817,2,0,L|84:312,1,80,8|0,0:0|0:0,0:0:0:0:
172,336,297201,5,0,0:0:0:0:
189,340,297297,1,0,0:0:0:0:
208,348,297394,1,0,0:0:0:0:
225,355,297490,1,0,0:0:0:0:
246,361,297586,2,0,P|296:364|328:352,2,80
276,248,298163,6,0,B|312:220|364:216|364:216|424:242,1,160,0|8,0:0|0:0,0:0:0:0:
512,108,298932,1,0,0:0:0:0:
512,108,299124,1,0,0:0:0:0:
512,108,299316,2,0,B|476:136|424:140|424:140|364:114,1,160,8|2,0:0|0:0,0:0:0:0:
276,112,299893,1,0,0:0:0:0:
208,172,300086,2,0,P|140:188|124:204,1,80
200,268,300470,2,0,P|288:292|349:268,1,160,4|2,0:0|0:0,0:0:0:0:
428,228,301047,1,0,0:0:0:0:
428,228,301239,6,0,L|420:307,1,80,0|0,0:0|0:0,0:0:0:0:
352,188,301624,2,0,L|360:104,2,80,8|0|0,0:0|0:0|0:0,0:0:0:0:
340,272,302201,1,0,0:0:0:0:
288,344,302393,2,0,P|244:352|188:332,1,80,8|0,0:0|0:0,0:0:0:0:
140,292,302778,2,0,P|106:284|62:292,1,80,4|0,0:0|0:0,0:0:0:0:
16,216,303163,1,8,0:0:0:0:
36,132,303355,2,0,L|29:52,2,80
124,140,303932,6,0,B|160:168|212:172|212:172|272:146,1,160,8|2,0:0|0:0,0:0:0:0:
344,192,304509,1,0,1:0:0:0:
432,192,304701,2,0,P|448:212|448:288,1,80
412,340,305086,2,0,L|320:352,1,80,4|0,0:0|0:0,0:0:0:0:
296,264,305470,2,0,L|375:253,2,80,2|0|0,0:0|0:0|0:0,0:0:0:0:
220,308,306047,1,0,0:0:0:0:
132,296,306239,6,0,B|76:268|76:268|36:288|-20:276,2,160,8|0|0,0:0|0:0|0:0,0:0:0:0:
152,208,307201,1,0,0:0:0:0:
152,208,307393,2,0,P|196:224|216:256,2,80,4|0|8,0:0|0:0|0:0,0:0:0:0:
76,164,307970,2,0,P|32:148|12:116,1,80
92,84,308355,2,0,L|192:68,1,80,0|8,0:0|0:0,0:0:0:0:
280,144,308739,2,0,L|201:156,2,80,0|2|0,0:0|0:0|0:0,0:0:0:0:
340,196,309316,2,0,P|364:228|352:296,1,80,0|0,0:0|0:0,0:0:0:0:
300,312,309701,6,0,L|457:284,1,160,4|8,0:0|0:0,0:0:0:0:
420,184,310278,2,0,L|341:196,2,80
504,168,310855,2,0,B|516:216|480:252|480:252|392:268,1,160,2|0,0:0|0:0,0:0:0:0:
328,252,311432,2,0,P|340:312|360:332,1,80
384,176,311816,2,0,P|372:116|352:96,1,80,0|4,0:0|0:0,0:0:0:0:
256,192,312201,12,0,316239,0:0:0:0:
