osu file format v4

[General]
AudioFilename: 05.Tackle-GrassStains.mp3
AudioLeadIn: 0
AudioHash: 138655d78f7ec2d5f1a08f6754fc7514
PreviewTime: -1
SampleSet: Normal
EditorBookmarks: 23660,46501,57831,81063,90976,115848,126994,166262

[Metadata]
Title:Grass Stains
Artist:Tackle
Creator:awp
Version:Hard

[Difficulty]
HPDrainRate:7
CircleSize:6
OverallDifficulty:6
SliderMultiplier: 1.8
SliderTickRate: 1

[Events]
0,0,"cs.png"
2,46521,57291
2,81082,90287
2,116048,126304
3,0,0,0,0

[TimingPoints]
23660,359.704435121368,4,1,0
69709,360.46860919195,4,1,0
115857,359.281437125748,4,1,0
138860,360.555255092843,4,1,0

[HitObjects]
80,64,23660,1,0,
128,96,23839,1,0,
224,48,24199,1,0,
256,96,24379,1,0,
288,48,24559,1,0,
400,48,24918,1,0,
432,96,25098,1,0,
400,144,25278,1,0,
400,256,25638,1,0,
304,304,25998,2,0,B|304:304|266:337|205:297,2,90
304,240,26537,5,0,
192,240,27077,2,0,B|192:240|112:320,1,90
112,176,27796,2,0,B|112:176|32:256,1,90
336,128,29415,5,2,
368,176,29595,1,0,
256,208,29954,1,0,
224,160,30134,1,2,
192,208,30314,1,0,
96,208,30674,1,0,
64,160,30854,1,2,
32,240,31123,1,2,
32,320,31393,1,2,
128,320,31753,2,0,B|128:320|183:316|208:256,1,90
208,208,32113,1,0,
208,128,32292,5,4,
320,128,32832,1,0,
320,128,32922,1,0,
320,128,33012,1,4,
384,224,33551,1,0,
384,224,33640,1,0,
384,224,33730,1,4,
192,80,35170,5,0,
240,112,35350,1,0,
192,144,35530,1,0,
240,176,35710,1,2,
240,320,36069,5,0,
288,288,36249,1,0,
336,320,36429,1,2,
432,224,36789,5,0,
384,192,36969,1,0,
432,160,37148,1,2,
240,80,37688,1,4,
96,80,38048,5,0,
96,144,38228,2,0,B|96:144|96:208,1,90
96,304,38587,1,2,
224,304,38947,2,0,B|224:304|304:304,1,90
368,304,39307,2,2,B|368:304|473:297|464:176,2,180
336,208,40386,1,0,
336,208,40476,1,0,
336,208,40566,1,4,
240,128,40925,5,0,
192,96,41105,1,0,
144,128,41285,1,0,
192,160,41465,1,0,
144,240,41825,5,0,
192,272,42004,1,0,
240,240,42184,1,0,
304,160,42544,5,0,
352,128,42724,1,0,
304,96,42904,1,2,
144,128,43443,1,0,
144,256,43803,5,0,
224,208,44163,2,0,B|224:208|256:240,1,90
352,208,44882,2,0,B|352:208|288:272,1,90
256,240,45242,1,2,
176,176,45601,1,2,
176,240,45781,1,2,
64,240,46141,1,0,
64,176,46321,1,4,
64,144,58191,5,0,
112,176,58371,2,0,B|112:176|160:128,1,90
208,80,58731,1,4,
224,176,59090,6,0,B|224:176|272:128,1,90
320,80,59450,1,4,
352,176,59810,6,0,B|352:176|416:112,1,90
448,80,60170,1,4,
256,64,60709,1,0,
256,192,61069,5,0,
192,192,61249,1,0,
128,192,61428,1,0,
160,240,61608,1,4,
288,240,61968,1,0,
352,240,62148,1,0,
320,192,62328,1,2,
320,96,62687,1,2,
256,144,63047,1,2,
192,208,63407,1,0,
192,208,63497,1,0,
192,208,63587,1,4,
256,320,63946,5,0,
216,259,64126,2,0,B|216:259|256:226|311:265,2,90
213,193,64846,2,0,B|213:193|253:160|308:199,2,90
212,121,65565,2,0,B|212:121|252:88|307:127,2,90
256,288,66464,5,0,
176,192,66824,1,0,
256,128,67184,1,0,
288,160,67364,1,0,
368,128,67903,1,0,
400,160,68083,1,0,
368,208,68263,5,4,
256,160,68623,1,0,
256,208,68802,1,0,
160,208,69162,1,0,
160,160,69342,1,4,
224,48,69702,6,0,L|224:48|272:96|191:159|272:224,2,270
128,48,71150,2,0,L|128:48|16:160|96:240,2,270
144,128,72592,2,0,L|144:128|144:208|240:208|240:320,2,270
304,192,74034,2,4,L|304:192|304:64|368:64|368:160,2,270
256,304,75476,5,0,
256,80,76017,2,0,L|256:80|448:80|448:208,1,270
448,272,76918,1,0,
304,272,77459,2,0,L|304:272|240:272|240:224|176:224|176:272|128:272,1,270
48,192,78360,1,0,
160,192,78900,2,0,L|160:192|160:112|240:112|240:192|208:192,1,270
256,272,79802,1,2,
216,224,80342,2,4,L|216:224|304:224|304:320|210:320,1,270
128,112,91337,6,0,L|128:112|256:67|384:112,2,270
256,192,92778,5,2,
256,192,92959,1,0,
256,304,93319,1,0,
144,240,93680,1,0,
144,240,93860,1,0,
144,96,94220,5,2,
144,96,94401,1,0,
256,96,94761,1,0,
368,96,95122,1,0,
368,96,95302,1,0,
368,240,95662,5,4,
368,240,95842,1,0,
304,320,96203,1,0,
192,320,96563,1,0,
192,320,96744,1,0,
128,240,97104,5,4,
128,240,97284,1,0,
112,144,97645,1,0,
192,80,98005,1,0,
192,80,98186,1,0,
256,192,98546,5,0,
320,96,98906,2,2,B|320:96|384:176|352:288,1,180
160,272,99627,2,2,B|160:272|112:192|176:96,1,180
320,96,100348,2,2,B|320:96|384:176|352:288,1,180
256,192,101069,1,0,
256,192,101430,12,4,104313
256,192,104854,1,0,
256,192,104944,1,0,
256,192,105034,1,0,
144,96,105575,1,0,
144,96,105665,1,0,
144,96,105755,1,0,
368,96,106296,1,0,
368,96,106386,1,0,
368,96,106476,1,0,
256,192,106837,1,2,
256,336,107197,5,0,
112,288,107738,2,0,B|112:288|112:256,2,45
112,160,108459,2,0,B|112:160|112:128,2,45
256,144,109180,2,0,B|256:144|256:112,2,45
256,176,109540,1,2,
256,208,109721,1,2,
256,288,110081,5,0,
384,288,110622,2,0,B|384:288|384:256,1,45
384,243,110802,1,0,
384,144,111343,2,0,B|384:144|336:96,1,45
352,112,111523,1,0,
256,64,112064,2,0,B|256:64|208:64,1,45
211,64,112244,1,0,
80,64,112604,1,0,
80,192,112965,5,0,
192,160,113505,2,0,B|192:160|240:208,1,45
223,191,113686,1,0,
320,160,114226,1,0,
351,191,114407,2,2,B|351:191|352:240|272:304|176:304,1,180
192,272,114947,2,2,B|192:272|128:256|112:192|176:112,1,180
256,96,115488,1,0,
256,192,115848,5,4,
192,112,127354,6,0,B|192:112|224:80|288:80,2,90
256,144,127892,1,0,
400,176,128252,2,0,B|400:176|400:224|352:256,1,90
336,192,128611,1,0,
208,240,128970,2,0,B|208:240|160:224|144:192,1,90
208,176,129329,1,2,
256,80,129689,2,0,B|256:80|256:160,1,90
432,80,130228,5,0,
432,144,130407,2,0,B|432:144|432:208,2,90
320,80,131126,1,0,
256,80,131306,1,0,
176,80,131485,2,2,B|176:80|96:112|96:208|128:256,2,180
256,144,132563,2,0,B|256:144|256:176,2,45
256,288,133102,1,4,
256,224,133282,6,0,B|256:224|208:224,1,90
96,224,133641,2,0,B|96:224|96:160|144:96|240:96,1,180
256,96,134180,1,0,
304,96,134359,2,0,B|304:96|368:96|432:128|432:208,1,180
432,240,134898,1,0,
432,288,135078,2,0,B|432:288|400:320|288:336|224:304,1,180
208,304,135617,1,2,
160,272,135797,1,2,
160,224,135976,5,2,
208,144,136336,1,0,
240,176,136515,2,0,B|240:176|320:240|416:208|416:64,1,270
320,48,137413,1,4,
256,128,137773,1,0,
256,192,137952,1,4,
176,192,138312,1,2,
176,128,138492,1,2,
176,192,138671,1,0,
112,192,138851,6,0,B|112:192|80:208|64:256|128:320|240:320|304:304,2,270
208,112,140302,2,0,B|208:112|288:112|384:192|384:256|352:304,2,270
176,192,141744,2,0,B|176:192|128:240|128:288|176:320|256:304|273:268|250:213|224:192,2,270
64,208,143186,2,0,B|64:208|128:128|224:96|320:144,1,270
192,304,144268,1,0,
256,192,144628,5,0,
368,192,144989,2,0,B|368:192|368:224,2,45
368,112,145530,1,0,
368,64,145711,1,0,
256,112,146071,5,0,
144,112,146431,2,0,B|144:112|144:64,2,45
144,192,146972,1,0,
144,240,147152,1,0,
224,224,147513,5,0,
176,304,147874,2,0,B|176:304|144:304,2,45
256,304,148415,1,0,
304,304,148596,1,0,
256,192,148956,5,2,
256,80,149316,2,2,B|256:80|304:80,2,45
176,80,149857,1,0,
128,80,150037,1,4,
112,176,150397,6,0,B|112:176|144:224|176:256|224:224|240:160|304:128|336:224,1,270
336,304,151299,1,2,
336,304,151479,2,0,B|336:304|272:336|249:235|191:236|192:304,1,180
96,304,152200,1,0,
96,304,152380,2,0,B|96:304|57:233|192:176,1,180
189,177,152921,1,2,
336,176,153282,5,0,
448,48,153642,1,0,
400,48,153823,1,0,
256,48,154183,1,0,
208,48,154363,1,2,
48,48,154724,1,0,
48,192,155084,1,0,
48,240,155265,1,0,
48,352,155625,1,0,
96,352,155806,1,4,
256,352,156166,5,0,
368,240,156527,1,0,
336,208,156707,1,0,
224,112,157068,1,0,
192,144,157248,1,2,
80,256,157608,5,0,
192,336,157969,1,0,
224,304,158149,1,0,
304,208,158510,1,0,
336,176,158690,1,2,
112,192,159051,5,0,
256,169,159411,1,0,
256,217,159591,1,0,
416,171,159952,1,0,
416,219,160132,1,2,
256,304,160493,5,4,
233,192,160853,1,0,
281,192,161034,1,4,
233,80,161394,1,0,
281,80,161574,1,4,
80,80,161935,6,0,L|80:80|144:80|80:160|160:160|65:288|208:288,1,540
312,288,163377,2,0,L|312:288|447:288|352:160|432:160|368:80|432:80,1,540
256,192,164819,12,4,166262
