osu file format v4

[General]
AudioFilename: 05.Tackle-GrassStains.mp3
AudioLeadIn: 0
AudioHash: 138655d78f7ec2d5f1a08f6754fc7514
PreviewTime: -1
SampleSet: Normal
EditorBookmarks: 23660,46501,57831,81063,90976,115848,126994,166262

[Metadata]
Title:Grass Stains
Artist:Tackle
Creator:awp
Version:Easy

[Difficulty]
HPDrainRate:5
CircleSize:4
OverallDifficulty:3
SliderMultiplier: 0.999999999999999
SliderTickRate: 1

[Events]
0,0,"cs.png"
2,46521,57291
2,81082,90017
2,116048,126304
3,0,0,0,0

[TimingPoints]
23660,359.704435121368,4,1,0
69709,360.46860919195,4,1,0
115857,359.281437125748,4,1,0
138860,360.555255092843,4,1,0

[HitObjects]
80,64,23660,2,0,L|80:64|128:112,1,50
208,48,24199,2,0,L|208:48|208:112,2,50
288,96,24918,2,0,L|288:96|336:96,2,50
288,192,25638,1,0,
288,272,25998,2,0,B|288:272|271:297|208:272,3,50
176,176,27257,1,0,
96,64,27976,1,0,
336,128,29415,5,2,
224,160,30134,1,2,
64,160,30854,1,2,
128,320,31753,1,0,
176,304,31933,1,0,
208,256,32113,1,0,
208,208,32292,5,4,
304,112,32832,1,0,
304,112,33012,1,0,
368,256,33551,1,0,
368,256,33731,1,0,
192,80,35170,5,0,
192,176,35530,1,0,
224,208,35710,1,2,
48,176,36249,5,0,
80,208,36429,1,2,
240,176,36969,5,0,
272,208,37148,1,2,
240,80,37688,1,4,
96,144,38228,2,0,B|96:144|96:192,2,50
224,192,38947,1,0,
272,304,39307,2,2,B|272:304|415:289|400:160,1,200
352,112,40386,1,0,
352,112,40566,1,0,
192,144,41105,5,0,
176,160,41285,1,0,
192,176,41465,1,0,
144,256,41825,5,0,
176,272,42004,1,0,
192,256,42184,1,0,
320,240,42544,5,0,
336,224,42724,1,0,
320,208,42904,1,2,
272,112,43443,1,0,
144,112,43803,5,0,
112,192,44163,2,0,B|112:192|144:224,1,50
240,224,44882,2,0,B|240:224|304:160,1,50
176,176,45601,1,2,
176,176,45781,1,2,
64,176,46141,1,0,
64,176,46321,1,4,
80,48,58191,5,0,
160,48,58551,1,0,
240,48,58911,1,0,
320,48,59270,1,0,
320,128,59630,1,0,
240,128,59990,1,0,
160,128,60349,1,0,
80,128,60709,1,0,
80,208,61069,6,0,L|80:208|208:208,1,99.9999999999999
256,208,61788,2,0,L|256:208|400:208,1,99.9999999999999
384,128,62508,2,0,B|384:128|258:58|181:47|64:144,1,300
64,224,64126,6,0,B|64:224|64:256,2,50
160,224,64846,6,0,B|160:224|160:256,2,50
256,224,65565,6,0,B|256:224|256:256,2,50
176,272,66824,5,0,
288,272,67184,1,0,
288,272,67364,1,0,
368,208,68263,5,4,
288,144,68623,2,0,B|288:144|256:176,1,50
160,208,69162,2,0,B|160:208|112:160,1,50
64,112,69702,6,0,B|64:112|112:80|160:128|208:208|304:144|368:128,1,300
448,80,71150,1,0,
448,192,71511,1,0,
448,304,71871,1,0,
336,304,72232,1,0,
336,208,72592,6,0,B|336:208|288:128|192:112|112:176|32:160,1,300
48,272,74034,1,0,
160,272,74395,1,0,
272,272,74755,1,0,
384,272,75116,1,0,
304,192,75476,5,0,
432,192,76017,2,0,B|432:192|416:144|352:112|304:112,1,150
208,128,76918,1,0,
96,176,77459,2,0,B|96:176|41:226|63:286|96:336,1,150
192,304,78360,1,0,
192,176,78900,2,0,L|192:176|192:96|272:96,1,150
368,112,79802,1,2,
384,224,80342,2,4,L|384:224|384:224|384:320|290:320,1,150
128,48,91337,5,0,
64,144,91877,1,0,
128,240,92418,1,0,
192,192,92778,5,2,
192,192,92959,1,0,
272,192,93319,1,0,
352,192,93680,1,0,
352,192,93860,1,0,
352,272,94220,5,2,
352,272,94401,1,0,
272,272,94761,1,0,
192,272,95122,1,0,
192,272,95302,1,0,
192,192,95662,6,0,B|192:192|192:144,1,50
192,64,96203,1,0,
192,144,96563,2,0,B|192:144|192:176,1,50
272,192,97104,6,0,B|272:192|320:192,1,50
400,192,97645,1,0,
320,192,98005,2,0,B|320:192|272:192,1,50
192,192,98546,5,0,
112,192,98906,1,0,
112,112,99267,1,0,
192,112,99627,1,0,
272,112,99988,1,0,
352,112,100348,1,0,
352,192,100709,1,0,
256,192,101069,1,0,
256,192,101430,12,4,103953
256,192,104854,2,0,B|256:192|256:144,2,25
176,112,105575,2,0,B|176:112|176:144,2,25
336,112,106296,2,0,B|336:112|336:144,2,25
224,240,107197,5,0,
96,240,107738,2,0,B|96:240|96:208,2,25
160,144,108459,2,0,B|160:144|192:112,2,25
272,144,109180,2,0,B|272:144|272:112,2,25
272,224,109721,1,0,
272,304,110081,5,0,
384,304,110622,2,0,B|384:304|384:256,1,50
384,128,111343,2,0,B|384:128|336:80,1,45
224,64,112064,2,0,B|224:64|144:64,1,50
96,64,112604,1,0,
96,144,112965,5,0,
208,144,113505,2,0,B|208:144|256:192,1,50
336,176,114226,2,0,B|336:176|336:224,1,50
272,288,114767,2,0,B|272:288|192:288,1,50
160,240,115308,2,0,B|160:240|160:160,3,50
128,96,127354,6,0,B|128:96|192:80|208:160|144:192,1,150
64,192,128252,2,0,B|64:192|10:261|96:304,1,99.9999999999999
192,288,128970,2,0,B|192:288|281:283|304:240,1,99.9999999999999
224,208,129689,2,0,B|224:208|224:160,1,50
336,192,130407,6,0,B|336:192|336:240,2,50
320,112,131126,2,0,B|320:112|272:112,2,50
256,48,131845,1,0,
192,112,132204,1,0,
256,160,132563,2,0,B|256:160|256:256,1,50
256,336,133282,5,0,
176,336,133641,1,0,
112,272,134000,1,0,
112,192,134359,1,0,
176,128,134719,1,0,
256,128,135078,1,0,
208,240,135617,1,2,
128,208,135976,5,2,
160,128,136336,2,0,B|160:128|240:192|336:160|416:48,1,300
448,128,137773,1,0,
448,160,137952,1,0,
400,224,138312,1,0,
368,256,138491,1,0,
256,192,138851,12,0,139941
256,192,140302,12,0,141383
256,192,141744,12,0,142826
256,192,144268,5,0,
368,192,144989,2,0,B|368:192|368:224,2,25
368,112,145530,1,0,
368,80,145711,1,0,
144,112,146431,6,0,B|144:112|144:64,2,25
144,192,146972,1,0,
144,224,147152,1,0,
304,192,147874,6,0,B|304:192|272:192,2,25
384,192,148415,1,0,
416,192,148596,1,0,
272,112,149316,6,2,B|272:112|304:112,2,25
192,112,149857,1,0,
144,112,150037,1,4,
112,176,150397,6,0,B|112:176|152:209|232:190|279:124|350:125|352:240,1,300
336,304,151839,2,0,B|336:304|272:336|252:201|167:210|80:320,1,300
48,240,153282,2,0,B|48:240|48:160|96:112|176:144|230:133|272:192,1,300
336,240,154724,2,0,B|336:240|416:224|464:176|448:96|384:64|304:64,1,300
240,48,156166,5,0,
304,144,156707,1,0,
176,144,157248,1,2,
96,144,157608,5,0,
160,240,158149,1,0,
272,288,158690,1,2,
352,288,159051,5,0,
352,160,159591,1,0,
272,64,160132,1,2,
208,96,160493,5,4,
256,208,161034,1,4,
256,80,161574,1,4,
160,80,161935,6,0,L|160:80|112:128|176:192|176:272|256:334|337:272|337:191|400:128|336:64,1,699.999999999999
256,192,164819,12,4,166262
