osu file format v12

[General]
AudioFilename: songplz.mp3
AudioLeadIn: 1500
PreviewTime: 55752
Countdown: 0
SampleSet: Soft
StackLeniency: 0.7
Mode: 0
LetterboxInBreaks: 0

[Editor]
Bookmarks: 7721,84346,91096
DistanceSpacing: 0.8
BeatDivisor: 2
GridSize: 4

[Metadata]
Title:One Day, One Dream (TV Size)
TitleUnicode:One Day, One Dream (TV Size)
Artist:Tackey & Tsubasa
ArtistUnicode:タッキー&翼
Creator:Kei
Version:Easy
Source:InuYasha
Tags:opening sunrise entertainment sorda s_o_r_d_a
BeatmapID:226494
BeatmapSetID:81107

[Difficulty]
HPDrainRate:2
CircleSize:3
OverallDifficulty:2
ApproachRate:3
SliderMultiplier:1.1
SliderTickRate:1

[Events]
//Background and Video events
0,0,"sesshoplz.jpg",0,0
Video,0,"videoplx.avi"
//Break Periods
2,14040,18152
//Storyboard Layer 0 (Background)
//Storyboard Layer 1 (Fail)
//Storyboard Layer 2 (Pass)
//Storyboard Layer 3 (Foreground)
//Storyboard Sound Samples
//Background Colour Transformations
3,100,163,162,255

[TimingPoints]
331,500,4,2,0,30,1,0
12340,375,4,2,0,50,1,0
49840,-100,4,2,0,50,0,0
53027,-100,4,2,0,20,0,0
53590,-100,4,2,0,30,0,0
53965,-100,4,2,0,50,0,0
55840,-100,4,2,0,50,0,1
66152,-100,4,2,0,50,0,0
67840,-100,4,2,0,50,0,1
77777,-100,4,2,0,30,0,1
78340,-100,4,2,0,50,0,0

[Colours]
Combo1 : 143,31,65
Combo2 : 232,232,232
Combo3 : 0,0,128
Combo4 : 254,216,101

[HitObjects]
76,196,331,2,0,P|152:88|232:88,1,220,2|0,0:0|0:0,0:0:0:0:
332,228,2331,2,0,P|256:336|176:336,2,220,2|0|2,0:0|0:0|0:0,0:0:0:0:
340,140,4831,2,0,P|368:80|404:52,2,110,0|2|0,0:0|0:0|0:0,0:0:0:0:
328,228,6331,6,0,P|208:244|148:164,1,220,2|0,0:0|0:0,0:0:0:0:
144,88,7831,1,0,0:0:0:0:
256,192,8331,12,2,10331,0:0:0:0:
256,196,12340,6,0,L|256:368,2,165,8|8|8,0:0|0:0|0:0,0:0:0:0:
256,108,13840,1,4,0:0:0:0:
72,56,19840,6,0,P|176:52|244:136,1,220,4|0,0:0|0:0,0:0:0:0:
224,220,20965,1,0,1:0:0:0:
180,296,21340,2,0,P|76:300|8:216,2,220,2|0|2,0:0|0:0|0:0,0:0:0:0:
224,220,23215,2,0,P|328:216|396:300,2,220,0|0|0,1:0|1:0|1:0,0:0:0:0:
76,124,25465,1,0,1:0:0:0:
144,68,25840,6,0,P|236:32|352:56,1,220,4|0,0:0|0:0,0:0:0:0:
428,100,26965,2,0,B|400:152|336:148|336:148|348:208|292:244,1,220,0|0,1:0|1:0,0:0:0:0:
132,176,28465,2,0,P|156:124|208:84,2,110,0|2|0,1:0|0:0|1:0,0:0:0:0:
160,260,29590,2,0,P|256:304|356:260,1,220,0|2,0:0|0:0,0:0:0:0:
380,176,30715,6,0,P|256:84|132:180,2,330,0|4|0,1:0|0:0|1:0,0:0:0:0:
440,260,33340,1,2,0:0:0:0:
444,84,34090,6,0,B|404:40|404:40|356:16,1,110,0|0,0:0|1:0,0:0:0:0:
280,60,34840,2,0,L|140:168,2,165,4|4|0,0:0|0:0|1:0,0:0:0:0:
368,76,36340,2,0,B|400:128|372:180|372:180|416:208|412:284,1,220,2|0,0:0|0:0,0:0:0:0:
336,324,37465,1,0,1:0:0:0:
264,276,37840,6,0,P|172:256|100:300,2,165,4|2|0,0:0|0:0|1:0,0:0:0:0:
336,324,39340,2,0,P|400:328|448:296,1,110,0|0,0:0|1:0,0:0:0:0:
476,228,40090,2,0,P|412:224|364:256,1,110,0|0,0:0|1:0,0:0:0:0:
284,252,40840,6,0,B|184:276|152:188|152:188|40:196|24:104,1,330,4|0,0:0|1:0,0:0:0:0:
68,32,42340,2,0,P|240:64|340:180,1,330,2|2,0:0|0:0,0:0:0:0:
364,260,43840,5,4,0:0:0:0:
216,352,44590,1,0,1:0:0:0:
64,264,45340,1,2,0:0:0:0:
124,100,46090,1,0,1:0:0:0:
300,96,46840,5,4,0:0:0:0:
364,260,47590,2,0,P|424:236|448:180,1,110,0|0,1:0|0:0,0:0:0:0:
364,168,48340,2,0,P|292:200|300:328,2,220,2|0|4,0:0|1:0|0:0,0:0:0:0:
446,198,50215,6,0,P|440:124|312:96,1,220,0|0,1:0|1:0,0:0:0:0:
240,136,51340,1,4,0:0:0:0:
240,312,52090,1,2,0:0:0:0:
256,192,52652,12,4,54340,0:0:0:0:
124,188,55840,6,0,P|188:132|272:140,2,165,4|4|0,0:0|0:0|1:0,0:0:0:0:
68,256,57340,1,0,0:0:0:0:
52,344,57715,2,0,P|152:316|220:204,1,220,0|0,1:0|1:0,0:0:0:0:
260,148,58840,6,0,P|320:80|408:56,2,165,4|4|0,0:0|0:0|1:0,0:0:0:0:
300,228,60340,2,0,P|376:264|424:336,2,165,2|0|0,0:0|0:0|1:0,0:0:0:0:
220,264,61840,1,4,0:0:0:0:
56,192,62590,6,0,P|116:96|216:56,1,220,2|4,0:0|0:0,0:0:0:0:
300,56,63715,2,0,P|395:95|455:191,1,220,0|0,1:0|1:0,0:0:0:0:
436,276,64840,2,0,P|256:320|64:276,1,385,4|4,0:0|0:0,0:0:0:0:
144,172,66715,6,0,P|256:160|368:172,1,220,4|4,0:0|0:0,0:0:0:0:
436,216,67840,2,0,P|396:252|340:256,2,110,4|0|0,0:0|1:0|0:0,0:0:0:0:
428,40,69340,2,0,P|320:40|232:116,1,220,0|0,0:0|0:0,0:0:0:0:
208,192,70465,1,0,1:0:0:0:
188,276,70840,6,0,P|132:336|52:320,2,165,4|4|0,0:0|0:0|1:0,0:0:0:0:
104,244,72340,2,0,P|104:156|152:88,2,165,4|2|0,0:0|0:0|1:0,0:0:0:0:
188,276,73840,1,4,0:0:0:0:
356,332,74590,2,0,P|472:264|496:184,2,220,4|2|4,0:0|0:0|0:0,0:0:0:0:
264,184,76840,2,0,B|311:119|311:119|388:80,2,165,4|4|0,0:0|0:0|0:0,0:0:0:0:
216,260,78340,6,0,B|112:308|112:308|0:292,1,220,4|0,0:0|0:0,0:0:0:0:
20,204,79465,2,0,L|76:212,1,55,0|4,1:0|0:0,0:0:0:0:
256,192,80215,12,4,82840,0:0:0:0:
396,220,83590,6,0,P|328:308|204:312,2,220,0|2|0,0:0|0:0|0:0,0:0:0:0:
392,132,85465,1,0,1:0:0:0:
320,80,85840,6,0,P|217:91|149:179,1,220,4|0,0:0|0:0,0:0:0:0:
128,264,86965,2,0,L|104:332,1,55,0|2,1:0|0:0,0:0:0:0:
256,192,87527,12,0,90152,1:0:0:0:
256,288,91090,5,2,0:0:0:0:
