osu file format v5

[General]
AudioFilename: Sparta_Patrick_EXTENDED.MP3
AudioLeadIn: 0
PreviewTime: -1
Countdown: 0
SampleSet: Normal
StackLeniency: 0.7
Mode: 0
LetterboxInBreaks: 1

[Metadata]
Title:This is PATRICK! (Extended)
Artist:Tachin1994
Creator:NT1996
Version:No!
Source:
Tags:

[Difficulty]
HPDrainRate:6
CircleSize:5
OverallDifficulty:7
SliderMultiplier:1.4
SliderTickRate:1

[Events]
//Background and Video events
//Break Periods
2,24224,29442
2,44252,51606
2,113203,118415
//Storyboard Layer 0 (Background)
//Storyboard Layer 1 (Failing)
//Storyboard Layer 2 (Passing)
//Storyboard Layer 3 (Foreground)
//Storyboard Sound Samples
//Background Colour Transformations
3,100,163,162,255

[TimingPoints]
6793.45674418886,428.265524625268,4,1,0,100,1

[HitObjects]
32,192,3367,1,0
32,256,4223,1,0
32,352,5080,2,0,B|256:352|256:352|448:192,1,420
352,192,6793,5,0
288,192,7221,1,0
320,160,7649,1,0
320,192,7864,1,0
320,224,8078,1,0
352,192,8506,2,0,B|512:192|416:352|192:288|192:64|512:128,1,420
416,96,10219,6,0,B|128:96|128:352|512:224|480:32|32:96|64:256|96:192|96:192|160:352|416:288|416:192|224:32|352:128|160:32,1,980
64,96,13645,5,0
128,160,14073,1,0
64,224,14502,1,0
96,192,14716,1,0
128,160,14930,1,0
192,96,15358,1,0
256,160,15787,1,0
192,224,16215,1,0
224,192,16429,1,0
256,160,16643,1,0
320,96,17071,1,0
384,160,17500,1,0
320,224,17928,1,0
352,192,18142,1,0
384,160,18356,1,0
448,96,18784,1,0
512,160,19213,1,0
448,224,19641,1,0
480,192,19855,1,0
512,160,20069,1,0
448,160,20497,6,0,B|224:32|96:320|352:256|416:224|96:64,2,560
32,64,30776,5,0
96,96,31204,1,0
160,64,31632,1,0
224,32,31846,1,0
224,96,32061,1,0
160,128,32489,1,0
96,96,32917,1,0
32,64,33345,1,0
32,96,33560,1,0
32,128,33774,1,0
32,192,34202,6,0,B|256:0|512:192|256:384|0:160|0:192,2,560
128,192,38056,1,0
192,160,38485,1,0
256,192,38913,1,0
320,64,39341,2,0,B|448:128|448:384|192:384|96:0,1,560
256,192,41482,5,0
256,160,41697,1,0
256,128,41911,1,0
192,160,42339,1,0
256,192,42553,1,0
320,160,42767,1,0
256,128,43196,1,0
256,192,43410,1,0
256,256,43624,1,0
320,224,44052,1,0
32,32,53046,6,0,B|512:32|512:384|0:384|0:64|480:64|480:352|32:352|32:96|448:96|448:320|64:320|64:128|416:128|416:288|96:288|96:160|384:160|384:256|128:256|128:192,1,560
128,224,55187,1,0
192,192,55615,1,0
256,224,56043,1,0
320,256,56258,1,0
352,256,56472,2,0,B|544:192|288:32|32:192|288:384|544:32|32:64|0:96,1,560
64,160,58613,1,0
160,192,59898,5,0
256,192,60326,5,0
192,192,61611,5,0
256,192,61825,1,0
320,192,62039,1,0
256,128,63752,6,0,B|256:256|256:288,1,140
320,192,65037,6,0,B|160:192,1,140
192,128,65894,1,0
192,160,66108,1,0
224,192,66322,1,0
256,256,66750,1,0
288,224,66964,1,0
288,192,67178,1,0
320,160,67393,1,0
320,128,67607,2,0,B|192:256,1,140
256,192,68463,2,0,B|384:64,2,140
352,96,70176,5,0
288,128,70605,1,0
224,160,71033,2,0,B,1,140
96,32,71889,6,0,B|576:32|576:384|64:384,2,910
32,192,78742,5,0
128,192,79170,2,0,B|256:192,1,70
288,192,80026,1,0
352,192,80455,6,0,B|512:192|512:0|0:0|0:384|512:384|512:64|480:64,1,700
288,160,83024,1,0
256,192,83881,5,0
256,160,84309,1,0
256,128,84737,2,0,B,1,140
224,96,84951,1,0
192,64,85166,1,0
160,64,85594,6,0,B|416:64|416:384|96:384|384:96|192:32,1,560
32,64,89020,6,0,B|224:64|224:64|224:160|224:160|64:160|64:160|64:224|64:224|224:224|224:224|224:352|224:352|32:352,1,980
160,352,92446,2,0,B|160:32|160:32|352:32|352:32|352:352|352:352|192:352,1,980
288,352,95872,2,0,B|480:352|480:352|480:32|480:32|288:32|288:32|288:320,1,980
32,64,99298,6,0,B|96:192|96:192|0:384,1,280
96,320,100583,2,0,B|160:192|160:192|96:64,1,280
224,192,101868,1,0
256,192,102724,6,0,B|384:0|512:384,2,420
480,352,106151,6,0,B|480:0|0:0|0:0|256:224,1,980
224,192,109577,6,0,B|288:160,6,70
288,224,111290,6,0,B|64:224|288:32|448:224|288:352|96:224|64:160,1,560
64,64,119855,6,0,B|448:320|32:32,2,420
256,192,123281,6,0,B|352:192,6,70
256,192,124994,5,0
224,224,125208,1,0
192,256,125423,1,0
160,288,125637,1,0
160,352,125851,2,0,B|160:32|160:32|480:32|576:192|128:192|128:192|192:192,1,840
