osu file format v5

[General]
AudioFilename: Sparta_Patrick_EXTENDED.MP3
AudioLeadIn: 0
PreviewTime: -1
Countdown: 0
SampleSet: Normal
StackLeniency: 0.7
Mode: 0
LetterboxInBreaks: 1

[Metadata]
Title:This is PATRICK! (Extended)
Artist:Tachin1994
Creator:NT1996
Version:Is this the Krusty Krab?
Source:
Tags:

[Difficulty]
HPDrainRate:2
CircleSize:4
OverallDifficulty:3
SliderMultiplier:1.4
SliderTickRate:1

[Events]
//Background and Video events
//Break Periods
2,24224,29442
2,44252,51606
//Storyboard Layer 0 (Background)
//Storyboard Layer 1 (Failing)
//Storyboard Layer 2 (Passing)
//Storyboard Layer 3 (Foreground)
//Storyboard Sound Samples
//Background Colour Transformations
3,100,163,162,255

[TimingPoints]
6793.45674418886,428.265524625268,4,1,0,100,1

[HitObjects]
256,192,3367,1,0
320,160,4223,1,0
384,128,5080,1,0
416,192,5508,2,0,B|480:256|352:224,2,140
352,192,6793,5,0
288,192,7221,1,0
320,160,7649,1,0
320,224,8078,1,0
352,192,8506,2,0,B|512:192|416:352|192:288|192:64|512:128,1,420
416,96,10219,6,0,B|128:96|128:352|512:224|480:32|32:96|64:256|96:192|96:192|160:352|416:288|416:192|224:32|352:128|160:32,1,980
64,96,13645,5,0
128,160,14073,1,0
64,224,14502,1,0
128,160,14930,1,0
192,96,15358,1,0
256,160,15787,1,0
192,224,16215,1,0
256,160,16643,1,0
320,96,17071,1,0
384,160,17500,1,0
320,224,17928,1,0
384,160,18356,1,0
448,96,18784,1,0
512,160,19213,1,0
448,224,19641,1,0
512,160,20069,1,0
448,160,20497,6,0,B|224:32|96:320|352:256|416:224|96:64,2,560
32,64,30776,5,0
96,96,31204,1,0
160,64,31632,1,0
224,96,32061,1,0
160,128,32489,1,0
96,96,32917,1,0
32,64,33345,1,0
32,96,33774,1,0
32,192,34202,6,0,B|256:0|512:192|256:384|0:160|0:192,2,560
128,192,38056,1,0
192,160,38485,1,0
256,192,38913,1,0
320,64,39341,2,0,B|448:128|448:384|192:384|96:0,1,560
256,192,41482,5,0
256,160,41697,1,0
320,192,42339,1,0
256,192,43196,1,0
224,192,43410,1,0
256,128,44052,1,0
32,32,53046,6,0,B|512:32|512:384|0:384|0:64|480:64|480:352|32:352|32:96|448:96|448:320|64:320|64:128|416:128|416:288|96:288|96:160|384:160|384:256|128:256|128:192,1,560
128,224,55187,1,0
192,192,55615,1,0
256,224,56043,1,0
352,256,56472,2,0,B|544:192|288:32|32:192|288:384|544:32|32:64|0:96,1,560
64,160,58613,1,0
256,192,60326,5,0
192,192,61611,5,0
256,192,61825,1,0
320,192,62039,1,0
256,128,63752,6,0,B|256:256|256:288,1,140
320,192,65037,6,0,B|160:192,1,140
192,128,65894,1,0
224,192,66322,1,0
256,256,66750,1,0
288,192,67178,1,0
320,128,67607,2,0,B|192:256,1,140
256,192,68463,2,0,B|384:64,2,140
256,192,70176,12,0,71461
256,192,71889,6,0,B|416:32|416:32|416:352|416:352|96:32|96:32|96:352|96:352|288:160,1,1540
32,192,78742,6,0,B|32:32|480:32|480:352|64:352|64:352|160:160,1,1120
128,64,85594,6,0,B|224:64|224:64|224:352|224:352|288:352|288:352|288:64|288:64|384:64|384:64|448:64,1,840
160,64,89020,6,0,B|352:64|352:64|352:160|352:160|192:160|192:160|192:224|192:224|352:224|352:224|352:352|352:352|160:352,1,980
160,352,92446,2,0,B|160:32|160:32|352:32|352:32|352:352|352:352|192:352,1,980
160,352,95872,2,0,B|352:352|352:352|352:32|352:32|160:32|160:32|160:320,1,980
32,64,99298,6,0,B|96:192|96:192|0:384,1,280
96,320,100583,2,0,B|160:192|160:192|96:64,1,280
160,64,101868,2,0,B|224:192|224:192|160:320,1,280
256,192,103581,6,0,B|384:0|512:384,2,420
480,352,107007,6,0,B|32:352|32:32|480:32|480:288|128:288|128:96|416:96|416:224|192:224|192:160,1,560
224,192,109577,6,0,B|288:160,6,70
288,224,111290,6,0,B|64:224|288:32|448:224|288:352|96:224|64:160,2,560
256,192,116429,12,0,119427
32,192,119855,6,0,B|256:32|480:192|256:352|256:352|96:192|256:96|416:192|256:288,1,840
256,192,123281,6,0,B|352:192,6,70
256,192,124994,5,0
192,256,125423,1,0
96,352,125851,2,0,B|96:32|96:32|416:32|512:192|64:192|64:192|128:192,1,840
