osu file format v7

[General]
AudioFilename: nini.mp3
AudioLeadIn: 3000
PreviewTime: 43052
Countdown: 0
SampleSet: Soft
StackLeniency: 0.4
Mode: 0
LetterboxInBreaks: 1

[Editor]
Bookmarks: 15129,23744,29283,39129,48975,56360,62513,72360,80975,85898,89590
DistanceSpacing: 1
BeatDivisor: 4
GridSize: 16

[Metadata]
Title:Miya to Tengoku to Jigoku
Artist:Tachibana Miya
Creator:AngelHoney
Version:Sukebe
Source:NicoNicoDouga
Tags:Amagami Asumi Kana Can

[Difficulty]
HPDrainRate:1
CircleSize:4
OverallDifficulty:7
SliderMultiplier:1.7
SliderTickRate:1

[Events]
//Background and Video events
0,0,"9145645.jpg"
//Break Periods
//Storyboard Layer 0 (Background)
//Storyboard Layer 1 (Fail)
//Storyboard Layer 2 (Pass)
//Storyboard Layer 3 (Foreground)
//Storyboard Sound Samples
//Background Colour Transformations
3,100,163,162,255

[TimingPoints]
360,307.692307692308,4,2,0,50,1,0
5283,-100,4,2,0,50,0,1
5321,-100,4,2,0,50,0,0
29283,-100,4,2,0,50,0,1
29321,-100,4,2,0,50,0,0
62513,-100,4,2,0,50,0,1
62552,-100,4,2,0,50,0,0
100667,-100,4,2,0,50,0,1
100706,-100,4,2,0,50,0,0

[HitObjects]
96,48,360,2,0,B|272:48,1,170
368,144,975,2,0,B|192:144,1,170
96,240,1590,2,0,B|272:240,1,170
368,336,2206,2,0,B|192:336,1,170
256,128,2821,6,0,B|256:224,6,85,0|0|0|0|0|0|0
304,272,4052,6,0,B|304:320,6,42.5
208,272,4667,2,0,B|208:320,6,42.5
112,272,5283,5,4
48,128,5590,1,8
112,80,5744,1,0
176,128,5898,2,0,B|216:160|256:128,2,85,0|0|8
320,208,6513,5,0
384,144,6667,1,0
448,208,6821,1,8
384,272,6975,1,0
320,336,7129,2,0,B|280:368|240:336,1,85
280,272,7436,2,0,B|240:240|200:272,1,85,8|0
112,288,7744,6,0,B|112:176,3,85,0|0|8|0
112,112,8360,2,0,L|159:129|208:128,1,85
256,64,8667,2,0,L|208:48|160:48,1,85,8|0
80,48,8975,5,0
32,128,9129,1,0
80,208,9283,1,8
32,288,9436,1,0
80,368,9590,2,0,L|112:352|192:352,1,85
160,272,9898,2,0,L|208:272|256:240,1,85,8|0
272,336,10206,6,0,B|384:336|384:224,1,170,0|8
304,256,10667,1,0
336,176,10821,1,0
368,96,10975,1,0
304,32,11129,2,0,B|208:32,1,85,8|0
160,96,11436,6,0,B|192:136|160:176,1,85
96,136,11744,2,0,B|64:176|96:216,1,85,8|0
160,272,12052,1,0
96,320,12206,1,0
160,368,12360,1,8
224,208,12667,6,0,B|304:144|400:224,1,170,0|8
224,288,13283,2,0,B|144:352|48:272,1,170,0|8
80,112,13898,5,0
128,48,14052,1,0
176,112,14206,2,0,B|176:208,1,85,8|0
224,272,14513,1,0
272,192,14667,1,0
272,112,14821,2,0,B|272:16,1,85,8|0
368,64,15129,5,0
368,240,15436,1,8
192,240,15744,1,0
192,64,16052,1,8
80,192,16360,6,0,B|80:144,2,42.5
160,208,16667,2,0,B|192:160,2,42.5,8|0|0
224,272,16975,2,0,B|288:240,2,42.5
256,352,17283,2,0,B|320:352,2,42.5,8|0|0
368,304,17590,6,0,L|416:288|448:240,1,85
352,224,17898,2,0,L|384:192|400:128,1,85,8|0
304,160,18206,2,0,L|320:128|304:64,1,85
232,120,18513,2,0,L|216:72|184:40,1,85,8|0
128,112,18821,6,0,B|64:192|136:272,1,170,0|8
304,272,19436,1,0
384,304,19590,1,0
464,272,19744,1,8
384,128,20052,5,0
224,64,20360,1,8
384,48,20667,1,0
224,144,20975,1,8
64,208,21283,5,0
112,272,21436,1,0
192,272,21590,1,8
272,224,21744,2,0,B|304:264|272:304,1,85
336,368,22052,2,0,B|376:336|416:368,2,85,0|8|0
256,352,22513,6,0,B|171:352,1,85
124,258,22821,2,0,B|208:272,1,85,8|0
192,192,23129,2,0,B|112:160,1,85
121,64,23436,2,0,B|192:112,1,85,8|0
256,48,23744,5,0
336,96,23898,1,0
256,144,24052,1,8
336,192,24206,1,0
256,224,24360,2,0,B|160:176,1,85
224,112,24667,2,0,B|320:80,1,85,8|0
368,144,24975,2,0,B|336:240,1,85
368,304,25283,2,0,B|480:320,1,85,8|0
480,240,25590,2,0,B|448:144,1,85
400,96,25898,2,0,B|304:64,1,85,8|0
320,160,26206,2,0,B|224:224,1,85
176,160,26513,2,0,B|163:244,1,85,8|0
160,336,26821,6,0,B|240:352|304:320,1,127.5
264,288,27129,2,0,B|344:304|408:240,1,127.5,8|0
360,224,27436,2,0,B|424:192|440:112,1,127.5
392,120,27744,2,0,B|400:48|304:8,1,127.5,8|0
288,16,28052,2,0,B|288:96|216:136,1,127.5
192,136,28360,2,0,B|128:192|152:280,1,127.5,8|0
152,288,28667,2,0,B|152:330,6,42.5,0|0|0|0|8|0|0
240,304,29283,6,0,B|336:304,1,85,4|0
304,224,29590,2,0,B|416:224,1,85,8|0
368,144,29898,1,0
416,80,30052,1,0
352,32,30206,1,8
304,96,30360,1,0
224,64,30513,2,0,B|184:32|144:64,1,85
184,128,30821,2,0,B|144:160|104:128,1,85,8|0
64,208,31129,5,0
96,288,31283,1,0
176,288,31436,1,8
224,352,31590,1,0
272,288,31744,2,0,B|312:320|352:288,1,85
400,224,32052,2,0,B|360:192|320:224,1,85,8|0
240,208,32360,2,0,B|240:112,2,85,0|0|8
192,272,32821,1,0
112,272,32975,5,0
32,240,33129,1,0
112,208,33283,1,8
32,176,33436,1,0
112,144,33590,1,0
32,112,33744,1,0
112,80,33898,1,8
32,48,34052,1,0
112,16,34206,6,0,B|224:16,1,85
176,96,34513,2,0,B|288:96,1,85,8|0
288,16,34821,1,0
368,48,34975,1,0
432,112,35129,1,8
464,192,35283,1,0
384,240,35436,2,0,B|272:208|224:336,1,170,0|8
192,224,35898,1,0
112,176,36052,2,0,B|112:288,1,85
32,224,36360,2,0,B|48:320,1,85,8|0
128,352,36667,6,0,B|240:352,2,85,0|0|8
160,272,37129,1,0
192,192,37283,2,0,B|288:192,1,85
224,112,37590,2,0,B|112:112,1,85,8|0
80,48,37898,1,0
160,32,38052,1,0
240,16,38206,1,8
320,48,38360,1,0
400,96,38513,2,0,B|432:144|400:192,1,85
336,144,38821,2,0,B|304:208|336:240,1,85,8|0
272,304,39129,6,0,B|176:256|112:352,1,170,4|8
80,256,39590,1,0
8,192,39744,1,0
56,104,39898,1,0
144,120,40052,1,8
160,208,40206,1,0
248,216,40360,2,0,B|224:264|256:304,1,85
320,256,40667,2,0,B|416:256,1,85,8|0
448,176,40975,6,0,B|352:176|304:64,2,170,0|8|0
416,96,41744,2,0,B|464:16,1,85,0|8
368,16,42052,1,0
288,64,42206,2,0,L|256:48|176:48,1,85
224,128,42513,2,0,L|176:128|128:96,1,85,8|0
64,64,42821,5,0
32,144,42975,1,0
112,112,43129,1,8
80,192,43283,1,0
160,160,43436,1,0
128,240,43590,1,0
208,208,43744,1,8
176,288,43898,1,0
256,256,44052,6,0,B|336:192|416:264,1,170,4|8
432,176,44513,1,0
368,112,44667,2,0,B|432:16,2,85,0|0|8
288,80,45129,1,0
208,48,45283,2,0,B|208:144,1,85
128,112,45590,2,0,B|128:208,1,85,8|0
208,224,45898,1,0
128,272,46052,1,0
48,224,46206,1,8
48,144,46360,1,0
48,64,46513,6,0,B|128:0|208:72,1,170,0|8
256,128,46975,1,0
312,64,47129,2,0,B|408:64,3,85,0|0|8|0
432,144,47744,2,0,B|347:144,3,85,0|0|8|0
288,208,48360,2,0,L|320:224|384:224,1,85
448,224,48667,1,8
336,352,48975,6,0,L|288:352|224:320|160:320,1,170,4|8
112,256,49436,1,0
48,192,49590,2,0,L|32:160|32:96,1,85
96,48,49898,2,0,L|112:80|112:144,1,85,8|0
176,192,50206,1,0
208,112,50360,2,0,B|208:0,2,85,0|8|0
240,192,50821,1,0
304,128,50975,2,0,L|304:80|336:32,1,85,0|8
416,192,51436,5,0
336,224,51590,1,0
256,256,51744,1,8
176,288,51898,1,0
256,256,52052,5,0
192,192,52206,1,0
128,128,52360,1,8
64,64,52513,1,0
128,128,52667,6,0,B|240:128,1,85,0|0
256,208,52975,2,0,B|160:208,1,85,8|0
224,288,53283,2,0,B|320:288,1,85
352,368,53590,2,0,B|256:368,1,85,8|0
176,368,53898,6,0,B|80:368|48:256,1,170,0|8
48,192,54360,1,0
128,224,54513,2,0,B|208:288|288:216,1,170,0|8
352,176,54975,1,0
400,96,55129,2,0,B|336:32|208:48,2,170,0|8|0
464,160,55898,1,0
416,240,56052,2,0,B|416:352,1,85,8|0
336,352,56360,5,4
256,368,56513,1,0
176,336,56667,1,8
112,288,56821,1,0
64,224,56975,1,0
48,144,57129,1,0
80,64,57283,1,8
144,16,57436,1,0
224,0,57590,1,0
304,16,57744,1,0
384,48,57898,1,8
448,112,58052,1,0
464,192,58206,1,0
288,224,58513,6,0,B|288:320,1,85,8|0
208,352,58821,5,0
368,304,59129,1,8
208,256,59436,1,0
368,208,59744,1,8
208,160,60052,2,0,B|320:160,1,85
368,112,60360,2,0,B|256:112,1,85,8|0
208,64,60667,2,0,B|304:64,1,85
368,16,60975,2,0,B|272:16,1,85,8|0
192,16,61283,6,0,B|144:16,6,42.5,0|0|0|0|8|0|0
144,96,61898,2,0,B|96:96,6,42.5,0|0|0|0|8|0|0
96,176,62513,6,0,B|208:176|240:272,1,170,4|8
264,336,62975,1,0
336,288,63129,2,0,B|336:176,1,85
416,160,63436,2,0,B|416:256,1,85,8|0
416,336,63744,1,0
496,192,64052,1,8
416,48,64360,5,0
352,96,64513,1,0
288,48,64667,1,8
224,96,64821,1,0
144,48,64975,2,0,B|144:133,1,85
64,96,65283,2,0,B|64:208,1,85,8|0
112,256,65590,5,0
128,336,65744,1,0
208,320,65898,1,8
192,240,66052,1,0
272,208,66206,2,0,B|304:288,1,85
384,240,66513,2,0,B|323:163,1,85,8|0
384,128,66821,2,0,B|480:192,1,85
496,96,67129,2,0,B|400:64,1,85,8|0
336,48,67436,6,0,B|256:96|160:32,1,170,0|8
96,48,67898,2,0,B|144:128|112:240,1,170
192,240,68360,2,0,B|112:304,1,85,8|0
208,320,68667,2,0,B|320:320,1,85
368,288,68975,1,8
320,224,69129,1,0
400,176,69283,1,0
352,112,69436,1,0
288,64,69590,2,0,B|248:32|208:64,1,85,8|0
248,128,69898,6,0,B|208:160|168:128,1,85
112,80,70206,2,0,B|48:160|112:240,1,170,8|0
176,288,70667,1,0
256,272,70821,1,8
336,288,70975,1,0
416,272,71129,2,0,B|416:187,2,85,0|0|8
496,288,71590,2,0,B|496:373,2,85
496,208,72052,1,8
336,128,72360,6,0,B|256:64|176:136,2,170,4|8|0
400,176,73129,1,0
400,256,73283,1,8
336,304,73436,1,0
272,256,73590,2,0,B|176:256,1,85
144,176,73898,2,0,B|240:176,1,85,8|0
192,96,74206,1,0
272,96,74360,1,0
352,96,74513,1,8
432,96,74667,1,0
400,176,74821,6,0,B|432:216|400:256,1,85
336,216,75129,2,0,B|304:176|336:136,1,85,8|0
256,128,75436,2,0,B|256:32,2,85,0|0|8
176,144,75898,2,0,B|176:240,2,85
96,128,76360,2,0,B|64:88|96:48,1,85,8|0
160,88,76667,2,0,B|256:88,1,85
304,48,76975,2,0,B|336:88|304:128,1,85,8|0
256,192,77283,6,0,B|368:192|368:336,1,170,0|8
288,272,77744,1,0
208,272,77898,1,0
160,192,78052,2,0,B|160:80,2,85,0|8|0
112,272,78513,2,0,B|72:304|32:272,1,85
72,208,78821,2,0,B|112:176|152:208,1,85,8|0
240,208,79129,5,0
320,240,79283,1,0
384,176,79436,1,8
464,208,79590,1,0
464,128,79744,2,0,B|384:64|304:128,1,170,0|8
256,64,80206,1,0
208,128,80360,2,0,B|128:64|48:128,1,170,0|8
0,192,80821,1,0
80,208,80975,6,0,B|80:320,1,85,4|0
160,256,81283,2,0,B|160:352,1,85,8|0
240,208,81590,2,0,B|240:304,1,85
320,256,81898,2,0,B|320:352,1,85,8|0
400,208,82206,2,0,B|400:304,2,85,0|0|8
464,160,82667,1,0
400,112,82821,2,0,B|400:16,2,85,0|0|8
336,160,83283,1,0
304,80,83436,6,0,B|240:96|240:176,2,85,4|0|8
336,160,83898,2,0,B|336:256,2,85
256,208,84360,2,0,B|256:304,1,85,8|0
176,256,84667,1,0
96,224,84821,1,0
176,192,84975,1,8
96,160,85129,1,0
176,128,85283,1,0
96,96,85436,1,0
176,64,85590,1,8
96,32,85744,1,0
176,0,85898,6,0,B|240:0,3,42.5,4|0|0|0
256,16,86206,2,0,B|288:64,3,42.5,8|0|0|0
320,80,86513,2,0,B|368:48,3,42.5
400,64,86821,2,0,B|448:96,3,42.5,8|0|0|0
448,128,87129,2,0,B|434:168,3,42.5
400,208,87436,2,0,B|416:272,3,42.5,8|0|0|0
368,272,87744,2,0,B|336:336,3,42.5
304,336,88052,2,0,B|256:320,3,42.5,8|0|0|0
224,320,88360,5,4
144,304,88513,1,0
80,256,88667,1,8
32,192,88821,1,0
48,112,88975,1,0
112,48,89129,1,0
192,16,89283,1,8
272,48,89436,1,0
272,128,89590,6,0,B|272:240,1,85,4|0
336,160,89898,2,0,B|336:256,1,85,8|0
400,192,90206,2,0,B|400:288,1,85
464,224,90513,2,0,B|464:320,1,85,8|0
400,368,90821,6,0,B|360:400|320:368,1,85,4|0
360,304,91129,2,0,B|320:272|280:304,1,85,8|0
240,368,91436,2,0,B|200:400|160:368,1,85
200,304,91744,2,0,B|160:272|120:304,1,85,8|0
56,344,92052,2,0,B|24:304|56:264,1,85,0|0
16,192,92360,2,0,B|56:160|96:192,1,85,8|0
168,144,92667,2,0,B|168:240,1,85
240,192,92975,2,0,B|280:160|320:192,1,85,8|0
400,224,93283,6,0,B|359:328,1,85,4|0
400,224,93590,2,0,B|489:258,1,85,8|0
400,224,93898,2,0,B|434:134,1,85
400,224,94206,2,0,B|295:183,1,85,8|0
240,160,94513,2,0,B|280:264,1,85,0|0
240,160,94821,2,0,B|329:125,1,85,8|0
240,160,95129,2,0,B|205:70,1,85
240,160,95436,2,0,B|135:200,1,85,8|0
144,272,95744,6,0,B|128:320,2,42.5
224,288,96052,2,0,B|224:336,2,42.5,8|0|0
304,272,96360,2,0,B|320:320,2,42.5
368,224,96667,2,0,B|416:256,2,42.5,8|0|0
400,144,96975,6,0,B|442:144,2,42.5,4|0|0
160,48,97590,2,0,B|160:0,2,42.5,4|0|0
304,256,98206,2,0,B|304:298,2,42.5,4|0|0
64,176,98821,2,0,B|16:176,2,42.5,4|0|0
256,192,99436,12,4,100667
