osu file format v7

[General]
AudioFilename: nini.mp3
AudioLeadIn: 3000
PreviewTime: 43052
Countdown: 0
SampleSet: Soft
StackLeniency: 0.4
Mode: 0
LetterboxInBreaks: 1

[Editor]
Bookmarks: 15129,23744,29283,39129,48975,56360,62513,72360,80975,85898,89590
DistanceSpacing: 1
BeatDivisor: 1
GridSize: 16

[Metadata]
Title:Miya to Tengoku to Jigoku
Artist:Tachibana Miya
Creator:AngelHoney
Version:Hentai
Source:NicoNicoDouga
Tags:Amagami Asumi Kana Can

[Difficulty]
HPDrainRate:8
CircleSize:4
OverallDifficulty:8
SliderMultiplier:2.1
SliderTickRate:1

[Events]
//Background and Video events
0,0,"9145645.jpg"
//Break Periods
//Storyboard Layer 0 (Background)
//Storyboard Layer 1 (Fail)
//Storyboard Layer 2 (Pass)
//Storyboard Layer 3 (Foreground)
//Storyboard Sound Samples
//Background Colour Transformations
3,100,163,162,255

[TimingPoints]
360,307.692307692308,4,2,0,50,1,0
5283,-100,4,2,0,50,0,1
5321,-100,4,2,0,50,0,0
29283,-100,4,2,0,50,0,1
29321,-100,4,2,0,50,0,0
62513,-100,4,2,0,50,0,1
62552,-100,4,2,0,50,0,0
100667,-100,4,2,0,50,0,1
100706,-100,4,2,0,50,0,0

[HitObjects]
80,80,360,5,0
176,32,513,1,0
272,80,667,1,0
208,176,821,1,0
336,176,975,1,0
272,272,1129,1,0
368,320,1283,1,0
464,272,1436,1,0
464,112,1590,5,0
368,176,1744,1,0
304,96,1898,1,0
208,160,2052,1,0
128,80,2206,2,0,B|64:32,4,52.5
112,176,2667,1,0
80,336,2821,5,0
176,304,2975,1,0
112,224,3129,1,0
96,112,3283,1,0
192,64,3436,1,0
288,96,3590,1,0
384,48,3744,1,0
448,128,3898,1,0
384,288,4052,5,0
384,288,4129,1,0
384,288,4206,1,0
384,288,4283,1,0
384,288,4360,1,0
384,288,4436,1,0
384,288,4513,1,0
384,288,4590,1,0
336,288,4667,6,0,B|288:288,7,26.25
336,288,4975,2,0,B|336:336,7,26.25
304,320,5284,5,4
208,320,5436,1,0
144,240,5590,1,8
144,128,5744,2,0,B|208:128|240:192,1,105
336,208,6052,2,0,B|400:208|416:144,1,105,0|8
320,112,6360,1,0
384,32,6513,1,0
272,16,6667,1,0
208,96,6821,1,8
144,176,6975,1,0
64,112,7129,1,0
32,144,7206,1,0
16,192,7283,1,0
80,272,7436,1,8
64,320,7513,1,0
32,352,7590,1,0
192,256,7744,6,0,B|240:368,1,105
288,256,8052,2,0,B|384:336,1,105,8|0
400,224,8360,1,0
400,224,8436,1,0
400,224,8513,1,0
448,128,8667,1,8
448,128,8744,1,0
448,128,8821,1,0
320,64,8975,2,0,B|256:32|192:48,1,105
240,144,9283,2,0,B|160:160|128:128,1,105,8|0
80,48,9590,1,0
80,48,9667,1,0
80,48,9744,1,0
16,128,9898,1,8
16,128,9975,1,0
16,128,10052,1,0
128,240,10206,6,0,B|144:304|192:352,1,105
240,240,10513,1,8
336,192,10667,2,0,B|304:128|240:112,1,105
176,64,10975,2,0,B|208:16|304:16,1,105,0|8
368,48,11283,1,0
416,144,11436,1,0
304,144,11590,1,0
240,224,11744,1,8
160,160,11898,1,0
80,96,12052,2,0,B|48:32,2,52.5
32,192,12360,1,8
64,288,12513,1,0
288,272,12667,6,0,B|269:330|192:368,1,105
176,256,12975,1,8
224,160,13129,1,0
336,160,13283,2,0,B|352:96|272:32,1,105
416,16,13590,2,0,B|416:80|480:128,1,105,8|0
432,208,13898,2,0,B|432:256|368:320,2,105,0|0|8
320,192,14360,1,0
224,208,14513,1,0
128,176,14667,1,0
80,80,14821,2,0,B|64:16|-16:0,1,105,8|0
48,192,15129,5,0
64,304,15283,1,0
144,240,15436,1,8
240,288,15590,1,0
224,176,15744,1,0
320,224,15898,1,0
400,160,16052,1,8
416,272,16206,1,0
304,80,16360,5,0
304,80,16436,1,0
304,80,16513,1,0
208,32,16667,1,8
208,32,16744,1,0
208,32,16821,1,0
144,112,16975,1,0
144,112,17052,1,0
144,112,17129,1,0
144,112,17206,1,0
144,112,17283,2,0,B|80:96,2,52.5,8|0|0
128,304,17590,5,0
224,336,17744,1,0
288,256,17898,1,8
240,160,18052,1,0
336,96,18206,1,0
256,32,18360,1,0
192,112,18513,1,8
96,64,18667,1,0
48,208,18821,5,0
48,208,18898,1,0
48,208,18975,1,0
144,256,19129,1,8
208,160,19283,1,0
256,64,19436,1,0
320,144,19590,1,0
320,256,19744,2,0,B|256:320,2,52.5,8|0|0
208,64,20052,6,0,B|256:176,1,105
400,288,20360,2,0,B|288:272,1,105,8|0
80,208,20667,2,0,B|192:272,1,105
416,64,20975,2,0,B|368:176,1,105,8|0
176,112,21283,6,0,B|256:96|288:160,1,105
208,224,21590,1,8
160,320,21744,2,0,B|96:304|80:208,1,105
48,144,22052,1,0
64,32,22206,2,0,B|96:80|176:64,1,105,8|0
336,32,22513,6,0,B|400:128,1,105
272,288,22821,2,0,B|384:288,1,105,8|0
208,176,23129,2,0,B|304:128,1,105
64,176,23436,2,0,B|64:288,1,105,8|0
176,48,23744,2,0,B|288:48,1,105
416,160,24052,2,0,B|448:96,2,52.5,8|0|0
256,320,24360,5,0
368,280,24513,1,0
448,184,24667,1,8
408,56,24821,1,0
272,0,24975,1,0
96,40,25129,1,0
32,208,25283,1,8
176,312,25436,1,0
256,176,25590,5,0
256,32,25744,1,0
256,176,25898,1,8
256,320,26052,1,0
256,176,26206,1,0
256,32,26360,1,0
256,176,26513,1,8
256,320,26667,1,0
408,128,26821,5,0
408,128,26898,1,0
408,128,26975,1,0
312,280,27129,1,8
312,280,27206,1,0
312,280,27283,1,0
176,168,27436,1,0
176,168,27513,1,0
176,168,27590,1,0
24,72,27744,1,8
24,72,27821,1,0
24,72,27898,1,0
120,224,28052,6,0,B|152:224,6,26.25
80,184,28360,2,0,B|80:136,6,26.25,8|0|0|0|0|0|0
40,224,28667,2,0,B|-8:224,6,26.25
80,264,28975,2,0,B|80:312,6,26.25,8|0|0|0|0|0|0
120,224,29283,6,0,B|184:224|232:272,1,105,4|0
288,336,29590,1,8
336,240,29744,2,0,B|384:192|448:208,1,105
384,112,30052,1,0
304,176,30206,1,8
192,176,30360,1,0
160,80,30513,2,0,B|240:96|272:32,1,105
368,48,30821,2,0,B|336:96|352:160,1,105,8|0
480,224,31129,5,0
400,304,31283,1,0
304,256,31436,1,8
192,272,31590,1,0
144,176,31744,2,0,B|80:160,2,52.5
240,112,32052,2,0,B|288:80,2,52.5,8|0|0
32,64,32360,6,0,B|96:80|144:48,1,105
208,128,32667,2,0,B|160:160|176:224,1,105,8|0
48,272,32975,2,0,B|48:352,1,52.5
112,296,33129,2,0,B|112:360,1,52.5
176,272,33283,2,0,B|176:352,1,52.5,8|0
240,280,33436,2,0,B|240:344,1,52.5
304,256,33590,2,0,B|304:336,1,52.5
368,296,33744,2,0,B|368:360,1,52.5
432,312,33898,2,0,B|432:376,1,52.5,8|0
496,336,34052,2,0,B|496:283,1,52.5
496,224,34206,6,0,B|440:256|368:208,2,105,0|0|8
432,144,34667,1,0
368,56,34821,2,0,B|336:128|248:112,1,105
192,80,35129,1,8
112,144,35283,2,0,B|48:128|-16:160,1,105
64,240,35590,2,0,B|32:288|48:352,1,105,0|8
144,304,35898,1,0
240,320,36052,2,0,B|352:304,1,105
272,224,36360,2,0,B|384:208,1,105,8|0
336,112,36667,1,0
336,112,36744,1,0
336,112,36821,1,0
240,64,36975,1,8
240,64,37052,1,0
240,64,37129,1,0
144,208,37283,6,0,B|80:208|32:256,1,105
224,160,37590,1,8
320,192,37744,2,0,B|384:192|432:144,1,105
336,80,38052,1,0
224,96,38206,1,8
160,192,38360,1,0
192,288,38513,2,0,B|304:336|416:272,1,210,0|8
96,64,39129,5,0
192,48,39283,1,0
160,144,39436,1,8
256,192,39590,1,0
336,112,39744,2,0,B|400:128|432:208,1,105
384,272,40052,1,8
272,288,40206,2,0,B|272:352|208:384,1,105
112,256,40513,2,0,B|96:320|144:384,2,105,0|8|0
176,64,40975,6,0,B|88:160|176:288,1,210,0|8
224,176,41436,1,0
320,144,41590,1,0
288,48,41744,2,0,B|368:32|416:80,1,105,0|8
416,160,42052,2,0,B|480:176|528:240,1,105
416,272,42360,1,0
320,224,42513,1,8
240,288,42667,1,0
80,160,42821,6,0,B|176:208,1,105
368,128,43129,2,0,B|288:240,1,105,8|0
112,256,43436,2,0,B|32:368,1,105
256,264,43744,2,0,B|352:344,1,105,8|0
208,48,44052,5,0
304,112,44206,1,0
224,192,44360,1,8
128,240,44513,2,0,B|128:304|176:368,1,105
256,288,44821,1,0
352,336,44975,1,8
336,224,45129,1,0
384,128,45283,2,0,B|448:144|464:208,2,105,0|0|8
320,32,45744,1,0
112,96,45898,6,0,B|176:128|224:96,1,105
288,176,46206,2,0,B|240:224|272:288,1,105,8|0
168,208,46513,2,0,B|200:144|168:96,1,105
128,16,46821,1,8
240,16,46975,2,0,B|368:16|400:144,1,210
320,208,47436,1,8
224,176,47590,2,0,B|224:304,1,105
128,128,47898,2,0,B|96:272,1,105,0|8
320,128,48206,2,0,B|352:272,1,105
168,40,48667,6,0,B|280:24,1,105,8|0
432,112,48975,5,4
352,176,49129,1,0
432,240,49283,1,8
336,272,49436,1,0
240,224,49590,2,0,B|160:320,1,105
272,320,49898,1,8
384,320,50052,2,0,B|432:256|384:176,1,105
336,128,50360,2,0,B|304:176|320:240,1,105,0|8
240,160,50667,2,0,B|256:96|192:48,1,105
112,32,50975,1,0
112,144,51129,1,8
176,240,51283,1,0
320,256,51436,6,0,B|256:304|272:384,1,105
368,176,51744,2,0,B|416:208|416:288,1,105,8|0
288,80,52052,2,0,B|256:144|288:208,1,105
368,0,52360,2,0,B|416:48|400:128,1,105,8|0
224,32,52667,1,0
144,96,52821,1,0
240,144,52975,1,8
160,224,53129,1,0
288,240,53283,1,0
336,336,53436,1,0
400,256,53590,1,8
464,336,53744,1,0
176,272,53898,6,0,B|80:368,1,105
304,144,54206,2,0,B|400:64,1,105,8|0
336,272,54513,1,0
272,352,54667,1,0
208,272,54821,1,8
112,224,54975,2,0,B|80:272|128:352,1,105
208,176,55283,1,0
304,128,55436,2,0,B|320:64|272:16,1,105,8|0
384,64,55744,1,0
400,160,55898,2,0,B|464:160|496:64,2,105,0|8|0
448,280,56360,5,0
336,304,56513,1,0
240,240,56667,1,8
240,352,56821,1,0
144,320,56975,1,0
48,304,57129,1,0
96,208,57283,1,8
64,112,57436,1,0
224,48,57590,5,0
336,48,57744,1,0
304,144,57898,1,8
224,208,58052,1,0
320,272,58206,1,0
400,208,58360,1,0
448,304,58513,1,8
352,352,58667,1,0
128,160,58821,6,0,B|144:304,1,105
272,144,59129,2,0,B|313:47,1,105,8|0
368,240,59436,2,0,B|384:368,1,105
480,128,59744,6,0,B|450:171,3,52.5,8|0|0|0
400,176,60052,2,0,B|349:188,3,52.5
304,176,60359,2,0,B|240:144,3,52.5,8|0|0|0
224,192,60667,2,0,B|192:256,3,52.5
160,272,60975,1,8
112,288,61052,1,0
64,272,61129,1,0
32,224,61206,1,0
16,176,61283,1,0
48,128,61360,1,0
96,96,61436,1,0
144,64,61513,1,0
192,80,61590,1,8
240,64,61667,1,0
288,32,61744,1,0
336,48,61821,1,0
384,64,61898,6,0,B|416:64,6,26.25
368,112,62206,2,0,B|336:112,6,26.25
384,160,62513,6,0,B|384:288|224:320,1,210,4|8
160,288,62975,1,0
64,224,63129,2,0,B|96:176|176:176,1,105
256,192,63436,1,8
352,240,63590,2,0,B|464:240,1,105
400,144,63898,2,0,B|512:112,1,105,0|8
416,48,64206,1,0
304,48,64360,6,0,B|248:43|160:80,1,105
112,128,64667,1,8
208,144,64821,1,0
304,192,64975,2,0,B|352:224|384:288,1,105
464,224,65283,2,0,B|494:282|480:352,1,105,8|0
384,368,65590,1,0
288,336,65744,1,0
192,304,65898,1,8
128,224,66052,1,0
48,48,66206,6,0,B|48:112,1,52.5
112,80,66360,2,0,B|112:144,1,52.5
176,88,66513,2,0,B|176:160,1,52.5,8|0
240,72,66667,2,0,B|240:144,1,52.5
304,56,66821,2,0,B|304:120,1,52.5
368,64,66975,2,0,B|368:128,1,52.5
432,80,67129,2,0,B|432:136,1,52.5,8|0
496,48,67283,2,0,B|496:128,1,52.5
496,152,67436,6,0,B|464:208|384:192,2,105,4|0|8
480,256,67898,1,0
384,288,68052,1,0
272,288,68206,2,0,B|256:235|192:208,1,105,0|8
160,112,68513,2,0,B|112:144|96:208,1,105
144,304,68821,1,0
32,288,68975,2,0,B|0:240|16:160,1,105,8|0
80,80,69283,6,0,B|144:64|160:16,1,105
224,96,69590,2,0,B|272:144|352:144,1,105,8|0
288,240,69898,1,0
384,208,70052,1,0
400,96,70206,1,8
304,64,70360,2,0,B|320:144|224:176,1,105
176,208,70667,1,0
224,304,70821,1,8
320,320,70975,1,0
368,208,71129,2,0,B|416:176|464:96,1,105
336,112,71436,2,0,B|304:80|272:16,1,105,8|0
192,96,71744,2,0,B|176:144|128:208,1,105
192,320,72052,6,0,B|224:240|256:320,1,105,8|0
304,112,72360,6,0,B|352:208|256:336,1,210,4|8
176,256,72821,1,0
128,160,72975,1,0
224,176,73129,1,0
304,96,73283,2,0,B|304:160|336:224,1,105,8|0
432,208,73590,2,0,B|448:288|368:336,1,105
304,352,73898,1,8
208,304,74052,1,0
112,272,74206,1,0
160,176,74360,1,0
96,96,74513,1,8
224,32,74667,2,0,B|208:96|144:128,1,105
272,144,74975,2,0,B|272:249,2,105,0|8|0
368,192,75436,1,0
464,224,75590,2,0,B|476:296|400:336,1,105,0|8
336,368,75898,1,0
160,352,76052,5,0
48,256,76206,1,0
80,112,76360,1,8
192,16,76513,1,0
336,32,76667,1,0
448,128,76821,1,0
448,272,76975,1,8
336,368,77129,1,0
224,144,77283,6,0,B|224:256,1,105
336,256,77590,1,8
272,336,77744,1,0
160,352,77898,2,0,B|144:304|64:272,1,105
176,224,78206,1,8
192,112,78360,2,0,B|240:160|320:176,2,105
128,16,78821,1,8
240,32,78975,1,0
352,48,79129,5,0
384,160,79283,1,0
480,112,79436,1,8
496,224,79590,1,0
448,320,79744,2,0,B|395:336|304:304,1,105
192,240,80052,2,0,B|240:208|336:240,1,105,8|0
384,128,80360,5,0
288,80,80513,1,0
176,80,80667,1,8
96,144,80821,1,0
80,256,80975,6,0,B|96:368,1,105
192,192,81283,2,0,B|160:320,1,105,8|0
264,256,81590,2,0,B|336:128,1,105
368,64,81898,2,0,B|416:192,1,105,8|0
416,272,82206,2,0,B|320:176|224:240,1,210,0|8
144,304,82667,1,0
48,256,82821,1,0
48,144,82975,1,0
160,128,83129,1,8
240,64,83283,1,0
352,64,83436,6,0,B|352:176,1,105
448,224,83744,2,0,B|448:112,1,105,8|0
352,256,84052,2,0,B|464:320,1,105
336,352,84360,2,0,B|240:304,1,105,8|0
272,208,84667,2,0,B|192:112|64:192,1,210,0|8
112,288,85129,1,0
16,256,85283,1,0
16,144,85436,1,0
96,80,85590,1,8
192,32,85744,1,0
384,56,85898,5,0
384,64,85975,1,0
384,72,86052,1,0
384,80,86129,1,0
344,112,86206,1,8
344,120,86283,1,0
344,128,86360,1,0
344,136,86436,1,0
296,160,86513,5,0
296,168,86590,1,0
296,176,86667,1,0
296,184,86744,1,0
328,224,86821,1,8
328,232,86898,1,0
328,240,86975,1,0
328,248,87052,1,0
288,288,87129,5,0
280,288,87206,1,0
272,288,87283,1,0
264,288,87360,1,0
224,256,87436,1,8
216,256,87513,1,0
208,256,87590,1,0
200,256,87667,1,0
160,216,87744,5,0
152,216,87821,1,0
144,216,87898,1,0
136,216,87975,1,0
96,184,88052,1,8
88,184,88129,1,0
80,184,88206,1,0
72,184,88283,1,0
40,144,88360,5,0
48,136,88436,1,0
56,128,88513,1,0
64,120,88590,1,0
72,112,88667,1,8
80,104,88744,1,0
88,96,88821,1,0
96,88,88898,1,0
144,112,88975,5,0
152,104,89052,1,0
160,96,89129,1,0
168,88,89206,1,0
176,80,89283,1,8
184,72,89360,1,0
192,64,89436,1,0
200,56,89513,1,0
256,56,89590,6,0,B|288:56,6,26.25
296,80,89898,2,0,B|344:80,6,26.25
336,104,90206,2,0,B|384:104,6,26.25
376,128,90513,2,0,B|408:128,6,26.25
416,152,90821,6,0,B|416:264,1,105,4|0
328,312,91129,2,0,B|328:207,1,105
232,120,91436,2,0,B|232:240,1,105
136,360,91744,2,0,B|136:255,1,105
48,72,92052,2,0,B|48:200,1,105
200,144,92360,2,0,B|200:32,1,105
344,112,92667,2,0,B|344:248,1,105
496,112,92975,2,0,B|496:-8,1,105
304,192,93283,6,0,B|432:192,1,105,4|0
256,240,93590,2,0,B|256:352,1,105
208,192,93898,2,0,B|96:192,1,105
256,144,94206,2,0,B|256:32,1,105
400,48,94513,2,0,B|320:128,1,105
112,48,94821,2,0,B|192:128,1,105
112,336,95129,2,0,B|208:240,1,105
400,336,95436,2,0,B|320:256,1,105
224,144,95744,6,0,B|288:144|320:192,1,105,4|0
368,176,95975,1,0
392,224,96052,2,0,B|392:288|312:320,1,105,4|0
304,352,96283,1,0
280,304,96360,2,0,B|249:271|160:288,1,105,4|0
160,336,96590,1,0
120,296,96667,2,0,B|72:256|72:160,1,105,4|0
48,160,96898,1,0
80,120,96975,6,0,B|192:104,1,105,4|0
480,208,97590,2,0,B|464:320,1,105,4|0
264,64,98206,2,0,B|168:16,1,105,4|0
280,312,98821,2,0,B|376:392,1,105,4|0
256,192,99436,6,0,B|267:233,30,26.25
232,144,100667,5,4
