osu file format v7

[General]
AudioFilename: nini.mp3
AudioLeadIn: 3000
PreviewTime: 43052
Countdown: 0
SampleSet: Soft
StackLeniency: 0.4
Mode: 0
LetterboxInBreaks: 1

[Editor]
Bookmarks: 15129,23744,29283,39129,48975,56360,62513,72360,80975,85898,89590
DistanceSpacing: 0.800000011920929
BeatDivisor: 1
GridSize: 16

[Metadata]
Title:Miya to Tengoku to Jigoku
Artist:Tachibana Miya
Creator:AngelHoney
Version:Baka
Source:NicoNicoDouga
Tags:Amagami Asumi Kana Can

[Difficulty]
HPDrainRate:1
CircleSize:3
OverallDifficulty:2
SliderMultiplier:0.499999999999999
SliderTickRate:0.5

[Events]
//Background and Video events
0,0,"9145645.jpg"
//Break Periods
//Storyboard Layer 0 (Background)
//Storyboard Layer 1 (Fail)
//Storyboard Layer 2 (Pass)
//Storyboard Layer 3 (Foreground)
//Storyboard Sound Samples
//Background Colour Transformations
3,100,163,162,255

[TimingPoints]
360,307.692307692308,4,2,0,50,1,0
100667,-100,4,2,0,50,0,1
100706,-100,4,2,0,50,0,0

[HitObjects]
160,96,360,6,0,B|256:32|352:96,1,200
352,256,2821,2,0,B|256:320|160:256,1,200
64,144,5283,5,4
224,144,6513,1,0
384,144,7744,2,0,B|352:192|384:240,1,99.9999999999998
448,192,8975,2,0,B|480:240|448:288,1,99.9999999999998
384,336,10206,5,0
224,336,11436,1,0
128,208,12667,2,0,B|224:144|320:208,1,200
416,80,15129,5,4
352,128,15744,1,0
288,80,16360,2,0,B|240:48|192:80,1,99.9999999999998
240,144,17590,1,0
192,208,18206,1,0
128,160,18821,2,0,B|96:208|128:256,1,99.9999999999998
176,320,20052,6,0,B|272:384|368:320,1,200
272,192,22513,2,0,B|368:128|464:192,1,200
416,256,24360,6,0,B|304:256,3,99.9999999999998,0|0|0|0
256,192,26821,12,0,28667
160,192,29283,5,4
112,128,29898,2,0,B|160:96|208:128,1,99.9999999999998
272,80,31129,2,0,B|304:128|272:176,1,99.9999999999998
224,240,32360,2,0,B|272:272|320:240,2,99.9999999999998
160,192,34206,5,0
320,192,35436,1,0
240,64,36667,1,0
240,224,37898,2,0,B|240:336,1,99.9999999999998
320,336,39129,5,4
400,320,39744,2,0,B|496:240|400:144,1,200
368,224,41590,2,0,B|272:144|368:48,1,200
208,48,44052,5,0
224,128,44667,1,0
208,208,45283,1,0
192,288,45898,1,0
208,368,46513,2,0,B|336:368,2,99.9999999999998
128,352,48360,1,0
64,304,48975,6,0,B|64:176|208:176,1,200
320,272,51436,2,0,B|448:272|448:144,1,200
288,112,53898,5,0
208,112,54513,1,0
144,64,55129,2,0,B|112:112|144:160,1,99.9999999999998
208,208,56360,6,0,B|336:208,3,99.9999999999998
312,128,58821,1,0
384,168,59436,1,0
384,248,60052,1,0
312,288,60667,1,0
256,192,60975,12,4,62513
80,192,63129,6,0,B|208:192,1,99.9999999999998
144,112,64360,2,0,B|272:112,1,99.9999999999998
272,192,65590,1,0
272,272,66206,2,0,B|272:322,2,49.9999999999999
352,288,67436,6,0,B|400:320|448:288,1,99.9999999999998
400,224,68667,2,0,B|352:192|304:224,1,99.9999999999998
352,288,69898,2,0,B|304:320|256:288,1,99.9999999999998
304,224,71129,2,0,B|304:160,2,49.9999999999999
224,224,72360,6,0,B|224:96|80:96,1,200
96,176,74206,1,0
96,256,74821,2,0,B|224:256|224:112,1,200
224,48,76667,1,0
304,80,77283,6,0,B|304:208,1,99.9999999999998
384,144,78513,1,0
384,224,79129,1,0
464,192,79744,2,0,B|464:304,1,99.9999999999998
384,304,80975,6,0,B|288:368|192:304,3,200,4|0|0|0
32,192,85898,5,4
96,128,86513,1,0
160,192,87129,1,0
224,256,87744,1,0
288,192,88360,1,0
352,128,88975,1,0
416,192,89590,1,0
480,256,90206,1,0
416,320,90821,6,0,B|316:320,1,99.9999999999998,0|0
256,272,92052,2,0,B|208:304|160:272,1,99.9999999999998
208,208,93283,2,0,B|256:176|304:208,1,99.9999999999998
368,160,94513,2,0,B|496:160,1,99.9999999999998
256,192,95744,12,4,96975
256,192,97590,6,0,B|256:80,2,99.9999999999998,4|4|4
176,160,99436,2,0,B|176:288|320:288,1,200,4|4
