osu file format v14

[General]
AudioFilename: audio.mp3
AudioLeadIn: 0
PreviewTime: 28309
Countdown: 0
SampleSet: Soft
StackLeniency: 0.7
Mode: 0
LetterboxInBreaks: 0
WidescreenStoryboard: 1

[Editor]
DistanceSpacing: 1
BeatDivisor: 2
GridSize: 8
TimelineZoom: 2

[Metadata]
Title:Kimi ni Todoke
TitleUnicode:きみにとどけ
Artist:Tachibana Arisu
ArtistUnicode:橘ありす
Creator:S o a p
Version:liaoxingyao's Hard
Source:アイドルマスターシンデレラガールズ
Tags:佐藤亜美菜 Satou Amina THE IDOLMASTER 谷澤智文 タニザワトモフミ Tomofumi Tanizawa IDOLM@STER CINDERELLA GIRLS Cool jewelries! 003 AKB48 OniJAM liaoxingyao Kayano Sun_Rainbow
BeatmapID:1363685
BeatmapSetID:642581

[Difficulty]
HPDrainRate:5
CircleSize:4
OverallDifficulty:6
ApproachRate:8
SliderMultiplier:1.5
SliderTickRate:1

[Events]
//Background and Video events
0,0,"bg.jpg",0,0
//Break Periods
//Storyboard Layer 0 (Background)
//Storyboard Layer 1 (Fail)
//Storyboard Layer 2 (Pass)
//Storyboard Layer 3 (Foreground)
//Storyboard Sound Samples

[TimingPoints]
628,476.190476190476,4,2,1,36,1,0
3485,-100,4,2,1,25,0,0
4318,-100,4,2,1,39,0,0
25627,-100,4,2,3,39,0,0
25866,-100,4,2,3,49,0,0
26104,-100,4,2,3,50,0,0
26342,-100,4,2,3,51,0,0
26580,-100,4,2,3,54,0,0
26818,-100,4,2,3,57,0,0
27056,-100,4,2,3,60,0,0
27532,-100,4,2,3,50,0,0
28247,-100,4,2,3,54,0,0
28723,-100,4,2,3,56,0,0
29199,-100,4,2,3,58,0,1
31818,-100,4,2,2,67,0,1
31937,-100,4,2,3,58,0,1
34913,-100,4,2,2,67,0,1
35032,-100,4,2,3,58,0,1
43247,-100,4,2,2,67,0,1
43366,-100,4,2,3,58,0,1
43485,-100,4,2,3,58,0,0
44437,-100,4,2,3,58,0,1
47056,-100,4,2,2,67,0,1
47175,-100,4,2,3,58,0,1
48247,-100,4,2,2,67,0,1
48366,-100,4,2,3,57,0,1
53247,-100,4,2,2,67,0,1
53366,-100,4,2,3,57,0,1
53723,-100,4,2,2,67,0,1
53842,-100,4,2,3,57,0,1
55866,-100,4,2,3,40,0,0

[Colours]
Combo1 : 233,223,107
Combo2 : 233,193,234
Combo3 : 211,159,232
Combo4 : 133,194,197

[HitObjects]
63,51,4437,6,0,L|151:45,1,75,4|0,0:0|0:0,0:0:0:0:
201,118,4913,2,0,P|203:157|189:215,1,75,8|0,0:0|0:0,0:0:0:0:
147,274,5389,1,2,0:0:0:0:
204,342,5627,1,0,0:0:0:0:
293,350,5866,2,0,B|329:356|329:356|374:348,1,75,8|2,0:0|0:0,0:0:0:0:
441,267,6342,6,0,P|447:236|438:182,1,75,0|0,0:0|0:0,0:0:0:0:
358,143,6818,2,0,P|352:174|361:228,1,75,8|0,0:0|0:0,0:0:0:0:
441,116,7294,1,2,0:0:0:0:
377,63,7532,1,0,0:0:0:0:
299,33,7770,2,0,L|208:28,1,75,8|0,0:0|0:0,0:0:0:0:
155,94,8247,5,2,0:0:0:0:
105,173,8485,2,0,P|94:206|96:261,2,75,0|8|2,0:0|0:0|0:0,0:0:0:0:
184,230,9199,2,0,L|264:238,1,75,0|2,0:0|0:0,0:0:0:0:
328,163,9675,2,0,L|248:155,1,75,8|0,0:0|0:0,0:0:0:0:
154,116,10151,5,2,0:0:0:0:
97,189,10389,1,0,0:0:0:0:
77,280,10627,2,0,L|83:355,1,75,8|0,0:0|0:0,0:0:0:0:
183,333,11104,1,2,0:0:0:0:
256,276,11342,1,0,0:0:0:0:
347,256,11580,2,0,B|389:249|389:249|451:268|451:268|503:262,1,150,8|2,0:0|0:0,0:0:0:0:
477,175,12294,6,0,L|482:72,1,75,0|8,0:0|0:0,0:0:0:0:
412,47,12770,1,2,0:0:0:0:
330,73,13008,2,0,P|290:77|245:67,1,75,0|2,0:0|0:0,0:0:0:0:
186,28,13485,1,8,0:0:0:0:
186,28,13723,1,0,0:0:0:0:
186,28,13961,6,0,L|182:111,1,75,2|0,0:0|0:0,0:0:0:0:
94,126,14437,2,0,L|90:200,1,75,8|2,0:0|0:0,0:0:0:0:
175,225,14913,1,0,0:0:0:0:
248,176,15151,1,0,0:0:0:0:
327,220,15389,2,0,P|361:213|409:224,1,75,8|2,0:0|0:0,0:0:0:0:
477,300,15866,5,0,0:0:0:0:
392,341,16104,2,0,L|313:335,2,75,0|8|2,0:0|0:0|0:0,0:0:0:0:
477,300,16818,1,0,0:0:0:0:
436,215,17056,2,0,L|442:136,2,75,0|8|0,0:0|0:0|0:0,0:0:0:0:
366,262,17770,5,2,0:0:0:0:
352,179,18008,1,0,0:0:0:0:
360,95,18247,2,0,L|368:18,1,75,8|0,0:0|0:0,0:0:0:0:
259,56,18723,6,0,L|266:130,1,75,2|0,0:0|0:0,0:0:0:0:
274,214,19200,1,8,0:0:0:0:
261,297,19438,1,0,0:0:0:0:
188,340,19675,6,0,L|103:335,1,75,2|0,0:0|0:0,0:0:0:0:
62,246,20151,2,0,L|147:251,1,75,8|0,0:0|0:0,0:0:0:0:
207,167,20627,2,0,L|132:162,1,75,2|0,0:0|0:0,0:0:0:0:
79,100,21104,2,0,L|83:25,1,75,8|2,0:0|0:0,0:0:0:0:
122,26,21461,1,0,0:0:0:0:
161,27,21580,6,0,L|246:32,1,75,2|0,0:0|0:0,0:0:0:0:
311,123,22056,2,0,L|226:118,1,75,8|0,0:0|0:0,0:0:0:0:
166,202,22532,2,0,L|240:206,1,75,2|0,0:0|0:0,0:0:0:0:
294,269,23009,2,0,L|289:343,1,75,8|0,0:0|0:0,0:0:0:0:
387,373,23485,6,0,P|396:347|393:291,1,75,2|0,0:0|0:0,0:0:0:0:
368,219,23961,2,0,P|365:181|376:145,1,75,8|2,0:0|0:0,0:0:0:0:
412,155,24318,1,0,0:0:0:0:
448,165,24437,2,0,B|478:101|453:19,1,150,2|8,0:0|0:0,0:0:0:0:
369,41,25151,2,0,L|291:36,1,75,2|0,0:0|0:0,0:0:0:0:
230,102,25627,5,2,0:0:0:0:
270,180,25866,1,8,0:0:0:0:
354,203,26104,1,0,0:0:0:0:
468,244,26342,5,2,0:0:0:0:
428,322,26581,1,0,0:0:0:0:
344,345,26819,1,8,0:0:0:0:
260,323,27056,2,0,L|256:238,1,75,4|0,0:0|0:0,0:0:0:0:
143,215,27532,6,0,L|95:221,4,37.5,2|0|8|0|2,0:0|0:0|0:0|0:0|0:0,0:0:0:0:
270,180,28247,1,2,0:0:0:0:
279,143,28366,1,0,0:0:0:0:
280,106,28485,2,0,L|330:100,1,37.5,8|0,0:0|0:0,0:0:0:0:
260,34,28723,2,0,L|210:40,2,37.5,8|0|0,0:0|0:0|0:0,0:0:0:0:
360,44,29199,6,0,L|440:46,1,75,6|0,0:0|0:0,0:0:0:0:
479,135,29675,2,0,P|485:158|475:225,1,75,8|0,0:0|0:0,0:0:0:0:
417,286,30151,2,0,B|379:278|379:278|292:308,1,112.5,2|0,0:0|0:0,0:0:0:0:
263,289,30627,2,0,L|256:186,1,75,8|0,0:0|0:0,0:0:0:0:
169,141,31104,5,2,0:0:0:0:
81,213,31342,2,0,L|74:303,1,75,0|8,0:0|0:0,0:0:0:0:
154,346,31818,2,0,L|161:256,1,75,2|0,0:0|0:0,0:0:0:0:
81,213,32294,1,0,0:0:0:0:
61,133,32532,1,8,0:0:0:0:
75,52,32770,1,0,0:0:0:0:
147,8,33008,6,0,L|227:23,1,75,2|0,0:0|0:0,0:0:0:0:
265,113,33485,2,0,P|268:152|260:199,1,75,8|0,0:0|0:0,0:0:0:0:
165,173,33961,2,0,L|85:188,1,75,2|0,0:0|0:0,0:0:0:0:
47,278,34438,2,0,P|44:317|52:364,1,75,8|0,0:0|0:0,0:0:0:0:
145,341,34913,5,2,0:0:0:0:
231,330,35151,1,0,0:0:0:0:
312,363,35389,2,0,L|402:352,1,75,8|0,0:0|0:0,0:0:0:0:
474,362,35866,2,0,P|481:320|474:274,1,75,2|0,0:0|0:0,0:0:0:0:
416,215,36342,2,0,P|409:178|412:140,1,75,8|0,0:0|0:0,0:0:0:0:
461,61,36818,6,0,B|407:45|407:45|333:71,1,112.5,2|0,0:0|0:0,0:0:0:0:
317,78,37294,2,0,L|227:77,1,75,8|2,0:0|0:0,0:0:0:0:
151,31,37770,1,0,0:0:0:0:
122,112,38008,1,0,0:0:0:0:
154,193,38247,2,0,P|156:229|144:272,1,75,8|2,0:0|0:0,0:0:0:0:
61,355,38723,6,0,L|181:348,1,112.5,0|0,0:0|0:0,0:0:0:0:
211,333,39199,2,0,P|220:306|221:249,1,75,8|0,0:0|0:0,0:0:0:0:
297,188,39675,2,0,L|417:195,1,112.5,2|0,0:0|0:0,0:0:0:0:
447,210,40151,2,0,P|456:237|457:294,1,75,8|0,0:0|0:0,0:0:0:0:
382,357,40627,6,0,P|373:330|372:273,1,75,2|0,0:0|0:0,0:0:0:0:
409,194,41104,2,0,L|418:113,1,75,8|2,0:0|0:0,0:0:0:0:
329,48,41580,1,0,0:0:0:0:
249,64,41818,1,0,0:0:0:0:
233,145,42056,1,8,0:0:0:0:
313,129,42294,1,0,0:0:0:0:
249,64,42532,6,0,P|214:57|172:64,1,75,2|0,0:0|0:0,0:0:0:0:
64,139,43008,2,0,P|99:146|141:139,1,75,8|2,0:0|0:0,0:0:0:0:
198,283,43723,1,0,0:0:0:0:
131,354,43961,1,8,0:0:0:0:
104,352,44080,1,0,0:0:0:0:
78,351,44199,1,2,0:0:0:0:
44,251,44437,6,0,B|32:216|32:216|43:163,1,75,4|0,0:0|0:0,0:0:0:0:
119,131,44913,2,0,B|154:143|154:143|207:132,1,75,8|2,0:0|0:0,0:0:0:0:
268,198,45389,2,0,P|288:154|266:76,1,112.5
301,49,45866,2,0,L|383:44,1,75,8|2,0:0|0:0,0:0:0:0:
448,114,46342,5,2,0:0:0:0:
419,204,46580,2,0,L|425:293,1,75,0|8,0:0|0:0,0:0:0:0:
471,357,47056,1,2,0:0:0:0:
356,354,47294,2,0,P|330:348|276:364,1,75,2|2,0:0|0:0,0:0:0:0:
250,346,47651,1,0,0:0:0:0:
224,321,47770,2,0,L|216:215,1,75,8|0,0:0|0:0,0:0:0:0:
139,199,48247,6,0,P|113:206|55:196,1,75,2|2,0:0|0:0,0:0:0:0:
24,121,48723,2,0,P|17:95|27:37,1,75,8|2,0:0|0:0,0:0:0:0:
108,22,49199,2,0,P|134:15|192:25,1,75,2|0,0:0|0:0,0:0:0:0:
223,100,49675,2,0,P|230:126|220:184,1,75,8|0,0:0|0:0,0:0:0:0:
139,199,50151,5,2,0:0:0:0:
95,284,50389,2,0,L|88:362,1,75,0|8,0:0|0:0,0:0:0:0:
178,366,50866,1,0,0:0:0:0:
263,322,51104,2,0,L|341:315,2,75,2|0|8,0:0|0:0|0:0,0:0:0:0:
187,260,51818,1,2,0:0:0:0:
252,189,52056,6,0,P|262:151|260:106,1,75,4|0,0:0|0:0,0:0:0:0:
179,65,52532,1,8,0:0:0:0:
115,135,52770,2,0,L|94:290,1,150,2|2,0:0|0:0,0:0:0:0:
165,337,53485,1,8,0:0:0:0:
223,270,53723,2,0,B|261:255|261:255|329:264|329:264|381:245,1,150,2|2,2:0|0:0,0:0:0:0:
442,170,54437,2,0,P|449:127|443:56,1,112.5,8|0,0:0|0:0,0:0:0:0:
399,32,54913,5,2,0:0:0:0:
304,51,55151,1,0,0:0:0:0:
210,26,55389,1,8,0:0:0:0:
210,26,55508,1,0,0:0:0:0:
210,26,55627,1,2,0:0:0:0:
304,51,55866,6,0,L|291:213,1,150,4|8,0:0|0:0,0:0:0:0:
217,269,56580,1,0,0:0:0:0:
217,269,56818,2,0,B|185:254|185:254|97:269,2,112.5,2|0|0,0:0|0:0|0:0,0:0:0:0:
292,326,57770,6,0,P|336:340|415:320,1,112.5,2|0,0:0|0:0,0:0:0:0:
436,288,58247,2,0,L|443:191,1,75,8|0,0:0|0:0,0:0:0:0:
393,128,58723,1,2,0:0:0:0:
316,177,58961,1,0,0:0:0:0:
225,166,59199,2,0,L|206:18,1,150,8|2,0:0|0:0,0:0:0:0:
105,183,60151,5,8,0:0:0:0:
169,246,60389,1,0,0:0:0:0:
169,246,60627,2,0,P|219:237|284:262,2,112.5,2|0|0,0:0|0:0|0:0,0:0:0:0:
110,317,61580,6,0,P|82:269|96:200,1,112.5,2|0,0:0|0:0,0:0:0:0:
105,183,62056,2,0,L|196:174,1,75,8|2,0:0|0:0,0:0:0:0:
256,104,62532,1,0,0:0:0:0:
332,175,62770,2,0,L|407:183,1,75,2|8,0:0|0:0,0:0:0:0:
463,254,63247,1,2,0:0:0:0:
391,312,63485,6,0,P|367:260|409:180,1,150,4|8,0:0|0:0,0:0:0:0:
460,109,64199,1,0,0:0:0:0:
460,109,64437,2,0,L|343:102,2,112.5,2|0|0,0:0|0:0|0:0,0:0:0:0:
480,195,65389,6,0,P|496:247|480:301,1,112.5,2|0,0:0|0:0,0:0:0:0:
456,333,65866,2,0,L|377:337,1,75,8|2,0:0|0:0,0:0:0:0:
310,285,66342,1,0,0:0:0:0:
242,340,66580,1,0,0:0:0:0:
157,361,66818,2,0,B|143:324|143:324|153:208,1,150,8|2,0:0|0:0,0:0:0:0:
256,48,67770,5,8,0:0:0:0:
188,100,68008,1,2,0:0:0:0:
188,100,68127,1,0,0:0:0:0:
188,100,68247,1,2,0:0:0:0:
256,152,68485,1,0,0:0:0:0:
324,100,68723,1,2,0:0:0:0:
256,48,68961,1,2,0:0:0:0:
188,100,69199,5,4,0:0:0:0:
