osu file format v14

[General]
AudioFilename: audio.mp3
AudioLeadIn: 0
PreviewTime: 28309
Countdown: 0
SampleSet: Soft
StackLeniency: 0.7
Mode: 0
LetterboxInBreaks: 0
WidescreenStoryboard: 1

[Editor]
DistanceSpacing: 1
BeatDivisor: 2
GridSize: 16
TimelineZoom: 2

[Metadata]
Title:Kimi ni Todoke
TitleUnicode:きみにとどけ
Artist:Tachibana Arisu
ArtistUnicode:橘ありす
Creator:S o a p
Version:Kayano's Easy
Source:アイドルマスターシンデレラガールズ
Tags:佐藤亜美菜 Satou Amina THE IDOLMASTER 谷澤智文 タニザワトモフミ Tomofumi Tanizawa IDOLM@STER CINDERELLA GIRLS Cool jewelries! 003 AKB48 OniJAM liaoxingyao Kayano Sun_Rainbow
BeatmapID:1365317
BeatmapSetID:642581

[Difficulty]
HPDrainRate:2
CircleSize:3
OverallDifficulty:2.5
ApproachRate:3
SliderMultiplier:0.9
SliderTickRate:1

[Events]
//Background and Video events
0,0,"bg.jpg",0,0
//Break Periods
//Storyboard Layer 0 (Background)
//Storyboard Layer 1 (Fail)
//Storyboard Layer 2 (Pass)
//Storyboard Layer 3 (Foreground)
//Storyboard Sound Samples

[TimingPoints]
628,476.190476190476,4,2,1,36,1,0
3485,-100,4,2,1,25,0,0
4318,-100,4,2,1,39,0,0
25627,-100,4,2,3,39,0,0
25866,-100,4,2,3,49,0,0
26104,-100,4,2,3,50,0,0
26342,-100,4,2,3,51,0,0
26580,-100,4,2,3,54,0,0
26818,-100,4,2,3,57,0,0
27056,-100,4,2,3,60,0,0
27532,-100,4,2,3,50,0,0
28247,-100,4,2,3,54,0,0
28723,-100,4,2,3,56,0,0
29199,-100,4,2,3,58,0,1
43485,-100,4,2,3,58,0,0
44437,-100,4,2,3,58,0,1
55866,-100,4,2,3,40,0,0

[Colours]
Combo1 : 233,223,107
Combo2 : 233,193,234
Combo3 : 211,159,232
Combo4 : 133,194,197

[HitObjects]
33,96,3485,6,0,L|137:103,1,90
193,45,4437,2,0,P|215:85|207:135,1,90,2|8,0:0|0:0,0:0:0:0:
172,209,5389,2,0,L|182:309,1,90,2|8,0:0|0:0,0:0:0:0:
256,347,6342,5,2,0:0:0:0:
288,263,6818,1,8,0:0:0:0:
368,302,7294,2,0,L|472:295,1,90,2|8,0:0|0:0,0:0:0:0:
499,206,8247,6,0,P|389:126|450:33,1,270,2|0,0:0|0:0,0:0:0:0:
479,119,10151,1,2,0:0:0:0:
324,211,11104,2,0,L|220:218,1,90,2|0,0:0|0:0,0:0:0:0:
145,205,12056,6,0,P|115:155|120:107,1,90,2|8,0:0|0:0,0:0:0:0:
148,41,13008,1,2,0:0:0:0:
297,140,13961,6,0,P|327:190|322:238,1,90,2|8,0:0|0:0,0:0:0:0:
294,304,14913,1,2,0:0:0:0:
184,161,15866,6,0,P|235:53|408:145,1,360,2|2,0:0|0:0,0:0:0:0:
381,319,18723,2,0,P|336:314|300:288,1,90,2|0,0:0|0:0,0:0:0:0:
219,249,19675,6,0,L|105:260,2,90,2|8|2,0:0|0:0|0:0,0:0:0:0:
294,199,21104,1,8,0:0:0:0:
369,149,21580,6,0,L|483:138,2,90,2|8|2,0:0|0:0|0:0,0:0:0:0:
285,114,23008,1,8,0:0:0:0:
208,161,23485,6,0,P|194:106|212:62,1,90,2|8,0:0|0:0,0:0:0:0:
278,25,24437,2,0,L|392:36,1,90,2|8,0:0|0:0,0:0:0:0:
256,192,25389,12,0,27294,0:0:0:0:
501,282,29199,6,0,B|458:295|458:295|400:282,1,90,4|8,0:0|0:0,0:0:0:0:
356,215,30151,2,0,B|312:205|312:205|269:218,1,90,2|8,0:0|0:0,0:0:0:0:
194,268,31104,2,0,L|13:254,2,180,2|2|2,0:0|0:0|0:0,0:0:0:0:
245,193,33485,5,8,0:0:0:0:
296,118,33961,2,0,P|285:65|260:39,1,90,2|8,0:0|0:0,0:0:0:0:
206,112,34913,5,2,0:0:0:0:
245,193,35389,2,0,P|307:208|387:129,1,180,8|8,0:0|0:0,0:0:0:0:
433,58,36818,6,0,B|418:107|442:145|442:145|427:187|427:187|449:227|449:227|443:340,1,270,2|8,0:0|0:0,0:0:0:0:
358,342,38723,2,0,L|364:236,1,90,2|8,0:0|0:0,0:0:0:0:
320,172,39675,1,2,0:0:0:0:
233,198,40151,1,8,0:0:0:0:
160,144,40627,6,0,P|100:148|15:68,2,180,2|2|2,0:0|0:0|0:0,0:0:0:0:
246,117,43008,2,0,P|306:113|391:193,1,180,8|8,0:0|0:0,0:0:0:0:
408,277,44437,6,0,L|398:366,1,90,4|8,0:0|0:0,0:0:0:0:
312,339,45389,2,0,L|322:250,1,90,2|8,0:0|0:0,0:0:0:0:
363,169,46342,2,0,P|419:102|506:96,2,180,2|2|2,0:0|0:0|0:0,0:0:0:0:
294,110,48723,5,8,0:0:0:0:
256,192,49199,1,2,0:0:0:0:
218,274,49675,1,8,0:0:0:0:
149,215,50151,2,0,P|92:281|5:287,2,180,2|2|2,0:0|0:0|0:0,0:0:0:0:
199,89,52770,6,0,L|295:95,2,90,2|2|2,0:0|0:0|0:0,0:0:0:0:
84,161,54437,1,8,0:0:0:0:
66,249,54913,2,0,L|73:341,2,90,2|8|4,0:0|0:0|0:0,0:0:0:0:
200,129,56818,6,0,L|193:37,1,90,2|0,0:0|0:0,0:0:0:0:
281,22,57770,2,0,P|367:42|465:36,2,180,2|2|2,0:0|0:0|0:0,0:0:0:0:
287,201,60627,6,0,L|294:293,1,90,2|0,0:0|0:0,0:0:0:0:
206,308,61580,2,0,P|120:288|22:294,2,180,2|2|4,0:0|0:0|0:0,0:0:0:0:
380,354,64437,6,0,P|368:308|377:260,1,90,2|0,0:0|0:0,0:0:0:0:
418,188,65389,2,0,L|407:3,2,180,2|2|2,0:0|0:0|0:0,0:0:0:0:
249,253,68247,6,0,P|261:207|252:159,1,90,2|0,0:0|0:0,0:0:0:0:
211,87,69199,1,4,0:0:0:0:
