osu file format v14

[General]
AudioFilename: audio.mp3
AudioLeadIn: 0
PreviewTime: 28309
Countdown: 0
SampleSet: Soft
StackLeniency: 0.7
Mode: 0
LetterboxInBreaks: 0
WidescreenStoryboard: 1

[Editor]
DistanceSpacing: 1.3
BeatDivisor: 4
GridSize: 16
TimelineZoom: 2

[Metadata]
Title:Kimi ni Todoke
TitleUnicode:きみにとどけ
Artist:Tachibana Arisu
ArtistUnicode:橘ありす
Creator:S o a p
Version:Insane
Source:アイドルマスターシンデレラガールズ
Tags:佐藤亜美菜 Satou Amina THE IDOLMASTER 谷澤智文 タニザワトモフミ Tomofumi Tanizawa IDOLM@STER CINDERELLA GIRLS Cool jewelries! 003 AKB48 OniJAM liaoxingyao Kayano Sun_Rainbow
BeatmapID:1362335
BeatmapSetID:642581

[Difficulty]
HPDrainRate:7
CircleSize:5
OverallDifficulty:8
ApproachRate:9
SliderMultiplier:2
SliderTickRate:1

[Events]
//Background and Video events
0,0,"bg.jpg",0,0
//Break Periods
//Storyboard Layer 0 (Background)
//Storyboard Layer 1 (Fail)
//Storyboard Layer 2 (Pass)
//Storyboard Layer 3 (Foreground)
//Storyboard Sound Samples

[TimingPoints]
628,476.190476190476,4,2,1,36,1,0
3485,-100,4,2,1,25,0,0
4318,-100,4,2,1,39,0,0
25627,-100,4,2,3,39,0,0
25866,-100,4,2,3,49,0,0
26104,-100,4,2,3,50,0,0
26342,-100,4,2,3,51,0,0
26580,-100,4,2,3,54,0,0
26818,-100,4,2,3,57,0,0
27056,-100,4,2,3,60,0,0
27532,-100,4,2,3,50,0,0
28247,-100,4,2,3,54,0,0
28723,-100,4,2,3,56,0,0
29199,-100,4,2,3,58,0,1
31818,-100,4,2,2,68,0,1
31937,-100,4,2,3,58,0,1
34913,-100,4,2,2,67,0,1
35032,-100,4,2,3,58,0,1
43247,-100,4,2,2,67,0,1
43366,-100,4,2,3,58,0,1
43485,-100,4,2,3,58,0,0
44437,-100,4,2,3,58,0,1
47056,-100,4,2,2,67,0,1
47175,-100,4,2,3,58,0,1
48247,-100,4,2,2,67,0,1
48366,-100,4,2,3,57,0,1
53247,-100,4,2,2,67,0,1
53366,-100,4,2,3,57,0,1
53723,-100,4,2,2,67,0,1
53842,-100,4,2,3,57,0,1
55866,-100,4,2,3,40,0,0

[Colours]
Combo1 : 233,223,107
Combo2 : 233,193,234
Combo3 : 211,159,232
Combo4 : 133,194,197

[HitObjects]
193,61,3485,6,0,P|171:101|187:208,1,150,0|0,0:0|0:0,0:0:0:0:
270,256,3961,2,0,P|281:193|265:142,1,100
190,334,4437,1,4,0:0:0:0:
115,271,4675,2,0,L|45:286,1,50,0|0,0:0|0:0,0:0:0:0:
35,211,4913,2,0,P|57:132|58:99,1,100,8|0,0:0|0:0,0:0:0:0:
153,54,5390,1,2,0:0:0:0:
167,165,5628,1,0,0:0:0:0:
58,114,5866,5,8,0:0:0:0:
167,165,6104,1,2,0:0:0:0:
399,43,6342,2,0,B|382:78|385:119|385:119|361:146,1,100,0|0,0:0|0:0,0:0:0:0:
263,75,6818,1,8,0:0:0:0:
257,199,7056,1,0,0:0:0:0:
370,135,7294,1,2,0:0:0:0:
263,75,7532,1,0,0:0:0:0:
371,261,7771,6,0,P|323:313|298:335,1,100,8|0,0:0|0:0,0:0:0:0:
115,253,8247,2,0,P|146:269|217:271,2,100,2|0|8,0:0|0:0|0:0,0:0:0:0:
294,209,8961,1,2,0:0:0:0:
400,288,9199,1,0,0:0:0:0:
272,352,9437,1,2,0:0:0:0:
186,187,9675,6,0,P|231:114|254:103,1,100,8|0,0:0|0:0,0:0:0:0:
188,283,10151,2,0,B|147:268|147:268|136:258|136:258|97:244,1,100,2|0,0:0|0:0,0:0:0:0:
114,339,10628,2,0,B|73:324|73:324|62:314|62:314|23:300,1,100,8|0,0:0|0:0,0:0:0:0:
271,328,11104,2,0,B|288:297|282:256|282:256|313:226|316:177,1,150,2|0,0:0|0:0,0:0:0:0:
284,104,11580,2,0,P|247:130|223:179,1,100,8|0,0:0|0:0,0:0:0:0:
314,189,12056,5,2,0:0:0:0:
176,258,12294,1,0,0:0:0:0:
397,222,12532,1,8,0:0:0:0:
260,295,12771,1,2,0:0:0:0:
133,60,13009,1,0,0:0:0:0:
119,162,13247,1,2,0:0:0:0:
216,110,13485,2,0,B|256:96|256:96|272:96|272:96|320:80,1,100,8|0,0:0|0:0,0:0:0:0:
381,172,13961,6,0,P|366:233|380:284,1,100,2|0,0:0|0:0,0:0:0:0:
468,124,14437,1,8,0:0:0:0:
372,268,14675,1,2,0:0:0:0:
471,222,14913,1,0,0:0:0:0:
359,79,15151,1,0,0:0:0:0:
164,185,15390,5,8,0:0:0:0:
267,50,15627,2,0,P|215:65|184:115,1,100,2|0,0:0|0:0,0:0:0:0:
263,236,16104,2,0,P|278:178|262:127,1,100,0|8,0:0|0:0,0:0:0:0:
135,267,16580,2,0,B|96:275|96:275|72:272|72:272|21:284,1,100,2|0,0:0|0:0,0:0:0:0:
164,185,17056,1,0,0:0:0:0:
227,337,17294,5,8,0:0:0:0:
403,320,17532,2,0,P|371:288|307:272,1,100,0|2,0:0|0:0,0:0:0:0:
208,224,18009,1,0,0:0:0:0:
320,272,18247,1,8,0:0:0:0:
368,96,18485,1,0,0:0:0:0:
125,57,18723,2,0,P|216:53|255:112,1,150,2|0,0:0|0:0,0:0:0:0:
176,117,19199,6,0,L|77:160,1,100,8|0,0:0|0:0,0:0:0:0:
174,333,19675,1,2,0:0:0:0:
249,186,19913,1,0,0:0:0:0:
62,242,20151,1,8,0:0:0:0:
187,345,20390,1,0,0:0:0:0:
192,142,20627,1,2,0:0:0:0:
49,310,20866,1,0,0:0:0:0:
289,286,21104,5,8,0:0:0:0:
107,94,21342,1,2,0:0:0:0:
107,94,21461,1,0,0:0:0:0:
107,94,21580,2,0,B|148:90|148:90|176:78|176:78|205:75,1,100,2|0,0:0|0:0,0:0:0:0:
66,187,22056,2,0,B|107:183|107:183|135:171|135:171|164:168,1,100,8|0,0:0|0:0,0:0:0:0:
283,138,22532,1,2,0:0:0:0:
338,28,22771,1,0,0:0:0:0:
421,119,23009,6,0,B|441:149|408:192|435:230,1,100,8|0,0:0|0:0,0:0:0:0:
371,333,23485,1,2,0:0:0:0:
320,152,23723,1,0,0:0:0:0:
428,217,23961,1,8,0:0:0:0:
229,323,24199,1,2,0:0:0:0:
229,323,24318,1,0,0:0:0:0:
229,323,24437,2,0,P|171:326|111:312,1,100,2|0,0:0|0:0,0:0:0:0:
167,143,24913,5,8,0:0:0:0:
81,229,25151,1,2,0:0:0:0:
81,229,25628,1,2,0:0:0:0:
338,159,25866,1,8,0:0:0:0:
110,93,26104,1,0,0:0:0:0:
182,310,26342,1,2,0:0:0:0:
316,68,26580,1,0,0:0:0:0:
95,207,26818,5,8,0:0:0:0:
341,314,27056,1,4,0:0:0:0:
206,330,27533,6,0,L|237:275,1,50,2|0,0:0|0:0,0:0:0:0:
103,203,27770,2,0,L|117:263,1,50,8|0,0:0|0:0,0:0:0:0:
242,142,28008,1,2,0:0:0:0:
242,142,28247,1,2,0:0:0:0:
230,108,28366,1,0,0:0:0:0:
228,73,28485,1,2,0:0:0:0:
235,38,28604,1,0,0:0:0:0:
254,8,28723,2,0,L|290:47,1,50,8|0,0:0|0:0,0:0:0:0:
438,177,28961,2,0,P|451:137|456:115,1,50,0|0,0:0|0:0,0:0:0:0:
259,174,29199,6,0,P|272:238|266:275,1,100,6|0,0:0|0:0,0:0:0:0:
153,93,29675,1,8,0:0:0:0:
346,28,29913,1,0,0:0:0:0:
191,237,30151,2,0,P|192:295|175:346,1,100,2|0,0:0|0:0,0:0:0:0:
86,236,30628,5,8,0:0:0:0:
145,148,30866,1,0,0:0:0:0:
258,298,31104,2,0,B|306:315|306:315|359:298,1,100,2|0,0:0|0:0,0:0:0:0:
411,212,31580,1,8,0:0:0:0:
351,43,31818,2,0,B|346:82|346:82|354:109|354:109|345:148,1,100,2|0,0:0|0:0,0:0:0:0:
263,214,32294,1,0,0:0:0:0:
346,140,32532,5,8,0:0:0:0:
160,182,32771,1,0,0:0:0:0:
448,220,33009,2,0,P|395:215|338:230,1,100,2|0,0:0|0:0,0:0:0:0:
447,332,33485,2,0,P|397:337|348:326,1,100,8|0,0:0|0:0,0:0:0:0:
266,268,33961,1,2,0:0:0:0:
348,327,34199,1,0,0:0:0:0:
349,229,34437,5,8,0:0:0:0:
261,358,34675,1,0,0:0:0:0:
425,303,34913,1,2,0:0:0:0:
297,182,35151,2,0,B|261:170|236:190|196:180,1,100,0|8,0:0|0:0,0:0:0:0:
166,293,35628,1,0,0:0:0:0:
297,182,35866,1,2,0:0:0:0:
227,365,36104,1,0,0:0:0:0:
248,117,36342,5,8,0:0:0:0:
449,223,36580,1,0,0:0:0:0:
449,223,36699,1,0,0:0:0:0:
449,223,36818,2,0,P|472:177|472:123,1,100,2|0,0:0|0:0,0:0:0:0:
354,327,37294,1,8,0:0:0:0:
256,239,37532,1,2,0:0:0:0:
150,326,37771,1,0,0:0:0:0:
341,244,38009,1,0,0:0:0:0:
156,182,38247,5,8,0:0:0:0:
291,354,38485,2,0,L|396:318,1,100,2|0,0:0|0:0,0:0:0:0:
312,132,38961,1,0,0:0:0:0:
430,248,39199,1,8,0:0:0:0:
403,69,39437,1,0,0:0:0:0:
319,231,39675,2,0,P|253:208|221:138,1,150,2|0,0:0|0:0,0:0:0:0:
264,50,40151,6,0,P|212:36|159:58,1,100,8|0,0:0|0:0,0:0:0:0:
114,141,40627,1,2,0:0:0:0:
313,133,40866,1,0,0:0:0:0:
169,49,41104,1,8,0:0:0:0:
195,245,41342,1,2,0:0:0:0:
339,48,41580,2,0,P|275:54|243:78,1,100,0|0,0:0|0:0,0:0:0:0:
269,302,42056,2,0,P|276:229|268:194,1,100,8|0,0:0|0:0,0:0:0:0:
169,49,42532,5,2,0:0:0:0:
208,150,42771,1,0,0:0:0:0:
296,54,43009,1,8,0:0:0:0:
85,147,43247,2,0,P|76:195|79:256,1,100,2|0,0:0|0:0,0:0:0:0:
135,331,43723,1,0,0:0:0:0:
279,203,43961,1,8,0:0:0:0:
279,203,44080,1,0,0:0:0:0:
279,203,44199,1,2,0:0:0:0:
196,45,44437,6,0,B|192:83|192:83|198:111|198:111|195:148,1,100,4|0,0:0|0:0,0:0:0:0:
308,258,44913,1,8,0:0:0:0:
332,118,45151,1,2,0:0:0:0:
167,218,45389,1,0,0:0:0:0:
391,242,45627,1,0,0:0:0:0:
300,44,45866,2,0,B|271:32|250:42|250:42|224:52|200:50,1,100,8|2,0:0|0:0,0:0:0:0:
166,47,46223,1,0,0:0:0:0:
132,36,46342,6,0,B|97:63|48:36|48:36|84:142,1,200,2|8,0:0|0:0,0:0:0:0:
287,151,47057,1,2,0:0:0:0:
287,151,47176,1,0,0:0:0:0:
287,151,47295,1,2,0:0:0:0:
137,265,47533,1,2,0:0:0:0:
256,265,47771,1,8,0:0:0:0:
195,173,48009,1,0,0:0:0:0:
191,350,48248,5,2,0:0:0:0:
304,187,48485,1,2,0:0:0:0:
90,188,48724,1,8,0:0:0:0:
313,350,48962,1,2,0:0:0:0:
68,343,49199,2,0,P|52:318|45:295,1,50,2|0,0:0|0:0,0:0:0:0:
197,107,49438,1,0,0:0:0:0:
231,286,49676,1,8,0:0:0:0:
95,67,49914,1,0,0:0:0:0:
126,52,50033,1,0,0:0:0:0:
160,46,50152,6,0,P|224:41|258:63,1,100,2|0,0:0|0:0,0:0:0:0:
360,29,50628,1,8,0:0:0:0:
333,133,50867,1,0,0:0:0:0:
451,107,51105,2,0,B|465:164|465:164|448:196|448:196|449:217,2,100,2|0|8,0:0|0:0|0:0,0:0:0:0:
335,262,51819,1,2,0:0:0:0:
335,262,51938,1,0,0:0:0:0:
335,262,52057,6,0,B|287:321|270:297|270:297|243:319|186:308,1,150,4|0,0:0|0:0,0:0:0:0:
181,237,52533,2,0,L|167:184,1,50,8|0,0:0|0:0,0:0:0:0:
87,92,52771,2,0,B|106:157|75:196|75:196|37:214|37:214|68:260,1,200,2|2,0:0|0:0,0:0:0:0:
172,210,53485,1,8,0:0:0:0:
227,132,53723,6,0,B|264:124|264:124|297:124|297:124|343:114,1,100,2|0,2:0|0:0,0:0:0:0:
465,34,54199,1,2,0:0:0:0:
370,202,54437,1,2,0:0:0:0:
281,40,54675,1,0,0:0:0:0:
281,40,54795,1,0,0:0:0:0:
281,40,54913,6,0,L|175:58,1,100
60,160,55390,1,8,0:0:0:0:
76,191,55509,1,0,0:0:0:0:
104,212,55628,1,2,0:0:0:0:
138,217,55747,1,0,0:0:0:0:
172,214,55866,5,4,0:0:0:0:
172,214,56342,1,8,0:0:0:0:
384,256,56580,1,0,0:0:0:0:
296,196,56818,2,0,B|286:250|286:250|300:291|300:291|290:362,1,150,2|0,0:0|0:0,0:0:0:0:
219,326,57294,2,0,B|170:338|170:338|127:303,1,100,8|0,0:0|0:0,0:0:0:0:
52,129,57770,6,0,B|93:215|93:215|43:326,1,200,2|8,0:0|0:0,0:0:0:0:
182,222,58485,1,0,0:0:0:0:
230,125,58723,1,2,0:0:0:0:
125,130,58961,1,0,0:0:0:0:
281,207,59199,2,0,P|342:186|394:201,1,100,8|0,0:0|0:0,0:0:0:0:
447,266,59675,5,2,0:0:0:0:
342,298,59913,1,0,0:0:0:0:
375,192,60151,1,8,0:0:0:0:
412,369,60389,1,0,0:0:0:0:
412,369,60627,2,0,L|441:213,1,150,2|0,0:0|0:0,0:0:0:0:
431,109,61104,2,0,L|367:202,1,100,8|0,0:0|0:0,0:0:0:0:
163,264,61580,6,0,L|141:162,1,100,2|0,0:0|0:0,0:0:0:0:
224,83,62056,1,8,0:0:0:0:
262,193,62294,1,2,0:0:0:0:
142,167,62532,1,0,0:0:0:0:
330,123,62770,1,2,0:0:0:0:
330,123,63008,2,0,L|350:227,1,100,8|2,0:0|0:0,0:0:0:0:
348,221,63366,1,0,0:0:0:0:
348,221,63485,5,4,0:0:0:0:
94,281,63961,1,8,0:0:0:0:
57,174,64199,1,0,0:0:0:0:
57,174,64437,2,0,B|109:158|109:158|146:161|146:161|216:144,1,150,2|0,0:0|0:0,0:0:0:0:
218,218,64913,2,0,L|319:190,1,100,8|0,0:0|0:0,0:0:0:0:
254,45,65389,6,0,L|153:82,1,100,2|0,0:0|0:0,0:0:0:0:
57,174,65866,1,8,0:0:0:0:
83,54,66104,1,2,0:0:0:0:
83,54,66342,1,0,0:0:0:0:
196,250,66580,2,0,B|201:302|201:302|181:353,1,100,0|8,0:0|0:0,0:0:0:0:
88,289,67056,1,0,0:0:0:0:
173,155,67294,6,0,B|235:146|269:190|269:190|325:193|311:128,1,200,2|8,0:0|0:0,0:0:0:0:
237,51,68008,1,2,0:0:0:0:
202,45,68127,1,0,0:0:0:0:
167,50,68247,1,2,0:0:0:0:
304,268,68485,2,0,P|352:239|383:198,1,100
116,128,68961,1,2,0:0:0:0:
220,342,69199,5,4,0:0:0:0:
