osu file format v9

[General]
AudioFilename: Tabaluga - English Intro Theme.mp3
AudioLeadIn: 0
PreviewTime: -1
Countdown: 1
SampleSet: Normal
StackLeniency: 0.7
Mode: 0
LetterboxInBreaks: 1

[Editor]
DistanceSpacing: 0.8
BeatDivisor: 4
GridSize: 8

[Metadata]
Title:Theme of Tabaluga (English version)
Artist:
Creator:FifiHyuga
Version:Easy
Source:Tabaluga
Tags:Tabaluga, Opening, Theme, English

[Difficulty]
HPDrainRate:2
CircleSize:3
OverallDifficulty:2
ApproachRate:2
SliderMultiplier:1.1
SliderTickRate:1

[Events]
//Background and Video events
0,0,"tabaluga_mond.jpg"
//Break Periods
2,52792,57620
//Storyboard Layer 0 (Background)
//Storyboard Layer 1 (Fail)
//Storyboard Layer 2 (Pass)
//Storyboard Layer 3 (Foreground)
//Storyboard Sound Samples
//Background Colour Transformations
3,100,163,162,255

[TimingPoints]
335,408.163265306122,4,1,0,30,1,0
26470,408.163265306122,4,1,0,30,1,0
39531,408.163265306122,4,1,0,30,1,1
44633,-100,4,1,0,30,0,0
45449,-100,4,1,0,30,0,1
52591,-100,4,1,0,30,0,0
59180,408.163265306122,4,1,0,30,1,0
77585,408.163265306122,4,1,0,100,1,0

[HitObjects]
64,72,6865,2,0,B|184:72,1,110
176,160,7681,1,0
176,248,8090,2,0,B|64:248,2,110
264,248,9314,1,0
352,248,9722,1,0
352,160,10130,2,0,B|312:104|232:128|168:32,1,220
256,192,11355,12,0,12579
64,64,13396,5,0
128,128,13804,1,0
56,176,14212,2,0,B|56:304,1,110
144,288,15028,1,0
200,224,15437,1,0
224,312,15845,2,0,B|336:312,1,110
424,312,16661,1,0
256,192,17069,12,0,19110
424,64,19926,5,0
352,112,20334,1,0
424,160,20743,2,0,B|424:272,1,110
336,280,21559,1,0
264,328,21967,1,0
264,240,22375,2,0,B|264:112,1,110
184,96,23192,5,0
120,152,23600,5,0
120,240,24008,1,0
184,296,24416,1,0
272,296,24824,2,0,B|400:296,1,110
384,208,25641,1,0
384,120,26049,5,0
384,32,26457,5,0
304,80,26878,1,0
304,80,27286,2,0,B|192:80,1,110
192,168,28102,5,0
192,168,28510,2,0,B|320:168,1,110
392,168,29327,1,0
480,168,29735,1,0
256,192,30143,12,0,31776
56,72,32592,5,0
120,128,33000,1,0
48,176,33408,2,0,B|48:288,1,110
136,288,34225,1,0
224,288,34633,1,0
312,288,35041,1,0
400,288,35449,2,0,B|400:176,2,110
256,192,36674,12,0,37898
48,72,38714,5,0
112,136,39123,1,0
176,72,39531,2,0,B|296:72,1,110
288,160,40347,1,0
288,248,40755,2,0,B|416:248,1,110
408,336,41571,1,0
320,336,41979,2,0,B|192:336,1,110
152,272,42796,5,0
152,184,43204,2,0,B|264:184,2,110
152,96,44428,1,0
408,48,45653,5,0
344,104,46061,1,0
424,136,46469,2,0,B|424:264,1,110
336,248,47286,1,0
272,184,47694,1,0
208,248,48102,1,0
160,176,48510,2,0,B|32:176,1,110
48,88,49326,5,0
112,32,49735,1,0
200,32,50143,2,0,B|312:32,1,110
400,32,50959,1,0
464,88,51367,1,0
408,152,51775,1,0
408,152,52184,2,0,B|288:152,1,110
40,48,59180,5,0
40,48,59588,2,0,B|120:128,1,110
