osu file format v7

[General]
AudioFilename: TaNaBaTa - Unknown Girl -acoustic ver.-.mp3
AudioLeadIn: 0
PreviewTime: 107097
Countdown: 0
SampleSet: Normal
StackLeniency: 0.7
Mode: 0
LetterboxInBreaks: 1

[Editor]
Bookmarks: 131586,152809,199133,200154,202807,203419,213214,219744,222907
DistanceSpacing: 0.800000011920929
BeatDivisor: 4
GridSize: 8

[Metadata]
Title:Unknown Girl -acoustic ver-
Artist:TaNaBaTa
Creator:Darkoff
Version:Teras
Source:Touhou
Tags:flandre u.n. owen was her? 6 scarlet

[Difficulty]
HPDrainRate:7
CircleSize:4
OverallDifficulty:6
SliderMultiplier:1.6
SliderTickRate:1

[Events]
//Background and Video events
0,0,"cf709b9408377f360e0722b7c0b9b9d8.png"
//Break Periods
2,120380,130559
2,133442,145253
2,193850,198110
2,200380,201783
2,213442,214845
//Storyboard Layer 0 (Background)
//Storyboard Layer 1 (Fail)
//Storyboard Layer 2 (Pass)
//Storyboard Layer 3 (Foreground)
//Storyboard Sound Samples
//Background Colour Transformations
3,100,163,162,255

[TimingPoints]
997.227354189039,408.163265306122,4,1,0,61,1,0
2715,-100,4,2,0,61,0,0
35265,-100,4,1,0,41,0,0
41795,-100,4,1,0,41,0,1
66283,-100,4,2,0,59,0,0
87201,-100,4,1,0,41,0,0
94037,-100,4,1,0,41,0,1
120056,-100,4,1,0,41,0,0
120158,-100,4,2,0,59,0,1
120260,-100,4,2,0,59,0,0
146585,-100,4,1,0,49,0,0
152809,-100,4,2,0,49,0,0
167502,-100,4,1,0,49,0,1
193623,-100,4,1,0,49,0,0
199031,-100,4,2,0,49,0,0
206684,-100,4,1,0,49,0,0
212398,-100,4,2,0,49,0,0
215867,-100,4,2,0,49,0,0
218112,-100,4,1,0,49,0,0
219846,-100,4,2,0,49,0,0
220153,-100,4,2,0,40,0,0
220765,-100,4,2,0,29,0,0
221377,-100,4,2,0,20,0,0
221989,-100,4,2,0,11,0,0
222601,-100,4,2,0,5,0,0

[HitObjects]
136,192,997,1,0
256,320,1405,1,0
376,192,1813,1,0
256,64,2221,2,0,B|256:264,1,160
376,320,3038,5,0
464,192,3446,1,0
376,64,3854,1,0
304,192,4262,2,0,B|120:192,1,160
88,240,4874,1,0
144,296,5078,1,0
304,296,5487,2,0,B|472:296,1,160
440,224,6099,5,0
480,160,6303,1,0
440,96,6507,1,0
400,160,6711,1,0
328,160,6915,1,0
312,160,7017,1,0
296,160,7119,1,0
240,104,7323,1,0
176,64,7527,2,0,B|8:64,1,160
48,136,8140,1,0
8,208,8344,2,0,B|184:208,1,160
256,336,9160,5,4
328,184,9568,2,0,B|248:112|176:200,1,160
176,40,10384,2,0,B|344:40,1,160
424,152,11201,1,0
384,216,11405,1,0
424,280,11609,1,0
256,336,12017,2,0,B|72:336,1,160,0|4
56,272,12629,5,0
96,208,12833,1,0
64,136,13038,1,0
96,64,13242,1,0
136,136,13446,1,0
152,136,13548,1,0
168,136,13650,1,0
240,136,13854,2,0,B|344:136,1,80
456,192,15487,6,0,B|272:192,1,160
224,192,16099,1,0
40,336,16507,6,0,B|136:336|136:232,1,160,0|0
136,88,17323,2,0,B|304:88,1,160,0|0
368,88,17936,1,0
472,192,18344,1,0
368,296,18752,1,0
368,296,19160,1,0
368,296,19364,2,0,B|192:296,1,160
72,184,20180,6,0,B|72:88|184:88,1,160
174,88,20793,1,0
352,88,21201,1,0
352,240,21609,1,0
208,320,22017,2,0,B|96:320|96:192,1,160
98,226,22629,1,0
96,96,22833,1,0
96,96,22936,6,0,B|192:-16|304:56,1,200
416,192,23854,1,0
416,192,24058,2,0,B|416:296|304:296,1,160
144,296,24874,1,0
48,160,25282,2,0,B|216:160,1,160
208,160,25895,1,0
312,288,26303,6,0,B|488:288,2,160
312,288,27323,1,0
152,288,27731,2,0,B|48:288|48:184|48:184|48:96|160:96,1,320
352,96,28956,1,0
352,96,29160,2,0,B|352:272,1,160
216,320,29976,6,0,B|104:320|104:224,1,160
56,168,30589,2,0,B|56:56|176:56,1,160
256,168,31405,1,0
352,56,31813,2,0,B|464:56|464:168,1,160
462,146,32425,1,0
464,256,32629,6,0,B|360:256,1,80
256,328,33242,2,0,B|88:328,1,160
64,256,33854,1,0
64,120,34262,1,0
216,48,34670,2,0,B|328:48|328:152,1,160
392,184,35282,5,0
392,264,35487,1,0
336,320,35691,1,0
256,280,35895,2,0,B|80:280,1,160
48,216,36507,1,0
88,152,36711,1,0
48,88,36915,1,0
112,40,37119,2,0,B|288:40,1,160
352,40,37731,5,0
416,88,37936,1,0
416,168,38140,1,0
416,248,38344,2,0,B|360:368|200:336,1,240,0|0
144,296,39160,2,0,B|88:256|48:160|96:72,1,240
256,136,40180,5,0
384,264,40589,1,0
464,112,40997,1,0
312,208,41405,2,0,B|160:288,1,160,0|4
72,152,42221,5,0
216,48,42629,1,0
400,48,43038,1,0
408,224,43446,2,0,B|232:224,1,160
176,224,44058,1,0
104,224,44262,1,0
48,72,44670,1,0
216,128,45078,6,0,B|304:128,1,80
352,176,45487,1,0
400,240,45691,1,0
352,304,45895,1,0
272,280,46099,1,0
256,280,46201,1,0
240,280,46303,1,0
176,328,46507,2,4,B|72:328,1,80
56,264,46915,5,0
96,200,47119,1,0
56,136,47323,1,0
96,72,47527,1,0
256,72,47936,1,0
376,192,48344,6,0,B|376:288|264:288,1,160
128,192,49160,2,0,B|128:96|240:96,1,160
416,96,49976,2,0,B|440:184|440:184|408:256,1,160
352,296,50589,1,0
288,336,50793,1,0
104,336,51201,2,0,B|104:168,1,160,0|4
152,112,51813,5,0
192,48,52017,1,0
232,112,52221,2,0,B|336:112,1,80
368,168,52629,1,0
384,168,52731,1,0
400,168,52833,1,0
456,224,53038,1,4
408,280,53242,2,0,B|248:368|72:272,1,320
72,216,54262,5,0
64,200,54364,1,0
72,184,54466,1,0
64,168,54568,1,0
72,152,54670,1,0
64,136,54772,1,0
72,120,54874,2,0,B|104:40|208:48,1,160,4|0
256,192,55691,2,0,B|432:192,1,160
256,336,56507,2,0,B|368:336|368:248,1,160
368,176,57119,1,0
368,104,57323,1,0
208,136,57731,6,0,B|120:136|80:224,1,160
128,280,58344,1,0
200,256,58548,1,0
272,288,58752,2,0,B|368:288,1,80
408,232,59160,1,0
416,224,59262,1,0
424,216,59364,1,0
424,136,59568,1,0
384,64,59772,5,0
304,64,59976,1,0
224,64,60180,1,0
160,112,60384,1,0
96,64,60589,1,0
40,320,61405,6,0,B|224:320,1,160
256,160,62221,2,0,B|280:216|240:256,2,80
448,72,63038,2,0,B|280:72,1,160
136,192,63854,2,0,B|64:248|248:240,1,160
432,240,64670,1,0
464,168,64874,5,0
432,96,65078,1,0
392,168,65282,2,0,B|296:168,1,80
240,168,65691,1,0
224,168,65793,1,0
208,168,65895,1,0
136,168,66099,2,0,B|80:168|80:224,1,80,4|4
256,192,66507,12,2,67527
256,192,67731,5,0
256,192,68140,1,0
256,192,68344,2,0,B|80:192,1,160
152,320,69160,1,0
312,320,69568,2,0,B|408:320|432:232,1,160
432,160,70180,1,0
256,48,70589,1,0
80,160,70997,1,0
80,160,71405,1,0
80,160,71609,2,0,B|80:280|208:280,1,160
256,168,72425,6,0,B|424:168,1,160
416,168,73038,1,0
256,48,73446,1,0
96,168,73854,1,0
256,296,74262,2,0,B|256:128,1,160,4|0
256,136,74874,1,0
384,32,75282,6,0,B|472:32|472:144,1,160
472,280,76099,1,0
472,280,76303,2,0,B|296:280,1,160
232,160,77119,1,0
152,32,77527,2,0,B|40:32|32:152,1,160
32,192,78140,1,0
136,328,78548,5,0
392,160,78956,1,0
480,304,79364,1,0
480,304,79568,1,0
368,192,79976,1,0
264,80,80384,1,0
96,72,80793,2,0,B|112:168|80:200|80:200|104:248|80:280|80:280|88:336,1,240
152,336,81609,5,0
208,280,81813,1,0
368,336,82221,1,0
456,224,82629,1,0
456,224,82833,2,0,B|328:120,1,160
176,48,83650,1,0
64,168,84058,1,0
168,320,84466,1,0
168,320,84670,1,0
280,176,85078,6,0,B|448:176,1,160,0|0
368,320,85895,1,0
368,320,86099,2,0,B|192:320,1,160
104,192,86915,1,0
232,64,87323,5,0
304,88,87527,1,0
384,88,87731,1,0
456,120,87936,1,0
392,168,88140,2,0,B|392:336,1,160
312,328,88752,1,0
256,272,88956,1,0
176,272,89160,1,0
176,272,89364,2,0,B|72:272|72:136|72:136,1,160
120,104,89976,5,0
192,136,90180,1,0
272,104,90384,1,0
344,144,90589,2,0,B|456:144|456:256,1,160
400,288,91201,1,0
336,328,91405,2,0,B|160:328,1,160
64,192,92425,5,0
256,192,92833,1,0
448,192,93242,1,0
256,64,93650,2,0,B|256:240,1,160,0|4
56,320,94466,6,0,B|56:128,1,160
256,64,95282,2,0,B|256:248,1,160
376,336,96099,1,0
432,288,96303,1,0
456,216,96507,1,0
368,80,96915,2,0,B|200:80,1,160
160,136,97527,5,0
88,168,97731,1,0
64,240,97936,2,0,B|168:240,1,80
200,296,98344,1,0
216,304,98446,1,0
232,296,98548,1,0
296,336,98752,2,0,B|392:336,1,80
432,280,99160,1,0
464,208,99364,1,0
432,136,99568,1,0
464,64,99772,1,0
304,136,100180,5,0
160,72,100589,2,0,B|48:72|48:192,1,160
160,312,101405,2,0,B|48:312|48:192,1,160
224,192,102221,2,0,B|392:192,1,160,4|0
384,192,102833,1,0
384,192,103038,1,0
384,192,103446,1,0
464,48,103854,5,0
384,72,104058,1,0
304,48,104262,1,0
224,72,104466,1,0
152,48,104670,1,0
80,72,104874,1,0
72,80,104976,1,0
64,88,105078,1,0
56,160,105282,1,4
120,200,105487,2,0,B|456:200,1,320,0|0
472,272,106507,5,0
456,280,106609,1,0
440,272,106711,1,0
424,280,106813,1,0
408,272,106915,1,0
392,280,107017,1,0
376,272,107119,2,0,B|200:272,1,160,4|0
40,152,107936,6,0,B|120:128|208:152,1,160
312,32,108752,2,0,B|416:32|416:128,1,160
384,192,109364,1,0
416,264,109568,1,0
256,336,109976,2,0,B|88:336,1,160
56,272,110589,1,0
88,208,110793,1,0
56,144,110997,1,0
88,80,111201,1,0
160,80,111405,1,0
176,80,111507,1,0
192,80,111609,1,0
240,144,111813,6,0,B|344:144,1,80
392,144,112221,1,0
448,192,112425,1,0
448,264,112629,1,0
392,312,112833,1,0
256,192,113242,1,0
112,312,113650,5,0
32,160,114058,1,0
192,72,114466,1,0
296,200,114874,2,0,B|440:312,1,160
168,312,115691,1,0
96,296,115895,1,0
72,224,116099,1,0
168,96,116507,2,0,B|232:80|344:96,1,160
384,144,117119,5,0
352,208,117323,1,0
384,272,117527,1,0
352,336,117731,1,0
304,272,117936,1,0
296,264,118038,1,0
288,256,118140,1,0
240,200,118344,1,0
192,144,118548,2,0,B|128:80|64:80|64:80|64:176,1,240
24,272,119364,6,0,B|128:272,1,80
216,328,119772,2,0,B|216:232|336:232,1,160,0|4
256,56,131609,5,0
256,56,131813,2,0,B|160:104,1,80
120,144,132221,2,0,B|120:248|256:248,1,160
296,248,132833,1,0
312,240,132936,1,0
328,248,133038,1,0
344,240,133140,1,0
360,248,133242,1,4
80,168,146303,6,0,B|256:168,1,160
344,328,147119,1,0
464,192,147527,1,0
336,56,147936,1,0
216,192,148344,1,0
128,48,148752,2,0,B|32:48|32:176,1,160
32,232,149364,1,0
40,248,149466,1,0
32,264,149568,1,0
256,336,149976,5,0
464,192,150384,1,0
256,192,150793,1,0
152,56,151201,1,0
48,192,151609,1,0
152,336,152017,1,0
352,336,152425,2,0,B|464:336|464:216,1,160,0|4
256,40,153650,6,0,B|80:40,1,160
40,192,154466,1,4
224,304,154874,1,0
240,296,154976,1,0
256,304,155078,1,0
272,296,155180,1,0
288,304,155282,2,0,B|392:304|392:192,1,160
256,56,156099,6,4,B|144:56|144:152|144:152|144:224|24:224,1,320
256,320,157731,2,0,B|432:320,1,160,4|0
448,248,158344,1,0
440,232,158446,1,0
440,216,158548,1,0
416,144,158752,1,0
416,144,158956,1,0
256,336,159364,6,4,B|144:336|144:240|144:240|144:168|24:168,1,320
256,48,160997,1,4
392,184,161405,1,0
384,200,161507,1,0
392,216,161609,1,0
376,232,161711,1,0
384,248,161813,2,0,B|304:288|224:240,1,160,4|4
64,80,162629,6,4,B|176:56|232:80|232:80|360:64|416:80,1,320
256,320,164262,1,4
72,80,164874,5,0
72,80,165078,1,4
256,192,165384,1,4
72,304,165691,1,4
256,192,166303,12,4,167527
256,72,167936,5,0
408,192,168344,2,0,B|408:296|288:296,1,160
256,168,169160,2,0,B|88:168,1,160
48,104,169772,1,0
88,40,169976,1,0
256,72,170384,2,0,B|368:72|368:192,1,160
384,240,170997,1,0
328,296,171201,1,0
256,272,171405,1,0
208,328,171609,1,0
144,288,171813,2,0,B|144:224,2,40
80,328,172221,1,0
40,256,172425,6,0,B|40:200|80:184,1,80
152,192,172833,2,0,B|160:136|120:96,1,80
72,72,173242,2,0,B|120:32|232:48,1,160
464,192,174058,6,4,B|456:288|320:288,1,160,0|0
168,192,174874,1,0
256,48,175282,1,0
328,192,175691,2,0,B|152:192,1,160
120,136,176303,1,0
72,192,176507,1,0
24,336,176915,2,0,B|192:336,1,160
256,336,177527,1,0
312,288,177731,1,0
384,288,177936,1,0
432,232,178140,1,0
384,176,178344,1,0
384,160,178446,1,0
384,144,178548,1,0
344,80,178752,1,0
256,192,178956,12,0,180589
64,192,180997,5,0
256,320,181405,1,0
448,192,181813,1,0
256,192,182221,2,0,B|88:192,1,160
96,192,182833,1,0
96,192,183038,1,0
256,320,183446,2,0,B|376:320|376:200,1,160
336,168,184058,1,0
376,104,184262,1,0
336,40,184466,2,0,B|240:40,1,80
208,96,184874,1,0
200,104,184976,1,0
192,112,185078,1,0
144,168,185282,2,0,B|144:256,1,80
208,288,185691,5,0
272,240,185895,1,0
336,288,186099,2,0,B|432:288,1,80
416,136,186711,1,0
256,48,187119,6,0,B|88:48,1,160
176,192,187936,2,0,B|176:288|64:288,1,160
256,336,188752,2,0,B|432:336,1,160
456,272,189364,1,0
424,200,189568,2,0,B|320:200|320:200|304:176|248:176,1,160
256,48,190384,5,0
184,48,190589,1,0
112,48,190793,1,0
64,104,190997,1,0
112,160,191201,1,0
64,216,191405,1,0
64,232,191507,1,0
64,248,191609,1,0
112,304,191813,1,0
184,336,192017,5,0
256,304,192221,1,0
272,312,192323,1,0
288,304,192425,1,0
376,224,192629,1,0
360,232,192731,1,0
344,224,192833,1,0
264,160,193038,5,0
248,152,193140,1,0
232,160,193242,1,0
216,152,193344,1,0
200,160,193446,1,0
184,152,193548,1,0
168,160,193650,1,4
64,192,199160,6,0,B|96:152|136:152|136:152|176:152|192:200|256:192|256:192|272:168|448:168,1,400,4|4
136,288,202833,6,4,B|208:344|296:344|376:280,1,240
392,136,203854,5,0
320,136,204058,1,0
256,96,204262,1,0
184,96,204466,1,0
168,96,204568,1,0
152,96,204670,1,0
88,136,204874,1,0
32,184,205078,2,0,B|32:352,1,160
184,336,205895,5,0
200,328,205997,1,0
216,336,206099,1,0
232,328,206201,1,0
248,336,206303,1,0
328,336,206507,1,0
408,336,206711,1,4
472,192,207119,5,0
344,56,207527,2,0,B|176:56,1,160
48,192,208344,2,0,B|48:304|160:288,1,160
200,240,208956,2,0,B|264:232|272:288,1,80
456,304,209568,2,0,B|424:192|448:120,1,160
400,80,210180,1,0
328,104,210384,2,0,B|272:120|240:96,1,80
200,48,210793,1,0
136,88,210997,1,0
120,88,211099,1,0
104,88,211201,1,0
40,136,211405,2,0,B|40:232|88:224,1,80
128,216,211813,5,0
200,216,212017,1,0
272,216,212221,1,0
320,160,212425,2,0,B|352:88|432:88|432:88|432:168|432:224,1,240,4|0
432,187,213242,1,0
144,88,215895,5,0
96,152,216099,1,0
96,232,216303,2,0,B|208:232,1,80,0|4
352,320,216915,1,0
424,320,217119,1,0
464,256,217323,1,0
416,192,217527,1,0
384,192,217629,1,0
352,192,217731,1,0
272,192,217936,1,0
224,120,218140,5,0
208,128,218242,1,0
192,120,218344,1,0
176,128,218446,1,0
160,120,218548,1,0
144,128,218650,1,0
128,120,218752,1,0
112,128,218854,1,0
104,144,218956,5,0
88,152,219058,1,0
80,168,219160,1,0
88,192,219262,1,0
104,208,219364,1,0
120,208,219466,1,0
136,208,219568,1,0
216,208,219772,1,4
256,192,219874,12,4,222936
