osu file format v5

[General]
AudioFilename: tanabata - cirnocirnocirno.mp3
AudioLeadIn: 0
PreviewTime: -1
Countdown: 1
SampleSet: Normal
StackLeniency: 0.7
Mode: 0
LetterboxInBreaks: 1

[Metadata]
Title:Cirno Cirno Cirno
Artist:TaNaBaTa
Creator:Observant_Owl
Version:Sakuya (Hard)
Source:
Tags:

[Difficulty]
HPDrainRate:6
CircleSize:6
OverallDifficulty:7
SliderMultiplier:1.4
SliderTickRate:1

[Events]
//Background and Video events
0,0,"(9)bg.png"
//Break Periods
2,22915,27546
2,60331,65298
2,71454,80578
2,114263,119230
2,125386,150690
2,157746,162376
//Storyboard Layer 0 (Background)
//Storyboard Layer 1 (Failing)
//Storyboard Layer 2 (Passing)
//Storyboard Layer 3 (Foreground)
//Storyboard Sound Samples
//Background Colour Transformations
3,100,128,128,255

[TimingPoints]
6873.39575216283,337.075530726257,4,1,0,100,1

[HitObjects]
256,192,12266,1,0
320,192,12603,1,0
384,192,12940,1,0
448,192,13277,1,0
512,192,13614,5,0
448,192,13951,1,0
384,192,14289,1,0
320,192,14626,1,4
256,192,14963,5,0
192,192,15300,1,0
128,192,15637,1,0
64,192,15974,1,0
0,192,16311,5,0
64,192,16648,1,0
128,192,16985,1,0
192,192,17322,1,4
256,192,17659,5,0
320,192,17996,1,0
384,192,18333,1,0
448,192,18671,1,0
512,192,19008,5,0
448,192,19345,1,0
384,192,19682,1,0
320,192,20019,1,4
256,192,20356,5,0
192,192,20693,1,0
128,192,21030,1,0
64,192,21367,1,0
0,192,21704,5,0
64,192,22041,1,0
128,192,22378,1,0
192,192,22715,1,4
256,192,28446,5,0
288,192,28783,1,0
320,192,29120,1,0
352,192,29457,1,0
384,192,29794,5,0
384,160,30131,1,0
384,128,30468,1,0
384,96,30805,1,4
384,64,31142,5,0
352,64,31479,1,0
320,64,31816,1,0
288,64,32154,1,0
256,64,32491,5,0
224,64,32828,1,0
192,64,33165,1,0
160,64,33502,1,4
128,64,33839,5,0
128,96,34176,1,0
128,128,34513,1,0
128,160,34850,1,0
128,192,35187,5,0
128,224,35524,1,0
128,256,35861,1,0
128,288,36198,1,4
128,320,36536,5,0
160,320,36873,1,0
192,320,37210,1,0
224,320,37547,1,0
256,320,37884,5,0
288,320,38221,1,0
320,320,38558,1,0
352,320,38895,1,4
384,320,39232,5,0
352,288,39569,1,8
320,256,39906,5,0
288,224,40243,1,8
256,192,40580,5,0
224,160,40918,1,8
192,128,41255,5,0
160,96,41592,1,8
128,64,41929,5,0
160,64,42266,1,8
192,64,42603,5,0
224,64,42940,1,8
256,64,43277,5,0
288,64,43614,1,8
320,64,43951,5,0
352,64,44288,1,8
384,64,44625,5,0
352,96,44962,1,8
320,128,45300,5,0
288,160,45637,1,8
256,192,45974,5,0
224,224,46311,1,8
192,256,46648,5,0
160,288,46985,1,8
128,320,47322,5,0
160,320,47659,1,8
192,320,47996,5,0
224,320,48333,1,8
256,320,48670,5,0
256,288,49007,1,8
256,256,49344,5,0
256,224,49681,1,8
256,192,50019,5,0
256,160,50356,1,8
256,128,50693,5,0
256,96,51030,1,8
256,64,51367,5,0
256,96,51704,1,8
256,128,52041,5,0
256,160,52378,1,8
256,192,52715,5,0
256,224,53052,1,8
256,224,53389,5,0
256,256,53726,1,8
256,224,54063,5,0
256,192,54401,1,8
256,192,54738,5,0
256,192,55075,1,8
384,192,55412,5,0
320,192,56086,1,0
256,192,56760,1,0
192,192,57434,1,0
128,192,58108,1,0
256,192,59457,5,4
256,192,59794,1,4
256,192,60131,1,4
256,192,66198,5,0
320,192,66535,1,0
256,192,66872,1,0
192,192,67209,1,0
256,192,67546,5,0
320,192,67884,1,0
256,192,68221,1,0
192,192,68558,1,4
256,192,68895,5,0
256,192,69232,1,0
256,192,69569,1,0
256,192,69906,1,0
256,192,70243,1,0
256,192,70580,1,0
256,192,70917,1,0
256,192,71254,1,4
256,192,82378,5,0
256,128,82715,1,0
320,128,83052,1,0
320,192,83389,1,0
256,192,83726,5,0
256,256,84063,1,0
320,256,84400,1,0
320,192,84737,1,4
256,192,85074,5,0
256,256,85411,1,0
192,256,85749,1,0
192,192,86086,1,0
256,192,86423,5,0
192,192,86760,1,0
192,128,87097,1,0
256,128,87434,1,4
256,192,87771,5,0
320,192,88108,1,0
320,128,88445,1,0
256,128,88782,1,0
256,192,89119,5,0
320,192,89456,1,0
320,256,89793,1,0
256,256,90131,1,4
256,192,90468,5,0
256,256,90805,1,0
192,256,91142,1,0
192,192,91479,1,0
256,192,91816,5,0
192,192,92153,1,0
192,128,92490,1,0
256,128,92827,1,4
256,192,93164,5,8
416,192,93838,1,8
256,192,94513,1,8
256,32,95187,1,8
256,192,95861,5,8
96,192,96535,1,8
256,192,97209,1,8
256,352,97883,1,8
256,192,98557,5,8
416,192,99232,1,8
256,192,99906,1,8
256,32,100580,1,8
256,192,101254,5,8
96,192,101928,1,8
256,192,102602,1,8
256,352,103276,1,8
256,192,103951,5,8
416,192,104625,1,8
256,192,105299,1,8
256,32,105973,1,8
256,192,106647,5,8
96,192,107321,1,8
256,192,107996,1,8
256,352,108670,1,8
64,192,109344,5,0
160,192,110018,1,0
256,192,110692,1,0
352,192,111366,1,0
448,192,112040,1,0
352,192,112715,1,0
256,192,113389,5,4
256,192,113726,1,4
256,192,114063,1,4
256,192,120130,5,0
320,192,120467,1,0
384,192,120804,1,0
320,192,121142,1,0
256,192,121479,5,0
192,192,121816,1,0
128,192,122153,1,0
192,192,122490,1,4
256,192,122827,5,0
256,128,123164,1,0
256,64,123501,1,0
256,128,123838,1,0
256,192,124175,5,0
256,256,124512,1,0
256,320,124849,1,0
256,256,125186,1,4
256,192,152490,5,0
320,192,152827,1,0
320,128,153164,1,0
256,128,153501,1,0
192,128,153838,5,0
192,192,154175,1,0
192,256,154512,1,0
256,256,154849,1,4
256,192,155186,5,0
256,192,155523,1,0
256,192,155860,1,0
256,192,156197,1,0
256,192,156534,5,0
256,192,156872,1,0
256,192,157209,1,0
256,192,157546,1,4
256,192,163276,5,0
320,192,163613,1,0
384,192,163950,1,0
320,192,164287,1,0
256,192,164624,1,0
192,192,164961,1,0
128,192,165298,1,0
192,192,165635,1,4
256,192,165973,5,0
256,192,166310,1,0
256,192,166647,1,0
256,192,166984,1,0
256,192,167321,1,0
256,192,167658,1,0
256,192,167995,1,0
256,192,168332,1,4
