osu file format v5

[General]
AudioFilename: tanabata - cirnocirnocirno.mp3
AudioLeadIn: 0
PreviewTime: -1
Countdown: 1
SampleSet: Normal
StackLeniency: 0.7
Mode: 0
LetterboxInBreaks: 1

[Metadata]
Title:Cirno Cirno Cirno
Artist:TaNaBaTa
Creator:Observant_Owl
Version:Hong Meirin (Normal)
Source:
Tags:

[Difficulty]
HPDrainRate:5
CircleSize:5
OverallDifficulty:4
SliderMultiplier:1.4
SliderTickRate:1

[Events]
//Background and Video events
0,0,"(9)bg.png"
//Break Periods
2,22578,27126
2,60331,64878
2,71117,80578
2,114263,118810
2,125049,150690
2,157409,161956
//Storyboard Layer 0 (Background)
//Storyboard Layer 1 (Failing)
//Storyboard Layer 2 (Passing)
//Storyboard Layer 3 (Foreground)
//Storyboard Sound Samples
//Background Colour Transformations
3,100,128,128,255

[TimingPoints]
6873.39575216283,337.075530726257,4,1,0,100,1

[HitObjects]
256,192,12266,1,0
320,192,12940,1,0
384,192,13614,1,0
320,192,14289,1,4
256,192,14963,5,0
192,192,15637,1,0
128,192,16311,1,0
192,192,16985,1,4
256,192,17659,5,0
256,128,18333,1,0
256,64,19008,1,0
256,128,19682,1,4
256,192,20356,5,0
256,256,21030,1,0
256,320,21704,1,0
256,256,22378,1,4
256,192,28446,5,0
320,192,29120,1,0
384,192,29794,1,0
384,128,30468,1,4
384,64,31142,5,0
320,64,31816,1,0
256,64,32491,1,0
192,64,33165,1,4
128,64,33839,5,0
128,128,34513,1,0
128,192,35187,1,0
128,256,35861,1,4
128,320,36536,5,0
192,320,37210,1,0
256,320,37884,1,0
256,256,38558,1,4
256,192,39232,5,8
256,192,39906,1,8
256,192,40580,1,8
256,192,41255,1,8
320,192,41929,5,8
320,192,42603,1,8
320,192,43277,1,8
320,192,43951,1,8
256,256,44625,5,8
256,256,45300,1,8
256,256,45974,1,8
256,256,46648,1,8
192,192,47322,5,8
256,128,47996,1,8
320,192,48670,1,8
256,256,49344,1,8
192,128,50019,5,8
320,128,50693,1,8
320,256,51367,1,8
192,256,52041,1,8
192,192,52715,5,8
256,128,53389,1,8
320,192,54063,1,8
256,256,54738,1,8
384,192,55412,5,0
320,192,56086,1,0
256,192,56760,1,0
192,192,57434,1,0
128,192,58108,1,0
256,192,59457,5,4
256,192,59794,1,4
256,192,60131,1,4
256,192,66198,5,0
288,192,66872,1,0
288,192,67546,1,0
256,192,68221,1,4
256,192,68895,1,0
256,160,69569,1,0
256,160,70243,1,0
256,192,70917,1,4
256,192,82378,5,0
320,192,83052,1,0
384,192,83726,1,0
320,192,84400,1,4
256,192,85074,5,0
192,192,85749,1,0
128,192,86423,1,0
192,192,87097,1,4
256,192,87771,5,0
256,256,88445,1,0
256,320,89119,1,0
256,256,89793,1,4
256,192,90468,5,0
256,128,91142,1,0
256,64,91816,1,0
256,128,92490,1,4
256,192,93164,5,8
256,192,93838,1,8
256,192,94513,1,8
256,192,95187,1,8
320,192,95861,5,8
320,192,96535,1,8
320,192,97209,1,8
320,192,97883,1,8
256,192,98557,5,8
256,192,99232,1,8
256,192,99906,1,8
256,192,100580,1,8
192,192,101254,5,8
192,192,101928,1,8
192,192,102602,1,8
192,192,103276,1,8
256,192,103951,5,8
256,192,104625,1,8
256,192,105299,1,8
256,192,105973,1,8
256,128,106647,5,8
320,192,107321,1,8
256,256,107996,1,8
192,192,108670,1,8
192,192,109344,5,0
256,192,110692,1,0
320,192,112040,1,0
256,192,113052,1,4
256,192,113389,5,4
256,192,113726,1,4
256,192,114063,1,4
256,192,120130,5,0
320,192,120804,1,0
384,192,121479,1,0
320,192,122153,1,4
256,192,122827,5,0
192,192,123501,1,0
256,192,124175,1,0
320,192,124849,1,4
256,128,152490,5,0
256,192,153164,1,0
256,256,153838,1,0
256,192,154512,1,4
256,192,155186,5,0
256,192,155523,1,0
256,192,155860,1,0
256,192,156197,1,4
192,192,156534,5,0
256,192,156872,1,0
320,192,157209,1,4
256,192,163276,5,0
320,192,163950,1,0
384,192,164624,1,0
320,192,165298,1,4
256,192,165973,1,0
192,192,166647,1,0
128,192,167321,1,0
256,192,167995,1,4
