osu file format v5

[General]
AudioFilename: tanabata - cirnocirnocirno.mp3
AudioLeadIn: 0
PreviewTime: -1
Countdown: 1
SampleSet: Normal
StackLeniency: 0.7
Mode: 0
LetterboxInBreaks: 1

[Metadata]
Title:Cirno Cirno Cirno
Artist:TaNaBaTa
Creator:Observant_Owl
Version:(9)s only (Easy)
Source:
Tags:

[Difficulty]
HPDrainRate:2
CircleSize:4
OverallDifficulty:0
SliderMultiplier:1.4
SliderTickRate:1

[Events]
//Background and Video events
0,0,"(9)bg.png"
//Break Periods
2,21904,26646
2,60331,64398
2,71117,80578
2,114263,118330
2,125049,150690
2,157409,161476
//Storyboard Layer 0 (Background)
//Storyboard Layer 1 (Failing)
//Storyboard Layer 2 (Passing)
//Storyboard Layer 3 (Foreground)
//Storyboard Sound Samples
//Background Colour Transformations
3,100,128,128,255

[TimingPoints]
6873.39575216283,337.075530726257,4,1,0,100,1

[HitObjects]
256,192,12266,1,0
384,192,13614,1,0
256,192,14963,1,0
128,192,16311,1,4
256,192,17659,5,0
256,64,19008,1,0
256,192,20356,1,0
256,320,21704,1,4
256,192,28446,5,0
352,192,29794,1,0
352,96,31142,1,0
256,96,32491,1,4
160,96,33839,5,0
160,192,35187,1,0
160,288,36536,1,0
256,288,37884,1,4
256,192,39232,5,8
256,192,39906,1,8
256,192,40580,1,8
256,192,41255,1,8
256,128,41929,5,8
256,128,42603,1,8
256,128,43277,1,8
256,128,43951,1,8
320,192,44625,5,8
320,192,45300,1,8
320,192,45974,1,8
320,192,46648,1,8
256,256,47322,5,8
256,256,47996,1,8
256,256,48670,1,8
256,256,49344,1,8
192,192,50019,5,8
192,192,50693,1,8
192,192,51367,1,8
192,192,52041,1,8
256,192,52715,5,8
256,192,53389,1,8
256,192,54063,1,8
256,192,54738,1,8
352,192,55412,5,0
256,192,56760,1,0
160,192,58108,1,0
256,192,59457,5,4
256,192,59794,1,4
256,192,60131,1,4
256,192,66198,5,0
320,192,67546,1,0
256,192,68895,1,0
256,128,70243,1,4
256,192,82378,5,0
352,192,83726,1,0
256,192,85074,1,0
160,192,86423,1,4
256,192,87771,5,0
256,288,89119,1,0
256,192,90468,1,0
352,192,91816,1,4
256,192,93164,5,8
256,192,93838,1,8
256,192,94513,1,8
256,192,95187,1,8
256,128,95861,5,8
256,128,96535,1,8
256,128,97209,1,8
256,128,97883,1,8
320,192,98557,5,8
320,192,99232,1,8
320,192,99906,1,8
320,192,100580,1,8
256,256,101254,5,8
256,256,101928,1,8
256,256,102602,1,8
256,256,103276,1,8
192,192,103951,5,8
192,192,104625,1,8
192,192,105299,1,8
192,192,105973,1,8
256,128,106647,5,8
320,192,107321,1,8
256,256,107996,1,8
192,192,108670,1,8
256,96,109344,5,0
256,192,110692,1,0
256,320,112040,1,0
256,192,113389,5,4
256,192,113726,1,4
256,192,114063,1,4
256,192,120130,5,0
352,192,121479,1,0
160,192,122827,1,0
256,192,124175,1,4
256,128,152490,5,0
256,256,153838,1,4
256,192,155186,5,0
256,192,155523,1,0
256,192,155860,1,0
256,192,156197,1,4
256,192,156534,5,0
256,192,156872,1,0
256,192,157209,1,4
256,192,163276,5,0
320,192,164624,1,0
256,192,165973,1,0
192,192,167321,1,4
