osu file format v5

[General]
AudioFilename: TWO-MIX - JUST COMMUNICATION.mp3
AudioLeadIn: 0
PreviewTime: -1
Countdown: 1
SampleSet: Normal
StackLeniency: 0.7
Mode: 0
LetterboxInBreaks: 1
EditorBookmarks: 12065,33883,63429,77520,113883,157520,201156,212065

[Metadata]
Title:JUST COMMUNICATION
Artist:TWO-MIX
Creator:jackylaguna
Version:Easy
Source:
Tags:

[Difficulty]
HPDrainRate:0
CircleSize:5
OverallDifficulty:0
SliderMultiplier:1.4
SliderTickRate:1

[Events]
//Background and Video events
0,0,"Gundam_Wing.jpg"
//Break Periods
2,26810,32083
2,70447,75720
2,106810,112083
2,150446,155719
2,186810,199356
//Storyboard Layer 0 (Background)
//Storyboard Layer 1 (Failing)
//Storyboard Layer 2 (Passing)
//Storyboard Layer 3 (Foreground)
//Storyboard Sound Samples
//Background Colour Transformations
3,100,163,162,255

[TimingPoints]
1156,454.545454545455,4,1,0,100,1

[HitObjects]
96,96,12065,5,2
416,96,13883,5,2
96,288,15701,5,2
416,288,17520,5,2
128,64,19338,5,2
384,64,20247,1,8
384,320,21156,5,2
128,320,22065,1,8
128,64,22974,5,2
384,64,23883,1,8
384,320,24792,5,2
128,320,25701,1,8
256,96,26610,1,4
96,96,33883,5,0
416,96,35247,1,8
416,192,35701,5,0
96,192,37065,1,8
96,288,37520,5,0
416,288,38883,1,8
416,192,39338,5,0
96,192,40701,1,8
64,96,41156,5,0
320,96,42065,1,8
448,288,42974,5,0
192,288,43883,1,8
320,96,44792,5,0
64,96,45701,1,8
192,288,46610,5,0
448,288,47520,1,8
384,64,48429,6,0,B|96:64,1,280
384,160,50247,6,0,B|96:160,1,280
384,256,52065,6,0,B|96:256,1,280
384,352,53883,6,0,B|96:352,1,280
128,96,55701,6,0,B|256:32|416:96,1,280
384,288,57520,6,0,B|256:352|96:288,1,280
128,96,59338,6,0,B|256:32|416:96,1,280
384,288,61156,6,0,B|256:352|96:288,1,280
192,32,62974,6,8,B|96:64|32:160|32:224|96:320|224:352,1,420
324,339,64792,6,8,B|420:307|484:211|484:147|420:51|292:19,1,420
192,32,66610,6,8,B|96:64|32:160|32:224|96:320|224:352,1,420
324,331,68429,6,4,B|324:43,2,280
160,96,77520,5,0
256,96,77974,1,0
352,96,78429,1,8
352,288,79338,5,0
256,288,79792,1,0
160,288,80247,1,8
160,96,81156,5,0
256,96,81610,1,0
352,96,82065,1,8
352,288,82974,5,0
256,288,83429,1,0
160,288,83883,1,8
96,64,84792,6,4,B|160:0|416:0|480:64|480:320|416:384|160:384|64:288,1,840
160,96,88429,5,4
256,96,88883,1,0
352,96,89338,1,4
352,192,89792,1,0
352,288,90247,1,4
256,288,90701,1,4
160,288,91156,1,4
352,96,92065,5,0
256,96,92519,1,0
160,96,92974,1,8
160,288,93883,5,0
256,288,94337,1,0
352,288,94792,1,8
352,96,95701,5,0
256,96,96155,1,0
160,96,96610,1,8
160,288,97519,5,0
256,288,97974,1,0
352,288,98428,1,8
416,64,99337,6,4,B|352:0|96:0|32:64|32:320|96:384|352:384|448:288,1,840
256,192,102974,12,4,106610
416,96,113883,5,0
96,96,115247,1,8
96,192,115701,5,0
416,192,117065,1,8
416,288,117520,5,0
96,288,118883,1,8
96,192,119338,5,0
416,192,120701,1,8
448,96,121156,5,0
192,96,122065,1,8
64,288,122974,5,0
320,288,123883,1,8
192,96,124792,5,0
448,96,125701,1,8
320,288,126610,5,0
64,288,127520,1,8
128,64,128428,6,0,B|416:64,1,280
128,160,130246,6,0,B|416:160,1,280
128,256,132064,6,0,B|416:256,1,280
128,352,133882,6,0,B|416:352,1,280
384,96,135700,6,0,B|256:32|96:96,1,280
128,288,137519,6,0,B|256:352|416:288,1,280
384,96,139337,6,0,B|256:32|96:96,1,280
128,288,141155,6,0,B|256:352|416:288,1,280
320,32,142973,6,8,B|416:64|480:160|480:224|416:320|288:352,1,420
188,339,144791,6,8,B|92:307|28:211|28:147|92:51|220:19,1,420
320,32,146609,6,8,B|416:64|480:160|480:224|416:320|288:352,1,420
188,331,148428,6,4,B|188:43,2,280
352,96,157519,5,0
256,96,157973,1,0
160,96,158428,1,8
160,288,159337,5,0
256,288,159791,1,0
352,288,160246,1,8
352,96,161155,5,0
256,96,161609,1,0
160,96,162064,1,8
160,288,162973,5,0
256,288,163428,1,0
352,288,163882,1,8
416,64,164791,6,4,B|352:0|96:0|32:64|32:320|96:384|352:384|448:288,1,840
352,96,168428,5,4
256,96,168882,1,0
160,96,169337,1,4
160,192,169791,1,0
160,288,170246,1,4
256,288,170700,1,4
352,288,171155,1,4
160,96,172064,5,0
256,96,172518,1,0
352,96,172973,1,8
352,288,173882,5,0
256,288,174336,1,0
160,288,174791,1,8
160,96,175700,5,0
256,96,176154,1,0
352,96,176609,1,8
352,288,177518,5,0
256,288,177973,1,0
160,288,178427,1,8
96,64,179336,6,4,B|160:0|416:0|480:64|480:320|416:384|160:384|64:288,1,840
256,192,182973,12,4,186609
128,96,201156,5,0
384,96,202520,1,8
384,192,202974,5,0
128,192,204338,1,8
128,288,204792,5,0
384,288,206156,1,8
384,192,206610,5,0
128,192,207974,1,8
96,96,208429,5,4
256,32,209338,1,4
416,96,210247,1,4
320,128,210701,1,4
224,160,211156,1,4
128,192,211610,1,4
160,288,212065,5,0
256,288,212519,1,0
352,288,212974,1,8
352,96,213883,5,0
256,96,214337,1,0
160,96,214792,1,8
160,288,215701,5,0
256,288,216155,1,0
352,288,216610,1,8
352,96,217519,5,0
256,96,217974,1,0
160,96,218428,1,8
96,320,219337,6,4,B|160:384|416:384|480:320|480:64|416:0|160:0|64:96,1,840
160,288,222974,5,4
256,288,223428,1,0
352,288,223883,1,4
352,192,224337,1,0
352,96,224792,1,4
256,96,225246,1,4
160,96,225701,1,4
352,288,226610,5,0
256,288,227064,1,0
160,288,227519,1,8
160,96,228428,5,0
256,96,228882,1,0
352,96,229337,1,8
352,288,230246,5,0
256,288,230700,1,0
160,288,231155,1,8
160,96,232064,5,0
256,96,232519,1,0
352,96,232973,1,8
416,320,233882,6,4,B|352:384|96:384|32:320|32:64|96:0|352:0|448:96,1,840
256,192,237519,12,4,241155
