osu file format v12

[General]
AudioFilename: Taiyou to Tsuki no Cross.mp3
AudioLeadIn: 1500
PreviewTime: 48877
Countdown: 0
SampleSet: Soft
StackLeniency: 0.7
Mode: 0
LetterboxInBreaks: 0
WidescreenStoryboard: 0

[Editor]
DistanceSpacing: 1
BeatDivisor: 2
GridSize: 4

[Metadata]
Title:Taiyou to Tsuki no Cross (TV Size)
TitleUnicode:太陽と月のCROSS (TV Size)
Artist:TWO-FORMULA
ArtistUnicode:TWO-FORMULA
Creator:Tsukuyomi
Version:Normal
Source:Ore no Nounai Sentakushi ga, Gakuen Love Comedy wo Zenryoku de Jama Shiteiru
Tags:Chocolat Noucome My Mental Choices are Completely Interfering with my School Romantic Comedy Diomedea Hiroko Kanasugi Takeru Kasukabe baldrace Regou 俺の脳内選択肢が、学園ラブコメを全力で邪魔している
BeatmapID:326450
BeatmapSetID:128908

[Difficulty]
HPDrainRate:4
CircleSize:3
OverallDifficulty:4
ApproachRate:5
SliderMultiplier:1
SliderTickRate:2

[Events]
//Background and Video events
0,0,"BG.jpg",0,0
Video,0,"MOVIE.avi"
//Break Periods
//Storyboard Layer 0 (Background)
//Storyboard Layer 1 (Fail)
//Storyboard Layer 2 (Pass)
//Storyboard Layer 3 (Foreground)
//Storyboard Sound Samples
//Background Colour Transformations
3,100,163,162,255

[TimingPoints]
165,297.029702970297,4,2,1,80,1,0
9669,-100,4,2,1,70,0,0
16501,-100,4,1,1,70,0,0
16947,-100,4,2,1,70,0,0
19471,-111.111111111111,4,2,2,45,0,0
27491,-100,4,1,1,50,0,0
28679,-100,4,1,2,50,0,0
28828,-100,4,2,1,50,0,0
37145,-100,4,1,1,50,0,0
38184,-100,4,2,0,50,0,0
38481,-100,4,2,1,50,0,0
44719,-100,4,2,2,50,0,0
45239,-100,4,2,1,50,0,0
46501,-100,4,1,1,50,0,0
47689,-100,4,1,2,50,0,0
48877,-100,4,2,2,50,0,0
49768,-100,4,2,2,5,0,0
50065,-100,4,2,1,80,0,1
58382,-100,4,1,1,80,0,1
58976,-100,4,2,1,80,0,1
70858,-100,4,1,1,80,0,1
71452,-100,4,1,2,100,0,0
71526,-100,4,2,1,70,0,0
77244,-100,4,2,2,5,0,0

[Colours]
Combo1 : 255,128,64
Combo2 : 255,0,255
Combo3 : 0,255,255

[HitObjects]
395,77,165,2,0,P|418:121|406:182,1,100,4|8,0:0|0:0,0:0:0:0:
406,269,759,2,0,P|345:275|313:307,1,100,2|8,0:0|0:0,0:0:0:0:
272,320,1204,2,0,P|197:322|131:263,1,150,0|8,0:0|0:0,0:0:0:0:
56,221,1947,2,0,L|-3:228,2,50,2|0|8,0:0|0:0|0:0,0:0:0:0:
137,158,2541,6,0,P|174:134|191:73,1,100,2|8,0:0|0:0,0:0:0:0:
217,39,2986,2,0,L|326:73,1,100,2|8,0:0|0:0,0:0:0:0:
406,101,3580,2,0,P|442:150|426:245,1,150,0|8,0:0|0:0,0:0:0:0:
343,279,4323,2,0,P|340:204|365:173,1,100,0|8,0:0|0:0,0:0:0:0:
308,95,4917,5,4,0:0:0:0:
232,29,5214,2,0,L|173:30,1,50,8|2,0:0|0:0,0:0:0:0:
94,79,5660,2,0,P|52:117|51:170,1,100,2|0,2:0|0:0,0:0:0:0:
61,205,6105,2,0,L|142:298,1,100,0|8,0:0|0:0,0:0:0:0:
257,353,6848,2,0,L|304:313,1,50,0|8,0:0|0:0,0:0:0:0:
393,301,7293,6,0,P|440:264|449:210,2,100,0|8|2,0:0|0:0|0:0,0:0:0:0:
354,208,8184,2,0,L|316:169,1,50,8|0,0:0|0:0,0:0:0:0:
256,192,8481,12,4,9669,0:0:0:0:
297,152,9966,5,8,0:0:0:0:
117,69,10561,1,8,0:0:0:0:
120,168,10858,2,0,L|76:190,2,50,0|0|8,0:0|0:0|0:0,0:0:0:0:
174,251,11452,2,0,L|133:295,2,50,2|0|8,0:0|0:0|0:0,0:0:0:0:
262,301,12046,6,0,P|325:289|348:249,1,100,2|8,0:0|0:0,0:0:0:0:
374,222,12491,2,0,B|381:172|420:155|420:155|423:86,1,150,2|10,0:0|0:0,0:0:0:0:
276,54,13382,2,0,L|229:108,1,50,0|8,0:0|0:0,0:0:0:0:
162,31,13828,2,0,L|88:105,1,100,0|10,0:0|0:0,0:0:0:0:
50,193,14422,6,0,P|107:242|110:277,1,100,4|10,0:0|0:0,0:0:0:0:
193,319,15016,2,0,P|242:308|294:330,1,100,0|8,0:0|0:0,0:0:0:0:
387,331,15610,2,0,P|428:300|437:242,1,100,0|8,0:0|0:0,0:0:0:0:
408,214,16056,2,0,B|381:151|404:113|404:113|368:55,1,150,4|0,0:0|0:0,0:0:0:0:
380,74,16798,5,4,0:0:0:0:
284,46,17095,1,8,0:0:0:0:
191,83,17392,2,0,L|122:103,1,50,8|8,0:0|0:0,0:0:0:0:
50,135,17838,1,12,0:0:0:0:
256,192,17986,12,4,19174,0:0:0:0:
421,262,19471,6,0,B|372:310|372:310|311:280|248:313,1,179.999994506836,0|0,0:0|0:0,0:0:0:0:
175,323,20363,2,0,P|143:245|40:222,1,179.999994506836,0|10,0:0|0:0,0:0:0:0:
188,95,21551,6,0,P|148:73|86:75,2,89.9999972534181,2|0|8,0:0|0:0|0:0,0:0:0:0:
271,129,22442,1,0,0:0:0:0:
355,97,22739,2,0,P|445:92|497:168,1,179.999994506836,2|8,0:0|0:0,0:0:0:0:
428,324,23927,6,0,P|338:329|286:253,1,179.999994506836,2|8,0:0|0:0,0:0:0:0:
252,180,24818,1,2,0:0:0:0:
191,113,25115,2,0,B|141:91|141:91|79:125|17:80,2,179.999994506836,0|8|2,0:0|0:0|0:0,0:0:0:0:
361,170,26897,5,10,0:0:0:0:
361,170,27491,2,0,L|275:117,1,100,0|4,0:0|0:0,0:0:0:0:
179,90,28085,2,0,P|85:113|68:218,1,200,0|4,0:0|0:0,0:0:0:0:
86,300,28976,5,8,0:0:0:0:
176,342,29273,2,0,P|241:340|283:304,1,100,2|8,0:0|0:0,0:0:0:0:
285,274,29719,2,0,P|353:253|449:289,1,150,0|8,0:0|0:0,0:0:0:0:
468,180,30462,2,0,P|459:129|415:72,1,100,0|8,0:0|0:0,0:0:0:0:
340,52,31056,5,2,0:0:0:0:
340,52,31353,1,8,0:0:0:0:
240,49,31650,2,0,P|179:57|145:102,1,100,0|8,0:0|0:0,0:0:0:0:
227,149,32244,2,0,L|277:259,1,100,2|8,0:0|0:0,0:0:0:0:
197,310,32838,2,0,L|155:218,1,100,2|8,0:0|0:0,0:0:0:0:
114,127,33432,5,2,0:0:0:0:
183,54,33729,2,0,L|260:53,1,50,8|0,0:0|0:0,0:0:0:0:
315,109,34174,2,0,L|387:109,1,50,0|8,0:0|0:0,0:0:0:0:
446,166,34620,2,0,P|468:231|438:282,1,100,2|8,0:0|0:0,0:0:0:0:
364,226,35214,2,0,L|252:236,1,100,2|8,0:0|0:0,0:0:0:0:
165,248,35808,5,0,0:0:0:0:
71,212,36105,2,0,P|45:143|61:110,1,100,8|8,0:0|0:0,0:0:0:0:
84,83,36551,2,0,L|183:74,1,100,0|4,0:0|0:0,0:0:0:0:
256,192,37145,12,4,38184,0:0:0:0:
105,291,38630,5,4,0:0:0:0:
105,291,39075,2,0,B|159:288|196:254|196:254|251:243|305:302,1,200,2|8,0:0|0:0,0:0:0:0:
384,305,39966,2,0,P|432:265|441:221,1,100,0|8,1:0|0:0,0:0:0:0:
458,131,40561,6,0,B|380:130|354:184|354:184|250:136,1,200,2|2,0:0|0:0,0:0:0:0:
195,107,41452,1,8,0:0:0:0:
106,60,41749,2,0,P|93:105|117:172,1,100,2|8,0:0|0:0,0:0:0:0:
136,194,42194,2,0,B|168:282|168:282|139:311|136:351,1,150,0|8,0:0|0:0,0:0:0:0:
235,359,42937,5,4,0:0:0:0:
379,318,43382,1,4,0:0:0:0:
379,318,43828,2,0,P|318:242|327:144,1,200,12|8,0:0|0:0,0:0:0:0:
405,82,44719,2,0,L|399:13,2,50,2|2|8,0:0|0:0|0:0,0:0:0:0:
498,116,45313,6,0,L|437:215,1,100,4|8,0:0|0:0,0:0:0:0:
452,300,45907,2,0,L|350:358,1,100,2|8,0:0|0:0,0:0:0:0:
266,333,46501,2,0,P|175:362|72:294,1,200,4|0,0:0|0:0,0:0:0:0:
210,158,47689,6,0,L|234:103,1,50,4|0,0:0|0:0,0:0:0:0:
316,162,48135,2,0,L|340:107,1,50,0|0,0:0|0:0,0:0:0:0:
422,165,48580,2,0,L|446:110,1,50,0|0,0:0|0:0,0:0:0:0:
256,192,48877,12,4,50065,0:0:0:0:
449,165,50363,6,0,B|397:202|397:202|395:280|325:316,1,200,8|8,0:0|0:0,0:0:0:0:
231,326,51254,2,0,L|166:234,1,100,2|8,0:0|0:0,0:0:0:0:
99,311,51848,2,0,L|36:214,1,100,2|8,0:0|0:0,0:0:0:0:
29,128,52442,6,0,P|80:132|124:180,1,100,2|8,0:0|0:0,0:0:0:0:
164,171,52887,2,0,P|230:161|281:97,1,150,2|8,0:0|0:0,0:0:0:0:
380,103,53630,1,2,0:0:0:0:
423,193,53927,1,8,0:0:0:0:
382,284,54224,2,0,P|309:321|268:306,1,100,2|8,0:0|0:0,0:0:0:0:
195,317,54818,6,0,P|145:310|106:239,1,100,4|8,0:0|0:0,0:0:0:0:
90,177,55412,2,0,P|141:171|187:116,1,100,2|8,0:0|0:0,0:0:0:0:
276,136,56006,2,0,L|343:234,1,100,2|8,0:0|0:0,0:0:0:0:
395,296,56600,1,2,0:0:0:0:
494,298,56897,1,8,0:0:0:0:
440,213,57194,6,0,L|383:130,1,100,4|8,0:0|0:0,0:0:0:0:
253,53,57937,2,0,L|200:88,1,50,0|8,0:0|0:0,0:0:0:0:
189,175,58382,2,0,B|138:155|120:112|120:112|73:116|13:76,2,200,0|4|4,0:0|0:0|0:0,0:0:0:0:
279,216,59867,5,8,0:0:0:0:
456,122,60462,1,8,0:0:0:0:
456,122,60759,2,0,P|485:162|458:241,1,100,2|8,0:0|0:0,0:0:0:0:
419,288,61353,2,0,P|370:298|337:345,1,100,2|8,0:0|0:0,0:0:0:0:
240,347,61947,6,0,L|152:260,1,100,2|8,0:0|0:0,0:0:0:0:
119,278,62392,2,0,P|139:206|92:131,1,150,2|8,0:0|0:0,0:0:0:0:
41,220,63135,2,0,L|186:199,1,100,2|8,0:0|0:0,0:0:0:0:
241,217,63729,2,0,L|385:198,1,100,2|8,0:0|0:0,0:0:0:0:
440,208,64323,5,4,0:0:0:0:
479,115,64620,2,0,L|440:73,1,50,8|4,0:0|0:0,0:0:0:0:
346,98,65065,2,0,L|302:50,1,50,2|8,0:0|0:0,0:0:0:0:
212,50,65511,1,4,0:0:0:0:
130,107,65808,2,0,L|66:157,1,50,8|4,0:0|0:0,0:0:0:0:
131,229,66254,2,0,L|67:279,1,50,2|8,0:0|0:0,0:0:0:0:
161,330,66699,6,0,P|199:364|277:366,2,100,4|8|0,0:0|0:0|0:0,0:0:0:0:
244,274,67590,2,0,L|283:243,1,50,8|4,0:0|0:0,0:0:0:0:
379,272,68036,2,0,L|418:241,1,50,0|10,0:0|0:0,0:0:0:0:
505,191,68481,2,0,P|458:142|418:137,1,100,0|8,0:0|0:0,0:0:0:0:
328,129,69075,6,0,L|295:208,1,50,0|4,0:0|0:0,0:0:0:0:
235,306,69669,2,0,P|190:285|155:216,1,100,8|8,0:0|0:0,0:0:0:0:
114,156,70264,2,0,L|172:121,1,50,0|4,0:0|0:0,0:0:0:0:
280,45,70858,2,0,P|313:113|300:159,1,100,0|0,0:0|0:0,0:0:0:0:
319,234,71452,6,0,P|397:228|451:157,2,150,4|8|8,0:0|0:0|0:0,0:0:0:0:
169,235,72788,1,8,0:0:0:0:
169,235,73234,2,0,P|119:250|76:304,1,100,8|8,0:0|0:0,0:0:0:0:
172,339,73828,2,0,P|234:360|338:316,2,150,8|8|12,0:0|0:0|0:0,0:0:0:0:
256,192,74867,12,2,77244,0:0:0:0:
