osu file format v12

[General]
AudioFilename: Taiyou to Tsuki no Cross.mp3
AudioLeadIn: 1500
PreviewTime: 48877
Countdown: 0
SampleSet: Normal
StackLeniency: 0.5
Mode: 0
LetterboxInBreaks: 0
WidescreenStoryboard: 0

[Editor]
DistanceSpacing: 0.6
BeatDivisor: 4
GridSize: 4

[Metadata]
Title:Taiyou to Tsuki no Cross (TV Size)
TitleUnicode:太陽と月のCROSS (TV Size)
Artist:TWO-FORMULA
ArtistUnicode:TWO-FORMULA
Creator:Tsukuyomi
Version:Insane
Source:Ore no Nounai Sentakushi ga, Gakuen Love Comedy wo Zenryoku de Jama Shiteiru
Tags:Chocolat Noucome My Mental Choices are Completely Interfering with my School Romantic Comedy Diomedea Hiroko Kanasugi Takeru Kasukabe baldrace Regou 俺の脳内選択肢が、学園ラブコメを全力で邪魔している
BeatmapID:326451
BeatmapSetID:128908

[Difficulty]
HPDrainRate:7
CircleSize:4
OverallDifficulty:7
ApproachRate:9
SliderMultiplier:1.6
SliderTickRate:2

[Events]
//Background and Video events
0,0,"BG.jpg",0,0
Video,0,"MOVIE.avi"
//Break Periods
//Storyboard Layer 0 (Background)
//Storyboard Layer 1 (Fail)
//Storyboard Layer 2 (Pass)
//Storyboard Layer 3 (Foreground)
//Storyboard Sound Samples
//Background Colour Transformations
3,100,163,162,255

[TimingPoints]
165,297.029702970297,4,2,1,80,1,0
9075,-100,4,1,1,80,0,0
9669,-100,4,2,1,70,0,0
16501,-100,4,1,1,70,0,0
16947,-100,4,2,1,70,0,0
19471,-133.333333333333,4,2,2,45,0,0
27491,-100,4,1,1,50,0,0
28679,-66.6666666666667,4,1,2,50,0,0
28828,-100,4,2,1,50,0,0
37145,-100,4,1,1,50,0,0
38036,-100,4,2,1,50,0,0
44719,-100,4,2,2,50,0,0
45239,-100,4,2,1,50,0,0
46501,-100,4,1,1,50,0,0
47689,-100,4,1,2,50,0,0
48877,-100,4,2,2,50,0,0
49768,-100,4,2,2,5,0,0
50065,-90.9090909090909,4,2,1,80,0,1
51848,-66.6666666666667,4,2,1,80,0,1
52070,-90.9090909090909,4,2,1,80,0,1
54818,-66.6666666666667,4,2,1,80,0,1
55041,-100,4,2,1,80,0,1
56600,-66.6666666666667,4,2,1,80,0,1
56823,-100,4,2,1,80,0,1
57194,-66.6666666666667,4,2,1,80,0,1
57417,-100,4,2,1,80,0,1
58382,-100,4,1,1,80,0,1
58976,-100,4,2,1,80,0,1
59570,-66.6666666666667,4,2,1,80,0,1
59793,-100,4,2,1,80,0,1
61947,-66.6666666666667,4,2,1,80,0,1
62169,-100,4,2,1,80,0,1
63135,-66.6666666666667,4,2,1,80,0,1
63432,-80,4,2,1,80,0,1
63729,-100,4,2,1,80,0,1
64026,-133.333333333333,4,2,1,80,0,1
64174,-100,4,2,1,80,0,1
66996,-66.6666666666667,4,1,2,80,0,1
67070,-66.6666666666667,4,1,1,80,0,1
67293,-66.6666666666667,4,1,2,80,0,1
67367,-66.6666666666667,4,1,1,80,0,1
67590,-100,4,2,1,80,0,1
70858,-100,4,1,1,80,0,1
71452,-100,4,1,2,100,0,0
71526,-100,4,2,1,70,0,0
74719,-100,4,2,1,40,0,0
77244,-100,4,2,2,5,0,0

[Colours]
Combo1 : 255,128,64
Combo2 : 255,0,255
Combo3 : 0,255,255

[HitObjects]
429,349,165,2,0,P|415:301|359:267,1,80,4|0,0:0|0:0,0:0:0:0:
235,220,462,2,0,P|249:268|305:302,1,80,8|0,0:0|0:0,0:0:0:0:
389,143,759,2,0,L|314:198,1,80,2|0,0:0|0:0,0:0:0:0:
438,75,1056,2,0,P|468:106|468:158,1,80,8|0,0:0|0:0,0:0:0:0:
324,190,1353,6,0,L|266:103,1,80,2|0,0:0|0:0,0:0:0:0:
48,158,1650,2,0,L|103:239,1,80,8|0,0:0|0:0,0:0:0:0:
116,80,1947,1,2,0:0:0:0:
22,263,2095,1,0,0:0:0:0:
259,223,2244,1,8,0:0:0:0:
48,158,2392,1,2,0:0:0:0:
119,311,2541,6,0,L|219:311,1,80,2|0,0:0|0:0,0:0:0:0:
116,80,2838,1,8,0:0:0:0:
179,223,2986,2,0,L|273:223,1,80,2|0,0:0|0:0,0:0:0:0:
359,97,3283,2,0,P|321:109|290:154,1,80,2|8,0:0|0:0,0:0:0:0:
358,328,3580,6,0,P|396:316|427:271,1,80,2|0,0:0|0:0,0:0:0:0:
359,97,3877,1,0,0:0:0:0:
359,97,3952,1,0,0:0:0:0:
359,97,4026,1,8,0:0:0:0:
472,137,4174,1,0,0:0:0:0:
295,138,4323,1,2,0:0:0:0:
342,289,4471,1,0,0:0:0:0:
164,287,4620,1,8,0:0:0:0:
383,194,4768,1,2,0:0:0:0:
244,288,4917,6,0,L|154:287,1,80,4|0,0:0|0:0,0:0:0:0:
80,307,5214,1,8,0:0:0:0:
36,186,5363,2,0,L|37:96,1,80,2|0,0:0|0:0,0:0:0:0:
163,91,5660,2,0,L|204:70,1,40,2|0,0:0|0:0,0:0:0:0:
126,106,5808,2,0,P|122:48|131:8,1,80,8|0,0:0|0:0,0:0:0:0:
200,169,6105,6,0,B|239:199|239:199|303:195|362:139,1,160,0|8,0:0|0:0,0:0:0:0:
484,20,6551,1,2,0:0:0:0:
399,234,6699,1,0,0:0:0:0:
322,77,6848,1,0,0:0:0:0:
476,143,6996,1,8,0:0:0:0:
303,272,7145,1,2,0:0:0:0:
205,152,7293,6,0,B|205:233|205:233|188:273|208:318,1,160,0|8,0:0|0:0,0:0:0:0:
204,310,7739,1,2,0:0:0:0:
303,178,7887,1,0,0:0:0:0:
119,255,8036,1,2,0:0:0:0:
303,272,8184,2,0,L|394:272,1,80,8|0,0:0|0:0,0:0:0:0:
114,161,8481,6,0,L|23:161,1,80,2|0,0:0|0:0,0:0:0:0:
303,178,8778,1,8,0:0:0:0:
119,255,8927,1,0,0:0:0:0:
303,272,9075,2,0,L|328:333,1,40
403,300,9224,2,0,L|388:264,1,40
452,204,9372,2,0,L|477:265,1,40,0|0,0:0|0:0,0:0:0:0:
512,150,9521,2,0,L|496:112,1,40
427,42,9669,5,4,0:0:0:0:
303,178,9818,1,0,0:0:0:0:
164,102,9966,2,0,P|156:61|173:8,1,80,8|0,0:0|0:0,0:0:0:0:
306,100,10264,2,0,P|313:139|303:178,1,80,2|0,0:0|0:0,0:0:0:0:
181,87,10561,2,0,P|180:45|206:-3,1,80,8|0,0:0|0:0,0:0:0:0:
321,110,10859,6,0,P|321:149|304:186,1,80,2|0,0:0|0:0,0:0:0:0:
128,200,11155,2,0,P|167:192|205:203,1,80,8|0,0:0|0:0,0:0:0:0:
137,347,11452,2,0,P|97:354|59:343,1,80,2|0,0:0|0:0,0:0:0:0:
128,177,11749,2,0,P|168:176|203:193,1,80,8|0,0:0|0:0,0:0:0:0:
111,323,12046,6,0,P|71:323|35:306,1,80,2|0,0:0|0:0,0:0:0:0:
129,153,12343,1,8,0:0:0:0:
129,153,12491,1,2,0:0:0:0:
226,188,12640,5,2,0:0:0:0:
32,147,12788,1,0,0:0:0:0:
232,163,12937,1,10,0:0:0:0:
38,122,13085,1,0,0:0:0:0:
238,138,13234,6,0,L|343:137,2,80,2|0|8,0:0|0:0|0:0,0:0:0:0:
426,60,13679,2,0,L|346:60,2,80,2|0|0,0:0|0:0|0:0,0:0:0:0:
368,200,14125,2,0,L|473:199,2,80,10|0|4,0:0|0:0|0:0,0:0:0:0:
238,138,14570,5,0,0:0:0:0:
346,60,14719,1,10,0:0:0:0:
368,200,14867,1,0,0:0:0:0:
263,136,15016,5,0,0:0:0:0:
423,130,15165,1,2,0:0:0:0:
327,284,15313,1,8,0:0:0:0:
206,144,15462,5,2,0:0:0:0:
104,287,15610,1,0,0:0:0:0:
28,139,15759,2,0,P|24:90|33:49,1,80,2|8,0:0|0:0,0:0:0:0:
104,287,16056,2,0,B|135:282|143:271|143:271|160:344|246:327,1,160,4|0,0:0|0:0,0:0:0:0:
319,333,16501,1,0,0:0:0:0:
319,333,16575,1,0,0:0:0:0:
319,333,16650,1,0,0:0:0:0:
319,333,16724,1,0,0:0:0:0:
319,333,16798,5,4,0:0:0:0:
476,213,16947,1,0,0:0:0:0:
406,333,17095,1,8,0:0:0:0:
391,180,17244,1,0,0:0:0:0:
490,299,17392,1,8,0:0:0:0:
337,248,17541,1,8,0:0:0:0:
337,248,17838,1,12,0:0:0:0:
256,192,17912,12,4,19174,0:0:0:0:
430,81,19471,5,0,0:0:0:0:
354,108,19620,1,0,0:0:0:0:
279,136,19768,2,0,P|228:145|166:94,1,120.000004577637,10|0,0:0|0:0,0:0:0:0:
240,66,20214,1,2,0:0:0:0:
279,136,20363,2,0,P|301:194|276:267,1,120.000004577637,0|0,0:0|0:0,0:0:0:0:
354,296,20808,1,0,0:0:0:0:
288,248,20957,2,0,P|332:219|412:241,1,120.000004577637,10|0,0:0|0:0,0:0:0:0:
395,228,21402,1,0,0:0:0:0:
276,329,21551,6,0,P|225:302|209:234,2,120.000004577637,2|0|8,0:0|0:0|0:0,0:0:0:0:
236,55,22442,2,0,P|287:82|303:150,2,120.000004577637,0|2|0,0:0|0:0|0:0,0:0:0:0:
40,192,23333,1,10,0:0:0:0:
120,247,23481,1,0,0:0:0:0:
192,164,23630,1,2,0:0:0:0:
256,265,23778,1,2,0:0:0:0:
256,265,23927,5,2,0:0:0:0:
320,164,24075,1,2,0:0:0:0:
392,247,24224,1,0,0:0:0:0:
472,192,24372,1,0,0:0:0:0:
470,111,24521,2,0,L|470:44,1,60.0000022888184,8|0,0:0|0:0,0:0:0:0:
320,164,24818,2,0,L|321:251,1,60.0000022888184,2|0,0:0|0:0,0:0:0:0:
120,247,25115,2,0,L|120:162,1,60.0000022888184
150,317,25412,2,0,P|121:324|92:318,1,60.0000022888184,2|0,0:0|0:0,0:0:0:0:
91,119,25709,2,0,P|120:112|149:118,1,60.0000022888184,8|0,0:0|0:0,0:0:0:0:
281,244,26006,2,0,P|251:248|208:238,1,60.0000022888184,2|0,0:0|0:0,0:0:0:0:
255,169,26229,1,0,0:0:0:0:
255,169,26303,6,0,P|303:167|359:230,2,120.000004577637,2|0|10,0:0|0:0|0:0,0:0:0:0:
348,289,27194,1,0,0:0:0:0:
423,255,27343,1,0,0:0:0:0:
462,184,27491,5,0,0:0:0:0:
462,184,27565,1,0,0:0:0:0:
462,184,27640,1,0,0:0:0:0:
462,184,27714,1,0,0:0:0:0:
462,184,27788,1,4,0:0:0:0:
160,78,28085,1,0,0:0:0:0:
77,140,28234,1,0,0:0:0:0:
63,164,28308,1,0,0:0:0:0:
54,190,28382,1,0,0:0:0:0:
51,218,28457,1,0,0:0:0:0:
53,245,28531,1,0,0:0:0:0:
62,271,28605,1,0,0:0:0:0:
79,292,28679,6,0,B|126:318|126:318|152:306|204:328|234:312,1,120.000004577637,4|0,0:0|0:0,0:0:0:0:
457,262,28976,2,0,P|467:223|462:184,1,80,8|0,0:0|0:0,0:0:0:0:
366,222,29273,1,2,0:0:0:0:
443,79,29422,1,0,0:0:0:0:
287,36,29570,2,0,P|277:74|282:114,1,80,8|2,0:0|0:0,0:0:0:0:
366,222,29867,6,0,P|286:251|204:228,1,160,0|8,0:0|0:0,0:0:0:0:
120,105,30313,1,0,0:0:0:0:
120,105,30387,1,0,0:0:0:0:
120,105,30462,1,2,0:0:0:0:
281,113,30610,1,0,0:0:0:0:
215,234,30759,1,8,0:0:0:0:
204,56,30907,1,0,0:0:0:0:
54,171,31056,6,0,P|43:204|56:261,2,80,2|0|8,0:0|0:0|0:0,0:0:0:0:
120,105,31501,1,0,0:0:0:0:
120,105,31575,1,0,0:0:0:0:
120,105,31650,1,0,0:0:0:0:
281,113,31798,1,0,0:0:0:0:
215,234,31947,2,0,P|174:226|126:236,1,80,8|0,0:0|0:0,0:0:0:0:
115,334,32244,6,0,B|170:331|170:331|184:343|184:343|288:338,1,160,2|8,0:0|0:0,0:0:0:0:
474,246,32689,2,0,P|477:272|472:299,1,40
388,304,32838,2,0,B|377:244|377:244|416:210|391:116,1,160,2|8,0:0|0:0,0:0:0:0:
474,246,33283,1,0,0:0:0:0:
308,183,33432,6,0,B|248:194|248:194|214:155|120:180,1,160,2|8,0:0|0:0,0:0:0:0:
190,253,33877,1,0,0:0:0:0:
225,80,34026,1,0,0:0:0:0:
60,140,34174,1,0,0:0:0:0:
60,140,34249,1,0,0:0:0:0:
60,140,34323,2,0,P|57:202|68:224,1,80,8|0,0:0|0:0,0:0:0:0:
190,253,34620,6,0,P|196:215|171:170,1,80,2|0,0:0|0:0,0:0:0:0:
60,140,34917,1,8,0:0:0:0:
225,80,35065,1,0,0:0:0:0:
328,193,35214,2,0,L|407:192,1,80,2|0,0:0|0:0,0:0:0:0:
466,106,35511,1,8,0:0:0:0:
366,280,35660,6,0,L|272:280,1,80,2|0,0:0|0:0,0:0:0:0:
225,80,35957,1,2,0:0:0:0:
466,106,36105,1,8,0:0:0:0:
366,280,36254,1,2,0:0:0:0:
349,93,36402,1,8,0:0:0:0:
209,281,36551,1,4,0:0:0:0:
209,281,36848,1,4,0:0:0:0:
106,66,37145,5,0,0:0:0:0:
106,66,37219,1,0,0:0:0:0:
106,66,37293,1,0,0:0:0:0:
209,281,37442,1,0,0:0:0:0:
225,80,37590,1,0,0:0:0:0:
286,280,37739,1,0,0:0:0:0:
349,93,37887,1,0,0:0:0:0:
362,277,38036,1,0,0:0:0:0:
466,106,38184,6,0,P|472:152|464:200,1,80,4|0,0:0|0:0,0:0:0:0:
466,213,38407,1,0,0:0:0:0:
463,240,38481,1,2,0:0:0:0:
362,277,38630,2,0,P|295:281|272:277,1,80,4|0,0:0|0:0,0:0:0:0:
258,282,38853,1,0,0:0:0:0:
234,282,38927,1,0,0:0:0:0:
102,188,39075,2,0,B|148:182|148:182|178:197|222:193,1,120,4|0,0:0|0:0,0:0:0:0:
300,186,39372,6,0,P|341:157|355:124,1,80,2|0,0:0|0:0,0:0:0:0:
363,104,39595,1,0,0:0:0:0:
376,79,39669,1,8,0:0:0:0:
401,66,39744,1,0,0:0:0:0:
428,66,39818,1,0,0:0:0:0:
453,77,39892,1,0,0:0:0:0:
465,102,39966,6,0,L|448:168,1,40,0|0,1:0|0:0,0:0:0:0:
476,219,40115,2,0,L|457:275,1,40,0|0,1:0|0:0,0:0:0:0:
363,324,40264,2,0,B|318:317|318:317|301:338|240:322,1,120,8|0,0:0|0:0,0:0:0:0:
166,322,40561,6,0,P|137:246|53:238,1,160,2|8,0:0|0:0,0:0:0:0:
85,311,41006,1,0,0:0:0:0:
85,311,41155,2,0,L|192:188,1,160,2|8,0:0|0:0,0:0:0:0:
401,47,41749,6,0,P|354:86|354:147,1,120,2|0,0:0|0:0,0:0:0:0:
353,169,42046,1,8,0:0:0:0:
241,107,42194,2,0,L|161:57,1,80,0|2,0:0|0:0,0:0:0:0:
167,229,42491,1,0,0:0:0:0:
353,169,42640,1,8,0:0:0:0:
304,36,42788,1,2,0:0:0:0:
264,206,42937,6,0,P|322:258|400:252,1,160,4|8,0:0|0:0,0:0:0:0:
241,107,43382,2,0,P|179:151|168:232,1,160,4|0,0:0|0:0,0:0:0:0:
264,206,43828,1,12,0:0:0:0:
192,36,43976,2,0,P|143:62|123:86,1,80
326,139,44273,6,0,P|375:113|395:89,2,80,2|8|0,0:0|0:0|0:0,0:0:0:0:
127,79,44719,2,0,L|94:66,12,20,2|0|0|0|0|0|0|8|0|0|0|0|0,0:0|0:0|0:0|0:0|0:0|0:0|0:0|0:0|0:0|0:0|0:0|0:0|0:0,0:0:0:0:
76,198,45313,5,4,0:0:0:0:
220,130,45462,1,0,0:0:0:0:
193,255,45610,2,0,L|180:350,1,80,8|0,0:0|0:0,0:0:0:0:
76,198,45907,1,2,0:0:0:0:
182,334,46056,1,0,0:0:0:0:
348,298,46204,2,0,L|437:263,1,80,8|0,0:0|0:0,0:0:0:0:
348,298,46501,5,4,0:0:0:0:
429,162,46650,1,0,0:0:0:0:
427,134,46724,1,0,0:0:0:0:
415,108,46798,1,0,0:0:0:0:
397,86,46872,1,0,0:0:0:0:
373,70,46947,1,0,0:0:0:0:
346,60,47021,1,0,0:0:0:0:
318,60,47095,2,0,L|228:102,1,80
125,48,47392,1,0,0:0:0:0:
125,48,47541,1,0,0:0:0:0:
71,282,47689,5,4,0:0:0:0:
202,192,47838,1,0,0:0:0:0:
34,245,48135,5,0,0:0:0:0:
238,228,48284,1,0,0:0:0:0:
25,195,48580,5,0,0:0:0:0:
249,278,48729,1,0,0:0:0:0:
256,192,48877,12,0,49768,0:0:0:0:
73,288,50065,6,0,B|117:264|117:264|149:292|217:288,1,132.00000402832,4|0,0:0|0:0,0:0:0:0:
243,299,50363,2,0,P|236:234|251:184,1,88.000002685547,8|0,0:0|0:0,0:0:0:0:
208,89,50660,1,2,0:0:0:0:
328,257,50808,1,0,0:0:0:0:
377,91,50957,2,0,P|383:135|372:189,1,88.000002685547,8|0,0:0|0:0,0:0:0:0:
168,165,51254,6,0,P|190:108|216:83,1,88.000002685547,2|0,0:0|0:0,0:0:0:0:
328,257,51551,2,0,P|309:311|277:340,1,88.000002685547,8|0,0:0|0:0,0:0:0:0:
295,180,51848,2,0,B|362:164|394:212|394:212|443:198|463:159,1,180.000006866455,2|0,0:0|0:0,0:0:0:0:
430,91,52145,2,0,P|359:93|322:77,1,88.000002685547,8|2,0:0|0:0,0:0:0:0:
122,85,52442,6,0,P|193:83|230:99,1,88.000002685547,2|0,0:0|0:0,0:0:0:0:
295,180,52739,1,8,0:0:0:0:
76,178,52887,2,0,P|126:187|186:166,1,88.000002685547
212,66,53184,1,2,0:0:0:0:
77,204,53333,1,8,0:0:0:0:
297,204,53481,1,2,0:0:0:0:
196,328,53630,6,0,B|161:355|161:355|121:371|84:317,1,132.00000402832,2|0,0:0|0:0,0:0:0:0:
151,259,53927,2,0,P|208:250|254:271,1,88.000002685547,8|0,0:0|0:0,0:0:0:0:
374,226,54224,2,0,B|423:260|408:311|408:311|377:331,1,132.00000402832,2|0,0:0|0:0,0:0:0:0:
335,324,54521,1,8,0:0:0:0:
476,217,54669,1,0,0:0:0:0:
473,190,54744,1,0,0:0:0:0:
469,161,54818,6,0,B|448:90|448:90|388:104|351:50,1,180.000006866455,4|0,0:0|0:0,0:0:0:0:
268,107,55115,2,0,P|274:67|272:28,1,80,8|0,0:0|0:0,0:0:0:0:
185,161,55412,1,2,0:0:0:0:
354,55,55561,1,0,0:0:0:0:
290,197,55709,1,8,0:0:0:0:
180,32,55858,1,2,0:0:0:0:
188,277,56006,6,0,B|162:322|195:355|195:355|239:356,1,120,2|0,0:0|0:0,0:0:0:0:
134,218,56303,2,0,P|111:252|104:291,1,80,8|0,0:0|0:0,0:0:0:0:
47,47,56600,2,0,B|26:109|57:166|57:166|86:122|151:126,1,180.000006866455,2|0,0:0|0:0,0:0:0:0:
145,123,56897,1,8,0:0:0:0:
262,62,57046,1,0,0:0:0:0:
292,53,57120,1,0,0:0:0:0:
320,53,57194,6,0,B|372:72|402:46|402:46|451:102|392:168,1,180.000006866455,4|0,0:0|0:0,0:0:0:0:
443,202,57491,2,0,P|403:197|364:204,1,80,8|0,0:0|0:0,0:0:0:0:
298,347,57788,2,0,P|337:357|376:349,1,80,2|0,0:0|0:0,0:0:0:0:
443,202,58085,1,8,0:0:0:0:
375,349,58234,1,2,0:0:0:0:
194,342,58382,5,0,0:0:0:0:
176,325,58457,1,0,0:0:0:0:
163,304,58531,1,0,0:0:0:0:
154,281,58605,1,0,0:0:0:0:
148,257,58679,6,0,L|135:182,1,40
57,181,58828,2,0,L|51:141,1,40
96,62,58976,2,0,B|142:76|142:76|172:49|231:59,1,120,2|0,0:0|0:0,0:0:0:0:
272,108,59273,2,0,P|237:135|187:129,1,80,8|0,0:0|0:0,0:0:0:0:
339,37,59570,6,0,B|387:45|416:31|416:31|443:87|406:160,1,180.000006866455,4|0,0:0|0:0,0:0:0:0:
467,204,59867,2,0,P|500:152|502:117,1,80,8|2,0:0|0:0,0:0:0:0:
310,198,60164,2,0,P|284:228|274:267,1,80,2|0,0:0|0:0,0:0:0:0:
123,323,60462,2,0,P|77:304|54:259,1,80,8|0,0:0|0:0,0:0:0:0:
136,95,60759,6,0,P|182:114|205:159,1,80,2|0,0:0|0:0,0:0:0:0:
84,313,61056,2,0,P|47:280|41:230,1,80,8|0,0:0|0:0,0:0:0:0:
174,104,61353,6,0,P|211:137|217:187,1,80,2|0,0:0|0:0,0:0:0:0:
51,292,61650,2,0,P|28:248|39:198,1,80,8|0,0:0|0:0,0:0:0:0:
207,125,61947,6,0,B|239:172|206:208|206:208|286:246|243:291,1,180.000006866455,2|0,0:0|0:0,0:0:0:0:
256,317,62244,1,8,0:0:0:0:
382,316,62392,2,0,P|432:305|462:277,1,80,0|2,0:0|0:0,0:0:0:0:
389,123,62689,2,0,P|339:134|309:162,1,80,0|8,0:0|0:0,0:0:0:0:
114,215,62986,1,0,0:0:0:0:
223,206,63135,6,0,P|213:265|177:312,1,120.000004577637,2|0,0:0|0:0,0:0:0:0:
282,282,63432,6,0,P|260:238|223:206,1,100,8|0,0:0|0:0,0:0:0:0:
332,226,63729,6,0,P|315:262|282:284,1,80,2|0,0:0|0:0,0:0:0:0:
397,237,64026,6,0,P|369:227|339:230,1,60.0000022888184,8|0,0:0|0:0,0:0:0:0:
397,238,64323,5,4,0:0:0:0:
282,284,64471,1,0,0:0:0:0:
223,206,64620,1,8,0:0:0:0:
177,312,64768,1,4,0:0:0:0:
84,91,65065,1,2,0:0:0:0:
84,91,65214,1,8,0:0:0:0:
177,312,65511,5,4,0:0:0:0:
397,238,65660,1,0,0:0:0:0:
223,206,65808,1,8,0:0:0:0:
282,284,65957,1,4,0:0:0:0:
429,93,66254,1,2,0:0:0:0:
429,93,66402,1,8,0:0:0:0:
317,32,66551,5,0,0:0:0:0:
223,206,66699,1,4,0:0:0:0:
223,206,66996,6,0,B|179:201|179:201|146:229|98:205,1,120.000004577637,2|0,2:1|0:0,0:0:0:0:
14,135,67293,2,0,B|58:140|58:140|91:112|139:136,1,120.000004577637,2|0,2:1|0:0,0:0:0:0:
304,138,67590,1,8,0:0:0:0:
173,301,67739,1,4,0:0:0:0:
379,317,68036,5,0,0:0:0:0:
379,317,68110,1,0,0:0:0:0:
379,317,68184,1,10,0:0:0:0:
304,138,68333,1,2,0:0:0:0:
173,301,68481,1,0,0:0:0:0:
223,206,68630,1,2,0:0:0:0:
277,340,68778,1,8,0:0:0:0:
384,208,68927,1,2,0:0:0:0:
308,108,69075,5,0,0:0:0:0:
223,206,69224,2,0,L|126:206,1,80,4|8,0:0|0:0,0:0:0:0:
73,267,69521,1,0,0:0:0:0:
233,104,69669,2,0,P|271:115|304:138,1,80,8|0,0:0|0:0,0:0:0:0:
143,300,69966,2,0,P|105:289|73:267,1,80,8|0,0:0|0:0,0:0:0:0:
223,206,70264,5,0,0:0:0:0:
349,40,70412,2,0,L|443:40,1,80,4|8,0:0|0:0,0:0:0:0:
474,134,70709,1,0,0:0:0:0:
396,207,70858,1,0,0:0:0:0:
372,221,70932,1,0,0:0:0:0:
357,244,71006,1,0,0:0:0:0:
349,266,71080,1,0,0:0:0:0:
343,289,71155,1,0,0:0:0:0:
327,306,71229,1,0,0:0:0:0:
306,318,71303,1,0,0:0:0:0:
282,323,71377,1,0,0:0:0:0:
258,318,71452,6,0,P|199:269|112:274,1,160,4|0,0:0|0:0,0:0:0:0:
75,157,71897,2,0,P|74:105|99:66,1,80,8|0,0:0|0:0,0:0:0:0:
234,138,72194,1,0,0:0:0:0:
73,221,72343,6,0,P|55:172|65:127,1,80,8|0,0:0|0:0,0:0:0:0:
216,148,72640,1,0,0:0:0:0:
94,281,72788,6,0,P|60:242|54:196,1,80,8|0,0:0|0:0,0:0:0:0:
204,164,73085,1,0,0:0:0:0:
135,331,73234,6,0,P|89:306|68:264,1,80,8|0,0:0|0:0,0:0:0:0:
300,300,73531,2,0,P|248:292|214:259,1,80,8|0,0:0|0:0,0:0:0:0:
434,333,73828,5,8,0:0:0:0:
392,192,73976,1,0,0:0:0:0:
507,279,74125,1,0,0:0:0:0:
330,312,74273,5,8,0:0:0:0:
296,192,74421,1,0,0:0:0:0:
340,74,74570,1,0,0:0:0:0:
480,192,74719,5,12,0:0:0:0:
204,192,74867,1,8,0:0:0:0:
256,192,74942,12,2,77244,0:0:0:0:
