osu file format v12

[General]
AudioFilename: Taiyou to Tsuki no Cross.mp3
AudioLeadIn: 1500
PreviewTime: 48877
Countdown: 0
SampleSet: Soft
StackLeniency: 0.7
Mode: 0
LetterboxInBreaks: 0
WidescreenStoryboard: 0

[Editor]
DistanceSpacing: 1.1
BeatDivisor: 8
GridSize: 4

[Metadata]
Title:Taiyou to Tsuki no Cross (TV Size)
TitleUnicode:太陽と月のCROSS (TV Size)
Artist:TWO-FORMULA
ArtistUnicode:TWO-FORMULA
Creator:Tsukuyomi
Version:Hard
Source:Ore no Nounai Sentakushi ga, Gakuen Love Comedy wo Zenryoku de Jama Shiteiru
Tags:Chocolat Noucome My Mental Choices are Completely Interfering with my School Romantic Comedy Diomedea Hiroko Kanasugi Takeru Kasukabe baldrace Regou 俺の脳内選択肢が、学園ラブコメを全力で邪魔している
BeatmapID:326388
BeatmapSetID:128908

[Difficulty]
HPDrainRate:5
CircleSize:4
OverallDifficulty:6
ApproachRate:8
SliderMultiplier:1.4
SliderTickRate:2

[Events]
//Background and Video events
0,0,"BG.jpg",0,0
Video,0,"MOVIE.avi"
//Break Periods
//Storyboard Layer 0 (Background)
//Storyboard Layer 1 (Fail)
//Storyboard Layer 2 (Pass)
//Storyboard Layer 3 (Foreground)
//Storyboard Sound Samples
//Background Colour Transformations
3,100,163,162,255

[TimingPoints]
165,297.029702970297,4,2,1,80,1,0
9075,-100,4,1,1,80,0,0
9669,-100,4,2,1,70,0,0
16501,-100,4,1,1,70,0,0
16947,-100,4,2,1,70,0,0
19471,-133.333333333333,4,2,2,45,0,0
27491,-100,4,1,1,50,0,0
28679,-100,4,1,2,50,0,0
28828,-100,4,2,1,50,0,0
37145,-100,4,1,1,50,0,0
38110,-100,4,2,1,50,0,0
44719,-100,4,2,2,50,0,0
45239,-100,4,2,1,50,0,0
46501,-100,4,1,1,50,0,0
47689,-100,4,1,2,50,0,0
48877,-100,4,2,2,50,0,0
49768,-100,4,2,2,5,0,0
50065,-90.9090909090909,4,2,1,80,0,1
58382,-100,4,1,1,80,0,1
58976,-100,4,2,1,80,0,1
63135,-66.6666666666667,4,2,1,80,0,1
63432,-80,4,2,1,80,0,1
63729,-100,4,2,1,80,0,1
64026,-133.333333333333,4,2,1,80,0,1
64174,-100,4,2,1,80,0,1
70858,-100,4,1,1,80,0,1
71452,-100,4,1,2,100,0,0
71526,-100,4,2,1,70,0,0
77244,-100,4,2,2,5,0,0

[Colours]
Combo1 : 255,128,64
Combo2 : 255,0,255
Combo3 : 0,255,255

[HitObjects]
104,272,165,2,0,B|144:292|144:292|180:284|248:296,1,140,4|8,0:0|0:0,0:0:0:0:
315,289,610,1,0,0:0:0:0:
391,277,759,2,0,P|436:232|465:231,2,70,2|0|8,0:0|0:0|0:0,0:0:0:0:
509,198,1204,2,0,P|467:158|443:154,1,70,0|2,0:0|0:0,0:0:0:0:
382,174,1501,6,0,P|350:159|330:131,1,70,0|8,0:0|0:0,0:0:0:0:
197,52,1947,1,2,0:0:0:0:
223,124,2095,1,0,0:0:0:0:
147,109,2244,2,0,P|112:150|111:175,1,70,8|2,0:0|0:0,0:0:0:0:
33,154,2541,6,0,P|46:207|132:237,1,140,2|8,0:0|0:0,0:0:0:0:
119,239,2986,1,2,0:0:0:0:
120,316,3135,2,0,P|169:301|185:275,1,70,0|2,0:0|0:0,0:0:0:0:
241,242,3432,2,0,P|257:284|248:318,1,70,8|2,0:0|0:0,0:0:0:0:
404,334,3877,5,0,0:0:0:0:
438,264,4026,1,8,0:0:0:0:
438,264,4323,2,0,L|511:251,2,70,0|2|8,0:0|0:0|0:0,0:0:0:0:
361,268,4768,1,2,0:0:0:0:
285,252,4917,6,0,P|216:237|139:258,1,140,4|8,0:0|0:0,0:0:0:0:
94,306,5363,2,0,P|110:243|97:144,1,140,2|2,0:0|2:0,0:0:0:0:
82,95,5808,1,8,0:0:0:0:
82,95,5957,1,0,0:0:0:0:
158,88,6105,6,0,P|230:89|297:122,1,140,0|8,0:0|0:0,0:0:0:0:
365,137,6551,1,2,0:0:0:0:
441,127,6699,2,0,P|453:81|484:55,2,70,0|0|8,0:0|0:0|0:0,0:0:0:0:
437,280,7293,5,0,0:0:0:0:
391,342,7442,1,0,0:0:0:0:
319,314,7590,2,0,P|290:267|263:258,1,70,8|2,0:0|0:0,0:0:0:0:
201,263,7887,2,0,P|173:283|160:315,1,70,2|0,0:0|0:0,0:0:0:0:
240,193,8184,2,0,L|240:115,1,70,8|0,0:0|0:0,0:0:0:0:
200,56,8481,6,0,P|246:44|275:55,2,70,2|0|8,0:0|0:0|0:0,0:0:0:0:
130,90,8927,1,0,0:0:0:0:
55,106,9075,2,0,L|44:142,7,35,0|0|0|0|0|0|0|0,0:0|0:0|0:0|0:0|0:0|0:0|0:0|0:0,0:0:0:0:
28,174,9669,6,0,P|72:209|81:234,1,70,4|0,0:0|0:0,0:0:0:0:
114,288,9966,1,8,0:0:0:0:
186,315,10115,2,0,L|171:396,2,70,0|2|0,0:0|0:0|0:0,0:0:0:0:
261,300,10561,1,8,0:0:0:0:
334,277,10709,6,0,L|376:342,2,70,0|2|0,0:0|0:0|0:0,0:0:0:0:
402,240,11155,2,0,P|410:197|401:157,1,70,8|0,0:0|0:0,0:0:0:0:
373,101,11452,1,2,0:0:0:0:
419,39,11600,1,0,0:0:0:0:
373,101,11749,1,8,0:0:0:0:
296,90,11897,1,0,0:0:0:0:
262,159,12046,6,0,P|228:194|197:204,1,70,2|0,0:0|0:0,0:0:0:0:
132,214,12343,1,8,0:0:0:0:
135,290,12491,1,2,0:0:0:0:
132,214,12640,2,0,P|68:200|55:186,2,70,2|0|10,0:0|0:0|0:0,0:0:0:0:
135,290,13085,6,0,P|183:291|210:314,2,70,0|2|0,0:0|0:0|0:0,0:0:0:0:
263,348,13531,2,0,P|299:353|341:323,2,70,8|2|0,0:0|0:0|0:0,0:0:0:0:
289,275,13976,1,0,0:0:0:0:
356,238,14125,2,0,L|430:195,1,70,10|0,0:0|0:0,0:0:0:0:
354,157,14422,5,4,0:0:0:0:
354,157,14570,1,0,0:0:0:0:
354,157,14719,2,0,L|388:73,1,70,10|0,0:0|0:0,0:0:0:0:
312,54,15016,2,0,L|279:129,1,70,0|2,0:0|0:0,0:0:0:0:
224,68,15313,2,0,L|186:158,1,70,8|2,0:0|0:0,0:0:0:0:
135,85,15610,5,0,0:0:0:0:
135,85,15759,2,0,L|102:153,1,70,2|8,0:0|0:0,0:0:0:0:
131,220,16056,2,0,P|190:251|105:326,1,210,4|0,0:0|0:0,0:0:0:0:
68,274,16650,2,0,L|13:276,2,35,0|0|4,0:0|0:0|0:0,0:0:0:0:
55,197,16947,5,0,0:0:0:0:
67,121,17095,1,8,0:0:0:0:
135,84,17244,1,0,0:0:0:0:
211,87,17392,1,8,0:0:0:0:
263,143,17541,1,8,0:0:0:0:
263,143,17838,1,12,0:0:0:0:
256,192,17912,12,4,19174,0:0:0:0:
192,311,19471,6,0,P|140:307|98:278,1,105.000004005432,0|10,0:0|0:0,0:0:0:0:
66,166,20065,1,0,0:0:0:0:
117,139,20214,2,0,P|148:100|154:42,1,105.000004005432,2|0,0:0|0:0,0:0:0:0:
212,39,20660,2,0,L|257:92,1,52.5000020027161,0|0,0:0|0:0,0:0:0:0:
294,47,20957,2,0,L|335:100,1,52.5000020027161,10|0,0:0|0:0,0:0:0:0:
383,93,21254,1,0,0:0:0:0:
430,198,21551,6,0,P|478:160|496:107,2,105.000004005432,2|0|8,0:0|0:0|0:0,0:0:0:0:
316,221,22442,2,0,L|316:293,1,52.5000020027161,0|0,0:0|0:0,0:0:0:0:
265,301,22739,2,0,P|217:263|199:210,2,105.000004005432,2|0|8,0:0|0:0|0:0,0:0:0:0:
370,348,23630,1,0,0:0:0:0:
456,271,23927,6,0,P|468:220|453:163,1,105.000004005432,2|0,0:0|0:0,0:0:0:0:
360,105,24521,2,0,L|370:46,2,52.5000020027161,8|0|2,0:0|0:0|0:0,0:0:0:0:
302,105,24966,1,0,0:0:0:0:
244,111,25115,2,0,P|211:152|140:155,1,105.000004005432,0|2,0:0|0:0,0:0:0:0:
60,106,25709,2,0,P|91:65|142:55,1,105.000004005432,8|2,0:0|0:0,0:0:0:0:
161,161,26303,6,0,L|161:233,1,52.5000020027161,2|0,0:0|0:0,0:0:0:0:
206,249,26600,1,0,0:0:0:0:
253,282,26749,2,0,L|253:348,1,52.5000020027161,0|10,0:0|0:0,0:0:0:0:
137,342,27194,1,0,0:0:0:0:
29,232,27491,5,0,0:0:0:0:
73,168,27640,1,0,0:0:0:0:
30,104,27788,1,4,0:0:0:0:
170,40,28085,1,0,0:0:0:0:
242,65,28234,2,0,L|242:110,5,35,0|0|0|0|0|0,0:0|0:0|0:0|0:0|0:0|0:0,0:0:0:0:
293,125,28679,6,0,P|343:94|375:95,1,70,4|0,0:0|0:0,0:0:0:0:
359,169,28976,2,0,P|381:185|434:189,1,70,8|0,0:0|0:0,0:0:0:0:
447,264,29273,1,2,0:0:0:0:
447,264,29422,1,0,0:0:0:0:
425,337,29570,2,0,P|390:340|361:359,1,70,8|2,0:0|0:0,0:0:0:0:
285,347,29867,6,0,P|221:320|175:253,1,140,0|8,0:0|0:0,0:0:0:0:
104,247,30313,1,0,0:0:0:0:
45,196,30462,2,0,P|28:232|36:275,1,70,2|0,0:0|0:0,0:0:0:0:
117,170,30759,2,0,L|195:118,1,70,8|0,0:0|0:0,0:0:0:0:
199,125,30981,1,0,0:0:0:0:
222,117,31056,6,0,L|289:65,1,70,2|0,0:0|0:0,0:0:0:0:
351,53,31353,1,8,0:0:0:0:
463,158,31650,2,0,L|492:80,2,70,0|0|8,0:0|0:0|0:0,0:0:0:0:
434,229,32095,1,0,0:0:0:0:
356,231,32244,6,0,P|314:191|294:111,1,140,2|8,0:0|0:0,0:0:0:0:
257,46,32689,1,0,0:0:0:0:
218,113,32838,2,0,P|203:181|156:231,1,140,2|8,0:0|0:0,0:0:0:0:
79,231,33283,1,0,0:0:0:0:
113,300,33432,6,0,B|136:320|181:313|181:313|216:322|239:368,1,140,2|8,0:0|0:0,0:0:0:0:
307,372,33877,1,0,0:0:0:0:
382,357,34026,2,0,P|426:331|442:296,1,70,0|0,0:0|0:0,0:0:0:0:
471,247,34323,1,8,0:0:0:0:
471,247,34620,6,0,P|425:209|421:182,1,70,2|0,0:0|0:0,0:0:0:0:
349,178,34917,2,0,L|272:225,1,70,8|0,0:0|0:0,0:0:0:0:
220,249,35214,2,0,P|164:214|135:219,1,70,2|0,0:0|0:0,0:0:0:0:
100,259,35511,1,8,0:0:0:0:
100,259,35660,1,2,0:0:0:0:
37,217,35808,6,0,L|37:133,1,70,0|2,0:0|0:0,0:0:0:0:
113,86,36105,2,0,L|113:156,1,70,8|2,0:0|0:0,0:0:0:0:
62,29,36402,5,8,0:0:0:0:
191,115,36551,1,4,0:0:0:0:
191,115,36848,1,4,0:0:0:0:
135,258,37145,6,0,L|114:302,2,35,0|0|0,0:0|0:0|0:0,0:0:0:0:
209,277,37442,1,0,0:0:0:0:
209,277,37590,1,0,0:0:0:0:
284,264,37739,1,0,0:0:0:0:
347,220,37887,1,0,0:0:0:0:
340,143,38036,1,0,0:0:0:0:
340,143,38184,6,0,P|390:156|422:238,1,140,4|2,0:0|0:0,0:0:0:0:
500,232,38630,2,0,P|484:156|437:96,1,140,4|0,0:0|0:0,0:0:0:0:
380,70,39075,2,0,B|341:52|334:18|334:18|273:67,1,140,2|2,0:0|0:0,0:0:0:0:
219,106,39521,5,0,0:0:0:0:
149,72,39669,2,0,L|81:118,1,70,8|0,0:0|0:0,0:0:0:0:
80,209,39966,2,0,L|139:171,1,70,0|0,1:0|1:0,0:0:0:0:
116,281,40264,2,0,P|66:290|45:281,1,70,8|0,0:0|0:0,0:0:0:0:
116,281,40561,6,0,P|170:298|268:278,1,140,2|8,0:0|0:0,0:0:0:0:
308,337,41006,1,0,0:0:0:0:
383,352,41155,2,0,P|427:317|467:225,1,140,2|8,0:0|0:0,0:0:0:0:
430,94,41749,6,0,P|390:113|371:153,1,70,2|0,0:0|0:0,0:0:0:0:
445,167,42046,1,8,0:0:0:0:
445,167,42194,1,0,0:0:0:0:
303,159,42343,2,0,L|260:100,1,70,2|0,0:0|0:0,0:0:0:0:
212,161,42640,2,0,L|167:92,1,70,8|2,0:0|0:0,0:0:0:0:
35,122,42937,6,0,P|79:155|98:236,1,140,4|8,0:0|0:0,0:0:0:0:
30,271,43382,2,0,P|76:273|170:346,1,140,4|0,0:0|0:0,0:0:0:0:
218,364,43828,1,12,0:0:0:0:
292,346,43976,2,0,B|326:328|361:329|361:329|334:288|345:243,1,140,0|2,0:0|0:0,0:0:0:0:
338,187,44422,6,0,L|398:122,1,70,8|0,0:0|0:0,0:0:0:0:
453,173,44719,2,0,L|473:151,8,17.5,2|0|0|0|0|0|0|0|0,0:0|0:0|0:0|0:0|0:0|0:0|0:0|0:0|0:0,0:0:0:0:
420,322,45313,6,0,L|464:378,2,70,4|0|8,0:0|0:0|0:0,0:0:0:0:
342,324,45759,1,0,0:0:0:0:
265,322,45907,2,0,L|223:384,2,70,2|0|8,0:0|0:0|0:0,0:0:0:0:
200,279,46353,1,0,0:0:0:0:
162,211,46501,6,0,L|117:206,2,35,4|0|0,0:0|0:0|0:0,0:0:0:0:
187,138,46798,1,0,0:0:0:0:
187,138,46947,1,0,0:0:0:0:
237,80,47095,2,0,P|254:46|299:35,1,70,0|0,0:0|0:0,0:0:0:0:
355,58,47392,2,0,P|338:92|293:103,1,70,0|0,0:0|0:0,0:0:0:0:
341,174,47689,5,4,0:0:0:0:
481,164,47838,1,0,0:0:0:0:
338,218,48135,5,0,0:0:0:0:
464,280,48284,1,0,0:0:0:0:
314,256,48580,5,0,0:0:0:0:
392,372,48729,1,0,0:0:0:0:
256,192,48877,12,0,49768,0:0:0:0:
96,64,50065,6,0,P|116:100|104:184,1,115.50000352478,4|0,0:0|0:0,0:0:0:0:
76,200,50363,2,0,P|120:240|124:272,1,77.0000023498536,8|0,0:0|0:0,0:0:0:0:
168,328,50660,1,2,0:0:0:0:
168,328,50808,1,0,0:0:0:0:
252,340,50957,2,0,P|320:328|332:320,1,77.0000023498536,8|0,0:0|0:0,0:0:0:0:
384,264,51254,6,0,L|436:332,1,77.0000023498536,2|0,0:0|0:0,0:0:0:0:
474,252,51551,2,0,L|420:184,1,77.0000023498536,8|0,0:0|0:0,0:0:0:0:
406,51,51848,2,0,P|386:103|327:134,1,115.50000352478,2|0,0:0|0:0,0:0:0:0:
298,112,52145,2,0,P|279:161|249:178,1,77.0000023498536,8|0,0:0|0:0,0:0:0:0:
177,193,52442,6,0,L|103:135,1,77.0000023498536,2|0,0:0|0:0,0:0:0:0:
110,60,52739,1,8,0:0:0:0:
110,60,52887,1,2,0:0:0:0:
190,33,53036,2,0,P|238:27|276:39,1,77.0000023498536,0|0,0:0|0:0,0:0:0:0:
344,64,53333,1,8,0:0:0:0:
410,332,53630,6,0,B|432:281|432:281|412:257|419:201,1,115.50000352478,2|0,0:0|0:0,0:0:0:0:
454,204,53927,2,0,L|448:112,1,77.0000023498536,8|0,0:0|0:0,0:0:0:0:
416,48,54224,2,0,P|378:47|344:63,1,77.0000023498536,2|0,0:0|0:0,0:0:0:0:
344,148,54521,1,8,0:0:0:0:
259,64,54669,1,0,0:0:0:0:
259,64,54818,6,0,P|225:131|241:208,1,154.000004699707,4|8,0:0|0:0,0:0:0:0:
279,280,55264,1,0,0:0:0:0:
199,309,55412,2,0,L|127:266,1,77.0000023498536,2|0,0:0|0:0,0:0:0:0:
48,260,55709,2,0,P|67:213|109:191,1,77.0000023498536,8|0,0:0|0:0,0:0:0:0:
104,114,56006,6,0,P|44:125|32:137,1,77.0000023498536,2|0,0:0|0:0,0:0:0:0:
164,172,56303,2,0,L|237:140,1,77.0000023498536,8|0,0:0|0:0,0:0:0:0:
261,141,56526,1,0,0:0:0:0:
287,141,56600,2,0,L|370:104,1,77.0000023498536,2|0,0:0|0:0,0:0:0:0:
379,27,56897,1,8,0:0:0:0:
481,100,57046,1,0,0:0:0:0:
481,100,57194,6,0,B|479:164|447:187|447:187|421:253,1,154.000004699707,4|8,0:0|0:0,0:0:0:0:
373,307,57640,1,0,0:0:0:0:
291,330,57788,1,0,0:0:0:0:
291,330,57937,1,0,0:0:0:0:
207,321,58085,1,8,0:0:0:0:
207,321,58234,1,0,0:0:0:0:
148,271,58382,6,0,L|183:231,3,35,0|0|0|0,0:0|0:0|0:0|0:0,0:0:0:0:
166,205,58679,2,0,P|186:168|179:131,1,70,0|0,0:0|0:0,0:0:0:0:
107,156,58976,2,0,L|80:68,1,70,4|0,0:0|0:0,0:0:0:0:
137,31,59273,1,8,0:0:0:0:
18,126,59422,1,0,0:0:0:0:
18,126,59570,6,0,P|37:189|24:254,1,105,4|0,0:0|0:0,0:0:0:0:
28,265,59867,2,0,P|67:287|83:317,1,70,8|0,0:0|0:0,0:0:0:0:
156,316,60164,2,0,L|224:280,1,70,2|0,0:0|0:0,0:0:0:0:
244,356,60462,2,0,L|321:308,1,70,8|0,0:0|0:0,0:0:0:0:
359,265,60759,6,0,P|381:302|377:338,1,70,2|0,0:0|0:0,0:0:0:0:
456,340,61056,1,8,0:0:0:0:
456,340,61204,1,0,0:0:0:0:
464,263,61353,2,0,L|471:180,1,70,2|0,0:0|0:0,0:0:0:0:
476,116,61650,1,8,0:0:0:0:
476,116,61798,1,0,0:0:0:0:
390,188,61947,6,0,L|402:41,1,140,2|8,0:0|0:0,0:0:0:0:
324,52,62392,1,2,0:0:0:0:
246,52,62541,2,0,L|237:129,1,70,0|0,0:0|0:0,0:0:0:0:
265,193,62838,2,0,P|217:197|191:182,1,70,8|2,0:0|0:0,0:0:0:0:
103,156,63135,6,0,L|-2:196,1,105.000004005432,2|0,0:0|0:0,0:0:0:0:
133,232,63432,6,0,L|61:292,1,87.5,8|0,0:0|0:0,0:0:0:0:
201,273,63729,6,0,L|165:335,1,70,2|0,0:0|0:0,0:0:0:0:
280,284,64026,6,0,L|277:348,1,52.5000020027161,8|0,0:0|0:0,0:0:0:0:
354,329,64323,5,4,0:0:0:0:
386,259,64471,1,0,0:0:0:0:
430,321,64620,1,8,0:0:0:0:
462,251,64768,1,4,0:0:0:0:
420,102,65065,1,2,0:0:0:0:
420,102,65214,1,8,0:0:0:0:
270,66,65511,5,4,0:0:0:0:
233,133,65660,1,0,0:0:0:0:
309,131,65808,1,8,0:0:0:0:
272,198,65957,1,4,0:0:0:0:
275,351,66254,1,2,0:0:0:0:
275,351,66402,1,8,0:0:0:0:
121,346,66699,6,0,B|84:320|97:273|97:273|90:195,1,140,4|8,0:0|0:0,0:0:0:0:
157,174,67145,1,0,0:0:0:0:
228,145,67293,2,0,B|265:171|252:218|252:218|259:296,1,140,0|8,0:0|0:0,0:0:0:0:
275,351,67739,1,4,0:0:0:0:
121,347,68036,5,0,0:0:0:0:
72,287,68184,1,10,0:0:0:0:
67,209,68333,1,0,0:0:0:0:
78,133,68481,2,0,L|15:100,2,70,0|2|8,0:0|0:0|0:0,0:0:0:0:
130,76,68927,1,2,0:0:0:0:
197,40,69075,6,0,L|223:135,1,70,0|4,0:0|0:0,0:0:0:0:
367,80,69521,2,0,L|343:165,1,70,0|8,0:0|0:0,0:0:0:0:
327,221,69818,1,0,0:0:0:0:
403,213,69966,1,8,0:0:0:0:
479,201,70115,1,0,0:0:0:0:
471,277,70264,6,0,L|447:362,1,70,0|4,0:0|0:0,0:0:0:0:
298,359,70709,1,0,0:0:0:0:
221,346,70858,2,0,L|167:333,3,35,0|0|0|0,0:0|0:0|0:0|0:0,0:0:0:0:
148,329,71155,2,0,L|113:296,3,35,0|0|0|0,0:0|0:0|0:0|0:0,0:0:0:0:
95,277,71452,6,0,L|83:187,1,70,4|0,0:0|0:0,0:0:0:0:
85,207,71749,1,0,0:0:0:0:
175,216,71897,2,0,L|164:136,1,70,8|0,0:0|0:0,0:0:0:0:
165,146,72194,1,0,0:0:0:0:
251,166,72343,2,0,L|242:84,1,70,8|0,0:0|0:0,0:0:0:0:
243,96,72640,1,0,0:0:0:0:
330,126,72788,2,0,L|322:47,1,70,8|0,0:0|0:0,0:0:0:0:
322,56,73085,1,0,0:0:0:0:
408,78,73234,6,0,L|472:44,1,70,8|0,0:0|0:0,0:0:0:0:
423,158,73531,2,0,L|495:120,1,70,8|0,0:0|0:0,0:0:0:0:
439,240,73828,6,0,L|379:276,2,70,8|0|0,0:0|0:0|0:0,0:0:0:0:
460,322,74273,2,0,L|400:358,2,70,8|0|0,0:0|0:0|0:0,0:0:0:0:
319,333,74719,1,12,0:0:0:0:
319,333,74867,1,8,0:0:0:0:
256,192,74942,12,2,77244,0:0:0:0:
