osu file format v12

[General]
AudioFilename: Taiyou to Tsuki no Cross.mp3
AudioLeadIn: 1500
PreviewTime: 48877
Countdown: 0
SampleSet: Soft
StackLeniency: 0.7
Mode: 0
LetterboxInBreaks: 0
WidescreenStoryboard: 0

[Editor]
DistanceSpacing: 1
BeatDivisor: 2
GridSize: 4

[Metadata]
Title:Taiyou to Tsuki no Cross (TV Size)
TitleUnicode:太陽と月のCROSS (TV Size)
Artist:TWO-FORMULA
ArtistUnicode:TWO-FORMULA
Creator:Tsukuyomi
Version:Easy
Source:Ore no Nounai Sentakushi ga, Gakuen Love Comedy wo Zenryoku de Jama Shiteiru
Tags:Chocolat Noucome My Mental Choices are Completely Interfering with my School Romantic Comedy Diomedea Hiroko Kanasugi Takeru Kasukabe baldrace Regou 俺の脳内選択肢が、学園ラブコメを全力で邪魔している
BeatmapID:326130
BeatmapSetID:128908

[Difficulty]
HPDrainRate:2
CircleSize:3
OverallDifficulty:2
ApproachRate:3
SliderMultiplier:0.8
SliderTickRate:2

[Events]
//Background and Video events
0,0,"BG.jpg",0,0
Video,0,"MOVIE.avi"
//Break Periods
//Storyboard Layer 0 (Background)
//Storyboard Layer 1 (Fail)
//Storyboard Layer 2 (Pass)
//Storyboard Layer 3 (Foreground)
//Storyboard Sound Samples
//Background Colour Transformations
3,100,163,162,255

[TimingPoints]
165,297.029702970297,4,2,1,80,1,0
9075,-100,4,1,1,80,0,0
9669,-100,4,2,1,80,0,0
16947,-100,4,2,1,70,0,0
19471,-111.111111111111,4,2,2,45,0,0
27491,-100,4,1,1,50,0,0
28679,-100,4,1,2,50,0,0
28828,-100,4,2,1,50,0,0
37590,-100,4,2,1,5,0,0
38036,-100,4,2,1,50,0,0
44719,-100,4,2,2,50,0,0
45239,-100,4,2,1,50,0,0
46501,-100,4,1,1,50,0,0
47689,-100,4,1,2,50,0,0
48877,-100,4,2,2,50,0,0
49768,-100,4,2,2,5,0,0
50065,-100,4,2,1,80,0,1
58382,-100,4,1,1,80,0,1
58976,-100,4,2,1,80,0,1
70858,-100,4,1,1,80,0,1
71452,-100,4,1,2,100,0,0
71526,-100,4,2,1,70,0,0
77244,-100,4,2,2,5,0,0

[Colours]
Combo1 : 255,128,64
Combo2 : 255,0,255
Combo3 : 0,255,255

[HitObjects]
205,302,165,2,0,B|177:273|132:271|132:271|117:231|54:193,2,160,4|0|2,0:0|0:0|0:0,0:0:0:0:
364,319,1947,1,0,0:0:0:0:
438,288,2244,1,8,0:0:0:0:
482,221,2541,2,0,P|406:169|322:177,1,160,2|0,0:0|0:0,0:0:0:0:
187,203,3729,2,0,P|110:193|59:112,1,160,2|0,0:0|0:0,0:0:0:0:
95,287,4917,6,0,P|168:300|264:262,1,160,4|0,0:0|0:0,0:0:0:0:
177,176,5957,2,0,P|233:153|307:171,1,120,2|8,0:0|0:0,0:0:0:0:
372,160,6699,2,0,L|468:124,1,80,0|0,0:0|1:0,0:0:0:0:
256,192,7293,12,0,9075,0:0:0:0:
432,210,9669,6,0,P|481:148|489:70,2,160,4|2|2,0:0|0:0|0:0,0:0:0:0:
331,333,11452,1,0,0:0:0:0:
181,275,12046,2,0,P|130:251|45:253,2,120,2|2|10,0:0|0:0|0:0,0:0:0:0:
252,311,13234,6,0,P|303:335|388:333,2,120,2|2|10,0:0|0:0|0:0,0:0:0:0:
247,231,14422,2,0,P|275:158|266:71,1,160,2|2,0:0|0:0,0:0:0:0:
118,134,15610,2,0,P|64:147|12:198,2,120,2|0|8,0:0|0:0|0:0,0:0:0:0:
256,192,16798,12,4,19174,0:0:0:0:
209,148,19768,6,0,P|165:92|99:67,1,143.999995605469,10|0,0:0|0:0,0:0:0:0:
79,212,20957,1,10,0:0:0:0:
192,300,21551,2,0,P|262:311|353:288,3,143.999995605469,2|8|2|8,0:0|0:0|0:0|0:0,0:0:0:0:
473,267,23927,6,0,P|454:198|393:161,1,143.999995605469,2|8,0:0|0:0,0:0:0:0:
256,123,25115,1,2,0:0:0:0:
256,266,25709,1,8,0:0:0:0:
133,342,26303,6,0,B|104:298|114:249|114:249|93:179,1,143.999995605469,2|10,0:0|0:0,0:0:0:0:
143,50,27491,2,0,P|204:80|220:118,1,80,0|4,0:0|0:0,0:0:0:0:
266,143,28085,2,0,P|351:147|376:61,1,160,0|4,0:0|0:0,0:0:0:0:
460,98,28976,6,0,B|456:154|483:174|483:174|474:241|416:267,1,200,8|2,0:0|0:0,0:0:0:0:
325,346,30165,2,0,P|258:305|175:318,1,160,8|8,0:0|0:0,0:0:0:0:
105,287,31056,2,0,B|90:236|57:230|57:230|37:133,2,160,2|0|2,0:0|0:0|0:0,0:0:0:0:
255,341,32838,5,2,0:0:0:0:
407,287,33432,2,0,B|422:236|455:230|455:230|475:133,1,160,2|0,0:0|0:0,0:0:0:0:
429,82,34323,1,8,0:0:0:0:
357,46,34620,2,0,P|278:33|199:67,1,160,2|0,0:0|0:0,0:0:0:0:
256,192,35660,12,0,37590,0:0:0:0:
69,303,38184,6,0,L|202:303,1,120,4|4,0:0|0:0,0:0:0:0:
310,298,39075,2,0,P|385:265|433:181,1,160,2|8,0:0|0:0,0:0:0:0:
454,44,40264,5,8,0:0:0:0:
376,64,40561,2,0,P|300:84|216:62,1,160,2|2,0:0|0:0,0:0:0:0:
64,93,41749,2,0,B|80:171|80:171|127:189|133:237,1,160,2|2,0:0|0:0,0:0:0:0:
270,306,42937,6,0,P|228:358|165:381,1,120,4|4,0:0|0:0,0:0:0:0:
198,260,43828,2,0,P|251:223|338:251,1,160,12|8,0:0|0:0,0:0:0:0:
415,262,44719,2,0,L|455:171,1,80,2|8,0:0|0:0,0:0:0:0:
474,113,45313,5,4,0:0:0:0:
333,37,45907,1,2,0:0:0:0:
178,79,46501,2,0,P|197:134|290:186,1,160,4|0,0:0|0:0,0:0:0:0:
424,255,47689,6,0,P|446:185|430:129,2,120,4|0|0,0:0|0:0|0:0,0:0:0:0:
358,300,48877,2,0,B|270:327|270:327|228:267|148:242,1,240,2|0,0:0|0:0,0:0:0:0:
77,212,50065,5,4,0:0:0:0:
147,67,50660,1,2,0:0:0:0:
305,45,51254,1,2,0:0:0:0:
378,77,51551,2,0,P|430:136|428:237,1,160,8|8,0:0|0:0,0:0:0:0:
446,293,52442,6,0,B|399:295|377:266|377:266|269:311,1,160,2|0,0:0|0:0,0:0:0:0:
141,317,53630,2,0,P|86:265|90:167,1,160,10|2,0:0|0:0,0:0:0:0:
177,56,54818,6,0,P|232:108|228:206,1,160,4|2,0:0|0:0,0:0:0:0:
232,268,55709,1,8,0:0:0:0:
311,263,56006,2,0,B|348:242|388:246|388:246|408:205|459:169,2,160,2|2|4,0:0|0:0|0:0,0:0:0:0:
154,294,57788,6,0,L|119:206,1,80,0|8,0:0|0:0,0:0:0:0:
90,147,58382,2,0,B|147:114|168:63|168:63|217:61,1,160,0|4,0:0|0:0,0:0:0:0:
291,60,59273,1,8,0:0:0:0:
366,85,59570,6,0,P|421:142|407:228,1,160,4|2,0:0|0:0,0:0:0:0:
255,189,60759,2,0,P|177:185|111:245,1,160,2|2,0:0|0:0,0:0:0:0:
114,314,61650,1,8,0:0:0:0:
192,330,61947,6,0,B|234:329|267:357|267:357|315:364|359:311,1,160,2|0,0:0|0:0,0:0:0:0:
433,204,63135,1,2,0:0:0:0:
359,61,63729,1,2,0:0:0:0:
202,96,64323,6,0,B|156:111|123:92|123:92|74:109,2,120,4|4|8,0:0|0:0|0:0,0:0:0:0:
258,152,65511,2,0,B|294:139|294:139|327:158|373:143,2,120,4|4|8,0:0|0:0|0:0,0:0:0:0:
256,192,66699,12,0,68481,0:0:0:0:
421,165,69075,6,0,B|375:221|375:221|380:234|380:234|317:310,1,160,2|8,0:0|0:0,0:0:0:0:
173,305,70264,2,0,B|126:248|126:248|131:235|131:235|85:179,1,160,2|0,0:0|0:0,0:0:0:0:
198,66,71452,6,0,P|249:42|334:44,2,120,4|8|8,0:0|0:0|0:0,0:0:0:0:
107,145,72788,2,0,P|154:181|221:175,1,120,8|8,0:0|0:0,0:0:0:0:
292,165,73531,1,8,0:0:0:0:
371,164,73828,2,0,P|433:190|456:253,2,120,8|8|12,0:0|0:0|0:0,0:0:0:0:
256,192,74867,12,2,77244,0:0:0:0:
