osu file format v14

[General]
AudioFilename: audio.mp3
AudioLeadIn: 0
PreviewTime: 75495
Countdown: 0
SampleSet: Normal
StackLeniency: 0.7
Mode: 0
LetterboxInBreaks: 1
WidescreenStoryboard: 1

[Editor]
Bookmarks: 29341,38572,57033,84725,93956
DistanceSpacing: 1.7
BeatDivisor: 6
GridSize: 4
TimelineZoom: 2.3

[Metadata]
Title:SIGNAL (Music Video Ver.)
TitleUnicode:SIGNAL (Music Video Ver.)
Artist:TWICE
ArtistUnicode:TWICE
Creator:H i k a r i
Version:I MUST LET YOU KNOW
Source:
Tags:
BeatmapID:1301771
BeatmapSetID:617355

[Difficulty]
HPDrainRate:8
CircleSize:4.5
OverallDifficulty:7
ApproachRate:9.5
SliderMultiplier:2.6
SliderTickRate:2

[Events]
//Background and Video events
0,0,"C_AGRnLVwAAyfmq.jpg",0,0
//Break Periods
2,18002,18720
2,36464,37181
2,57233,65739
2,103387,111893
//Storyboard Layer 0 (Background)
//Storyboard Layer 1 (Fail)
//Storyboard Layer 2 (Pass)
//Storyboard Layer 3 (Foreground)
//Storyboard Sound Samples

[TimingPoints]
1649,576.923076923077,4,1,0,60,1,0
1649,-133.333333333333,4,1,0,60,0,0
10879,-133.333333333333,4,1,0,30,0,0
12033,-133.333333333333,4,1,0,40,0,0
13187,-133.333333333333,4,1,0,50,0,0
17802,-133.333333333333,4,1,0,60,0,0
19245,-50,4,1,0,60,0,0
20110,-100,4,1,0,60,0,0
28475,-200,4,1,0,60,0,0
28548,-200,4,1,0,5,0,0
29341,-100,4,1,0,60,0,0
37706,-50,4,1,0,60,0,0
38572,-100,4,1,0,30,0,0
57033,-100,4,1,0,40,0,0
74341,-100,4,1,0,50,0,0
74918,-100,4,1,0,60,0,0
75495,-100,4,1,0,80,0,1
77802,-50,4,1,0,80,0,1
80110,-100,4,1,0,80,0,1
87033,-50,4,1,0,80,0,1
87322,-200,4,1,0,80,0,1
87610,-50,4,1,0,80,0,1
87899,-200,4,1,0,80,0,1
88187,-50,4,1,0,80,0,1
88475,-200,4,1,0,80,0,1
88764,-50,4,1,0,80,0,1
89052,-200,4,1,0,80,0,1
89341,-100,4,1,0,80,0,1
93956,-100,4,1,0,60,0,0
102225,-100,4,2,0,5,0,0
102322,-200,4,2,0,60,0,0
112418,-133.333333333333,4,2,0,60,0,0

[Colours]
Combo1 : 255,70,163
Combo2 : 255,128,192
Combo3 : 0,64,128
Combo4 : 255,128,64

[HitObjects]
148,0,1648,6,0,L|160:156,1,130
148,224,2081,2,0,P|220:184|268:192,1,97.50000371933
296,224,2514,1,0,0:0:0:0:
144,304,2802,2,0,P|73:261|56:216,1,97.50000371933
80,172,3235,1,0,0:0:0:0:
164,81,3379,2,0,L|156:145,1,48.750001859665
124,16,3668,6,0,L|260:28,1,97.50000371933
284,88,4389,1,0,0:0:0:0:
228,140,4822,1,0,0:0:0:0:
272,288,6264,6,0,L|396:280,1,97.50000371933
440,256,6697,2,0,P|412:308|416:388,1,97.50000371933
407,345,7129,2,0,L|401:296,1,48.750001859665
376,208,7418,1,0,0:0:0:0:
384,192,8283,5,0,0:0:0:0:
392,176,8572,2,0,L|248:180,1,97.50000371933
200,280,9004,2,0,L|297:277,1,97.50000371933
116,236,9437,2,0,B|100:276|100:276|120:356,1,97.50000371933
204,192,9870,1,0,0:0:0:0:
120,156,10014,2,0,L|36:164,1,48.750001859665
12,116,10302,2,0,B|28:76|28:76|8:-4,1,97.50000371933
112,56,10735,1,0,0:0:0:0:
196,96,10879,6,0,P|260:104|320:64,1,97.50000371933
396,40,11312,2,0,P|368:108|380:172,1,97.50000371933
428,188,11745,2,0,L|496:200,1,48.750001859665
456,296,12033,6,0,L|328:304,1,97.50000371933
192,352,12466,2,0,B|240:356|240:356|304:312,1,97.50000371933
224,204,12899,2,0,L|216:292,1,48.750001859665
107,333,13187,6,0,L|119:197,1,97.50000371933
100,208,13620,2,0,L|88:344,1,97.50000371933
136,132,14052,2,0,L|60:120,1,48.750001859665
8,100,14341,2,0,P|48:52|124:52,1,97.50000371933
185,121,14774,2,0,L|69:125,1,97.50000371933
224,48,15206,2,0,L|296:44,1,48.750001859665
368,20,15495,6,0,B|352:68|352:68|368:156,1,97.50000371933
288,244,15927,2,0,B|304:196|304:196|295:149,1,97.50000371933
376,184,16360,2,0,L|440:188,1,48.750001859665
332,308,16649,2,0,L|204:296,1,97.50000371933
80,356,17081,2,0,P|140:364|192:324,1,97.50000371933
144,232,17514,2,0,L|128:308,1,48.750001859665
168,160,17802,5,0,0:0:0:0:
72,52,19245,5,2,2:1:0:0:
286,65,19389,6,0,B|228:63|228:63|190:89|190:89|164:36|164:36|128:55|128:55|68:51,2,260,2|8|4,1:3|1:3|1:3,1:0:0:0:
351,143,20110,6,0,B|363:183|363:183|343:327,1,130,0|8,0:0|0:2,0:0:0:0:
308,344,20543,2,0,L|384:352,1,65
244,260,20831,1,0,0:0:0:0:
416,278,20975,2,0,L|340:270,1,65,8|0,0:2|0:0,0:0:0:0:
184,204,21264,6,0,P|164:268|192:336,1,130,0|8,0:0|0:2,0:0:0:0:
183,325,21697,6,0,P|203:261|175:193,1,130,0|8,0:0|0:2,0:0:0:0:
116,144,22129,6,0,L|44:152,1,65,8|0,0:2|0:0,0:0:0:0:
0,92,22418,5,0,0:0:0:0:
68,240,22706,1,8,0:2:0:0:
172,80,22995,1,0,0:0:0:0:
256,88,23139,1,8,0:2:0:0:
336,96,23283,1,8,0:2:0:0:
420,32,23572,6,0,P|404:104|416:168,1,130,0|8,0:0|0:2,0:0:0:0:
412,158,24004,6,0,P|428:86|416:22,1,130,0|8,0:0|0:0,0:0:0:0:
328,208,24437,6,0,L|344:284,1,65,8|0,0:0|0:0,0:0:0:0:
316,348,24725,5,2,0:2:0:0:
260,288,25014,1,8,0:2:0:0:
260,288,25158,2,0,B|204:284|204:284|172:304|172:304|92:296,1,130,2|0,0:0|0:0,0:0:0:0:
100,216,25591,2,0,L|172:232,1,65,8|0,0:2|0:0,0:0:0:0:
60,288,25879,6,0,L|48:144,1,130,2|8,0:2|0:2,0:0:0:0:
28,80,26312,2,0,B|104:56|80:124|192:88,1,130,0|8,0:0|0:2,0:0:0:0:
224,40,26745,2,0,L|300:48,1,65,8|0,0:2|0:0,0:0:0:0:
360,16,27033,5,0,0:0:0:0:
324,196,27322,1,8,0:2:0:0:
456,168,27610,1,0,0:0:0:0:
380,128,27754,1,8,0:2:0:0:
324,196,27899,1,8,0:2:0:0:
376,368,28187,6,0,L|388:264,1,97.5,0|0,0:0|2:0,0:0:0:0:
387,271,28475,6,2,P|327:247|379:307,1,195,0|0,0:0|0:0,0:0:0:0:
236,328,29629,6,0,P|204:340|160:332,1,65,8|0,0:0|0:0,0:0:0:0:
104,288,29918,1,0,0:0:0:0:
188,192,30062,2,0,L|180:264,1,65,0|8,0:0|0:0,0:0:0:0:
132,128,30350,1,0,0:0:0:0:
224,108,30495,6,0,P|296:120|368:92,1,130,2|8,0:0|0:0,0:0:0:0:
416,60,30927,2,0,P|384:116|392:216,1,130,0|8,0:0|0:0,0:0:0:0:
456,288,31360,2,0,L|452:192,1,65
460,144,31649,5,0,0:0:0:0:
380,332,31937,2,0,B|348:345|348:345|292:336,1,65,8|0,0:0|0:0,0:0:0:0:
328,140,32225,2,0,B|344:188|344:188|336:272,1,130,0|8,0:0|0:0,0:0:0:0:
172,292,32658,1,0,0:0:0:0:
172,292,32802,6,0,L|256:296,1,65,2|0,0:0|0:0,0:0:0:0:
100,336,33091,1,8,0:0:0:0:
132,220,33235,2,0,L|292:228,1,130,0|8,0:0|0:0,0:0:0:0:
261,226,33668,2,0,L|249:142,1,65
232,76,33956,5,0,0:0:0:0:
336,56,34245,6,0,L|436:60,1,65,8|0,0:0|0:0,0:0:0:0:
476,164,34533,2,0,L|376:160,1,65
324,40,34822,2,0,L|424:44,1,65,8|0,0:0|0:0,0:0:0:0:
488,180,35110,6,0,L|388:176,1,65,2|0,0:0|0:0,0:0:0:0:
320,152,35399,1,8,0:0:0:0:
364,232,35543,2,0,P|376:312|356:364,2,130,0|8|4,0:0|1:3|1:3,0:0:0:0:
296,292,36264,5,0,0:0:0:0:
180,32,37706,6,2,B|112:130|186:158|100:284,1,260,0|0,0:0|0:0,0:0:0:0:
220,253,38139,6,2,B|102:172|162:119|64:52,1,260,0|0,0:0|0:0,0:0:0:0:
40,140,38572,5,2,0:0:0:0:
232,152,38860,1,8,0:0:0:0:
372,356,39149,1,0,0:0:0:0:
312,284,39341,1,0,0:0:0:0:
332,216,39437,1,8,0:0:0:0:
460,40,39725,6,0,L|444:152,1,86.6666666666667,2|0,0:0|0:0,0:0:0:0:
248,60,40014,2,0,B|292:56|292:56|332:76|332:76|396:72,2,130,8|0|8,0:0|0:0|0:0,0:0:0:0:
120,112,40783,1,0,0:0:0:0:
120,112,40879,6,0,P|104:56|116:20,1,86.6666666666667,2|0,0:0|0:0,0:0:0:0:
144,116,41168,6,0,P|103:157|66:165,1,86.6666666666667,8|0,0:0|0:0,0:0:0:0:
136,92,41456,6,0,P|192:106|217:134,1,86.6666666666667,2|0,0:0|0:0,0:0:0:0:
268,188,41745,2,0,L|364:184,1,86.6666666666667,8|0,0:0|0:0,0:0:0:0:
416,132,42033,5,0,0:0:0:0:
316,260,42322,1,8,0:0:0:0:
308,108,42514,1,0,0:0:0:0:
308,108,42610,1,0,0:0:0:0:
420,24,42802,1,0,0:0:0:0:
420,24,42898,2,0,L|412:112,1,86.6666666666667,8|0,0:0|0:0,0:0:0:0:
416,132,43187,6,0,P|456:136|424:120,1,86.6666666666667,2|0,0:0|0:0,0:0:0:0:
416,132,43475,6,0,P|444:160|429:127,1,86.6666666666667,8|0,0:0|0:0,0:0:0:0:
416,132,43764,6,0,P|419:172|429:137,1,86.6666666666667,2|0,0:0|0:0,0:0:0:0:
416,132,44052,6,0,P|392:164|422:144,1,86.6666666666667,8|0,0:0|0:0,0:0:0:0:
456,260,44341,6,0,L|356:264,1,86.6666666666667
348,264,44629,1,8,0:0:0:0:
324,344,44822,1,0,0:0:0:0:
324,344,44918,2,0,P|384:340|420:300,1,86.6666666666667
372,188,45206,2,0,P|312:192|276:232,1,86.6666666666667,8|0,0:0|0:0,0:0:0:0:
208,244,45495,6,0,L|216:136,1,86.6666666666667,2|0,0:0|0:0,0:0:0:0:
108,48,45783,2,0,L|116:156,1,86.6666666666667,10|0,0:0|0:0,0:0:0:0:
216,256,46072,2,0,L|224:148,1,86.6666666666667,2|0,0:0|0:0,0:0:0:0:
116,36,46360,2,0,L|124:144,1,86.6666666666667,8|0,0:0|0:0,0:0:0:0:
132,216,46649,2,0,P|84:200|48:204,1,86.6666666666667
32,292,46937,6,0,L|84:284,2,43.3333333333333,10|0|0,0:0|0:0|0:0,0:0:0:0:
228,340,47225,2,0,B|184:348|184:348|136:336,1,86.6666666666667,2|0,0:0|0:0,0:0:0:0:
296,288,47514,2,0,B|340:280|340:280|388:292,1,86.6666666666667,8|0,0:0|0:0,0:0:0:0:
436,352,47802,5,2,0:0:0:0:
400,224,48091,2,0,L|392:132,1,86.6666666666667,8|0,0:0|0:0,0:0:0:0:
320,44,48379,2,0,B|296:108|296:108|320:168,1,130,0|8,0:0|0:0,0:0:0:0:
228,72,48860,1,0,0:0:0:0:
228,72,48956,2,0,L|132:68,1,86.6666666666667,2|0,0:0|0:0,0:0:0:0:
152,176,49245,2,0,L|248:180,1,86.6666666666667,8|0,0:0|0:0,0:0:0:0:
72,136,49533,2,0,P|60:176|84:236,1,86.6666666666667
152,352,49822,2,0,P|164:312|140:252,1,86.6666666666667,8|0,0:0|0:0,0:0:0:0:
144,280,50110,6,0,L|244:284,1,86.6666666666667,2|0,0:0|0:0,0:0:0:0:
320,236,50399,2,0,P|304:296|312:348,1,86.6666666666667,8|0,0:0|0:0,0:0:0:0:
392,184,50687,2,0,P|348:140|299:121,1,86.6666666666667,2|0,0:0|0:0,0:0:0:0:
400,272,50975,2,0,P|459:255|500:222,1,86.6666666666667,8|0,0:0|0:0,0:0:0:0:
484,152,51264,6,0,L|488:60,1,86.6666666666667
420,16,51552,2,0,B|388:20|388:20|364:36|364:36|324:40,1,86.6666666666667,8|0,0:0|0:0,0:0:0:0:
180,60,51841,2,0,B|216:80|216:80|300:68,1,86.6666666666667
184,148,52129,2,0,L|88:152,1,86.6666666666667,8|0,0:0|0:0,0:0:0:0:
72,128,52418,6,0,L|96:272,1,130,0|8,0:0|0:0,0:0:0:0:
252,260,52899,1,0,0:0:0:0:
252,260,52995,2,0,L|272:104,1,130,0|8,0:0|0:0,0:0:0:0:
232,48,53475,1,0,0:0:0:0:
232,48,53572,2,0,P|288:40|340:68,1,86.6666666666667
384,120,53860,2,0,P|425:130|467:121,1,86.6666666666667,8|0,0:0|0:0,0:0:0:0:
456,136,54149,2,0,L|464:240,1,86.6666666666667
384,328,54437,2,0,L|376:200,1,86.6666666666667,8|0,0:0|0:0,0:0:0:0:
376,220,54725,5,2,0:0:0:0:
304,328,55014,2,0,P|252:348|212:340,1,86.6666666666667,8|0,0:0|0:0,0:0:0:0:
128,244,55302,2,0,B|192:224|192:288|272:256,1,130,0|8,0:0|0:0,0:0:0:0:
44,284,55783,1,0,0:0:0:0:
44,284,55879,2,0,L|40:180,1,86.6666666666667
116,64,56168,2,0,L|120:168,1,86.6666666666667,8|0,0:0|0:0,0:0:0:0:
127,243,56456,6,0,L|203:247,1,43.3333333333333
251,259,56649,1,0,0:0:0:0:
136,256,56745,6,0,L|212:260,1,43.3333333333333,8|0,0:0|0:0,0:0:0:0:
260,272,56938,1,0,0:0:0:0:
228,184,57033,5,4,1:0:0:0:
128,84,66264,5,0,0:0:0:0:
100,188,66841,1,0,0:0:0:0:
212,156,67418,1,0,0:0:0:0:
128,84,67995,1,0,0:0:0:0:
100,188,68572,6,0,B|88:240|88:240|100:264|100:264|84:360,1,130
220,281,69149,2,0,B|211:231|211:231|223:207|223:207|211:155,1,130
240,80,69725,6,0,B|308:96|308:96|416:80,1,130
416,32,70302,2,0,B|400:100|400:100|408:159,1,130
480,200,70783,1,0,0:0:0:0:
480,200,70879,1,0,0:0:0:0:
436,296,71168,1,0,0:0:0:0:
320,168,71456,1,0,0:0:0:0:
328,272,71745,1,0,0:0:0:0:
216,228,72033,6,0,L|100:232,1,86.6666666666667
112,232,72322,1,0,0:0:0:0:
24,168,72514,2,0,P|48:244|44:308,1,130
136,144,72899,2,0,P|136:104|152:60,1,86.6666666666667
208,16,73187,5,0,0:0:0:0:
240,20,73475,1,0,0:0:0:0:
328,120,73764,1,0,0:0:0:0:
296,116,74052,1,0,0:0:0:0:
280,300,74341,5,0,0:0:0:0:
231,310,74437,1,0,0:0:0:0:
194,276,74533,1,0,0:0:0:0:
200,226,74629,1,0,0:0:0:0:
244,203,74725,1,0,0:0:0:0:
289,225,74821,1,0,0:0:0:0:
308,324,74918,5,0,0:0:0:0:
228,340,75014,1,0,0:0:0:0:
168,285,75110,1,0,0:0:0:0:
178,205,75206,1,0,0:0:0:0:
250,166,75302,1,0,0:0:0:0:
322,202,75398,1,0,0:0:0:0:
248,256,75495,5,4,0:0:0:0:
140,100,75687,1,0,0:0:0:0:
140,100,75783,1,8,0:0:0:0:
240,20,75975,2,0,B|320:8|292:64|392:52,1,130
424,112,76360,2,0,L|516:108,1,86.6666666666667,8|0,0:0|0:0,0:0:0:0:
464,192,76649,6,0,B|444:232|444:232|452:296,1,86.6666666666667
456,296,76937,1,8,0:0:0:0:
380,340,77129,2,0,L|364:208,1,130
324,124,77514,2,0,P|284:144|212:140,1,86.6666666666667,8|0,0:0|0:0,0:0:0:0:
40,208,77802,6,2,B|90:212|90:212|108:204|108:204|126:228|126:228|145:220|145:220|266:237,1,173.333333333333,2|2,0:2|0:0,0:0:0:0:
214,231,78091,5,8,0:0:0:0:
214,231,78379,6,2,B|163:235|163:235|145:227|145:227|127:251|127:251|108:243|108:243|-12:260,1,173.333333333333,2|2,0:2|0:0,0:0:0:0:
40,254,78668,5,8,0:0:0:0:
40,254,78956,2,2,B|32:184|76:136|76:136|156:152,1,173.333333333333,2|2,0:2|0:0,0:0:0:0:
152,156,79245,5,8,0:0:0:0:
382,223,79533,6,2,P|302:271|198:223,1,173.333333333333,2|2,0:2|0:0,0:0:0:0:
214,231,79822,5,8,0:0:0:0:
216,12,80110,5,2,0:0:0:0:
264,84,80302,2,0,L|256:156,1,43.3333333333333,0|8,0:0|0:0,0:0:0:0:
214,231,80591,2,0,B|286:207|272:272|362:239,1,130
440,216,80975,2,0,P|420:280|432:332,1,86.6666666666667,8|0,0:0|0:0,0:0:0:0:
436,320,81264,5,2,0:0:0:0:
444,112,81456,1,0,0:0:0:0:
444,112,81553,1,8,0:0:0:0:
380,60,81745,2,0,L|524:68,1,130
296,100,82129,2,0,B|288:52|288:52|300:0,1,86.6666666666667,8|0,0:0|0:0,0:0:0:0:
308,28,82418,6,0,L|216:32,1,86.6666666666667,4|0,3:1|0:0,0:0:0:0:
40,152,82706,2,0,P|77:175|119:176,1,86.6666666666667,10|0,0:0|0:0,0:0:0:0:
144,84,82995,2,0,P|107:61|65:60,1,86.6666666666667,2|0,0:0|0:0,0:0:0:0:
68,280,83283,2,0,L|172:272,1,86.6666666666667,10|0,0:0|0:0,0:0:0:0:
224,240,83572,6,0,B|208:284|208:284|216:360,1,86.6666666666667,2|0,0:0|0:0,0:0:0:0:
216,348,83860,1,8,0:0:0:0:
436,320,84052,2,0,B|396:316|396:316|364:332|364:332|280:324,1,130,2|0,0:0|0:0,0:0:0:0:
324,248,84437,2,0,L|332:140,1,86.6666666666667,8|0,0:0|0:0,0:0:0:0:
360,88,84725,5,2,0:0:0:0:
224,148,84918,2,0,L|152:140,1,43.3333333333333,2|8,0:0|0:0,0:0:0:0:
64,76,85206,2,0,P|120:20|172:12,1,130,2|0,0:0|0:0,0:0:0:0:
60,164,85591,2,0,L|-40:160,1,86.6666666666667,8|0,0:0|0:0,0:0:0:0:
148,224,85879,1,2,0:0:0:0:
232,120,86072,1,2,0:0:0:0:
224,148,86168,1,8,0:0:0:0:
444,168,86360,6,0,B|384:144|384:144|296:164,1,130,2|0,0:0|0:0,0:0:0:0:
356,308,86745,2,0,L|376:224,1,86.6666666666667,8|0,0:0|0:0,0:0:0:0:
240,88,87033,6,2,L|260:324,1,173.333333333333,2|2,0:2|0:0,0:0:0:0:
236,288,87322,2,0,L|240:232,1,43.3333333333333,8|0,0:0|2:0,0:0:0:0:
152,163,87610,6,2,B|220:151|220:151|256:167|256:167|368:151,1,173.333333333333,2|2,0:2|0:0,0:0:0:0:
128,192,87899,2,0,L|116:140,1,43.3333333333333,8|0,0:0|2:0,0:0:0:0:
52,300,88187,6,2,B|132:264|132:360|280:300,1,173.333333333333,2|2,0:2|0:0,0:0:0:0:
228,328,88475,2,0,L|221:267,1,43.3333333333333,8|0,0:0|2:0,0:0:0:0:
368,220,88764,6,2,P|380:169|379:233,1,173.333333333333,2|2,0:2|0:0,0:0:0:0:
420,244,89052,2,0,L|416:184,1,43.3333333333333,8|0,0:0|2:0,0:0:0:0:
368,72,89341,5,2,0:0:0:0:
224,156,89533,2,0,L|140:152,1,43.3333333333333,2|8,0:0|0:0,0:0:0:0:
64,200,89822,2,0,B|136:184|112:244|204:228,1,130,2|0,0:0|0:0,0:0:0:0:
44,216,90206,2,0,L|32:128,1,86.6666666666667,8|0,0:0|0:0,0:0:0:0:
148,8,90495,6,0,L|140:100,1,86.6666666666667,2|2,0:0|0:0,0:0:0:0:
136,116,90783,1,8,0:0:0:0:
105,192,90975,2,0,P|165:156|249:164,1,130,2|0,0:0|0:0,0:0:0:0:
296,288,91360,2,0,L|188:280,1,86.6666666666667,8|0,0:0|0:0,0:0:0:0:
329,180,91649,5,2,0:0:0:0:
424,360,91937,2,0,L|432:260,1,86.6666666666667,8|0,0:0|0:0,0:0:0:0:
484,112,92225,2,0,P|504:184|532:208,1,86.6666666666667,2|0,0:0|0:0,0:0:0:0:
416,184,92514,2,0,L|308:180,1,86.6666666666667,8|0,0:0|0:0,0:0:0:0:
276,112,92802,1,0,0:0:0:0:
280,124,93956,5,2,2:0:0:0:
244,244,94245,1,8,0:0:0:0:
332,184,94533,2,0,P|380:192|432:172,1,86.6666666666667,2|0,2:0|0:0,2:0:0:0:
436,166,94822,1,8,0:0:0:0:
388,4,95110,2,0,L|380:96,1,86.6666666666667,2|0,2:0|0:0,2:0:0:0:
244,244,95399,2,0,L|236:152,1,86.6666666666667,8|0,0:0|0:0,2:0:0:0:
232,72,95687,5,2,2:0:0:0:
144,176,95879,2,0,L|88:172,1,43.3333333333333,0|8,0:0|0:0,2:0:0:0:
40,120,96168,1,0,0:0:0:0:
40,120,96264,2,0,P|68:176|56:264,1,130,2|8,0:2|0:0,2:0:0:0:
52,316,96745,2,0,P|96:288|192:308,1,130,0|0,0:0|0:0,2:0:0:0:
220,348,97129,2,0,L|320:344,1,86.6666666666667,8|0,0:0|0:0,2:0:0:0:
376,268,97418,6,0,P|404:196|376:140,1,130,2|8,2:0|0:0,2:0:0:0:
280,76,97899,2,0,P|261:136|289:193,1,130,2|0,2:0|0:0,2:0:0:0:
289,193,98283,2,0,L|201:189,1,86.6666666666667,8|0,0:0|0:0,2:0:0:0:
148,136,98572,5,2,0:2:0:0:
140,312,98860,1,8,0:0:0:0:
56,112,99149,2,0,B|44:156|44:156|56:208,1,86.6666666666667,0|0,0:0|0:0,2:0:0:0:
144,224,99437,1,8,0:0:0:0:
234,130,99725,2,0,L|106:138,1,86.6666666666667,2|0,0:2|0:0,2:0:0:0:
144,224,100014,2,0,L|244:220,1,86.6666666666667,8|0,0:0|0:0,2:0:0:0:
360,236,100302,2,0,P|368:284|344:344,1,86.6666666666667,0|0,0:0|0:0,2:0:0:0:
232,304,100591,2,0,P|222:261|230:219,1,86.6666666666667,8|8,3:0|3:0,2:0:0:0:
304,168,100879,5,12,3:0:0:0:
108,92,102033,6,0,L|120:204,1,86.6666666666667,0|0,3:0|0:0,0:0:0:0:
136,188,102322,6,0,L|127:94,2,86.6666666666667,2|2|0,0:0|0:0|0:0,0:0:0:0:
132,16,103187,5,0,0:0:0:0:
144,224,112418,6,0,L|136:156,1,65.0000024795533
256,68,112706,2,0,L|244:176,1,97.50000371933,8|0,0:0|0:0,0:0:0:0:
