osu file format v14

[General]
AudioFilename: 05 Ponytail.mp3
AudioLeadIn: 0
PreviewTime: 37092
Countdown: 0
SampleSet: Soft
StackLeniency: 0.7
Mode: 0
LetterboxInBreaks: 0
WidescreenStoryboard: 0

[Editor]
DistanceSpacing: 0.9
BeatDivisor: 4
GridSize: 4
TimelineZoom: 1

[Metadata]
Title:Ponytail
TitleUnicode:Ponytail
Artist:TWICE
ArtistUnicode:TWICE
Creator:TabemonoDaisuki
Version:Fairy Tale
Source:
Tags:Twice
BeatmapID:1300405
BeatmapSetID:616632

[Difficulty]
HPDrainRate:6
CircleSize:3.8
OverallDifficulty:8
ApproachRate:9
SliderMultiplier:1.4
SliderTickRate:1

[Events]
//Background and Video events
0,0,"weeb xd.jpg",0,0
//Break Periods
2,116366,121122
2,136737,142603
//Storyboard Layer 0 (Background)
//Storyboard Layer 1 (Fail)
//Storyboard Layer 2 (Pass)
//Storyboard Layer 3 (Foreground)
//Storyboard Sound Samples

[TimingPoints]
7278,370.37037037037,4,2,0,45,1,0
30796,-83.3333333333333,4,2,0,45,0,0
37277,-133.333333333333,4,2,0,45,0,0
37833,-90.9090909090909,4,2,0,55,0,1
45240,-133.333333333333,4,2,0,55,0,1
49870,-166.666666666667,4,2,0,55,0,1
50240,-50,4,2,0,55,0,1
50340,-50,4,2,0,55,0,1
50611,-90.9090909090909,4,2,0,55,0,1
60981,-66.6666666666667,4,2,0,55,0,1
61907,-66.6666666666667,4,2,0,45,0,0
66166,-100,4,2,0,45,0,0
68389,-80,4,2,0,45,0,0
75055,-71.4285714285714,4,2,0,45,0,0
75796,-80,4,2,0,45,0,0
79500,-86.9565217391305,4,2,0,45,0,0
90611,-125,4,2,0,45,0,0
90796,-125,4,2,0,5,0,0
90889,-125,4,2,0,45,0,0
91166,-125,4,2,0,5,0,0
91259,-133.333333333333,4,2,0,45,0,0
92648,-90.9090909090909,4,2,0,55,0,1
100055,-117.647058823529,4,2,0,55,0,1
100426,-100,4,2,0,55,0,1
100796,-86.9565217391305,4,2,0,55,0,1
101166,-117.647058823529,4,2,0,55,0,1
104500,-166.666666666667,4,2,0,55,0,1
105055,-50,4,2,0,55,0,1
105426,-90.9090909090909,4,2,0,55,0,1
115796,-76.9230769230769,4,2,0,45,0,1
116352,-133.333333333333,4,2,0,45,0,0
126722,-100,4,2,0,45,0,0
127833,-57.1428571428571,4,2,0,45,0,0
131166,-80,4,2,0,45,0,0
133389,-100,4,2,0,45,0,0
143203,-80,4,2,0,45,0,0
148389,-125,4,2,0,45,0,0
153759,-100,4,2,0,45,0,0
154129,-86.9565217391305,4,2,0,45,0,0
156352,-105.263157894737,4,2,0,45,0,0
156722,-86.9565217391305,4,2,0,45,0,0
157092,-74.0740740740741,4,2,0,45,0,0
157463,-86.9565217391305,4,2,0,45,0,0
160796,-166.666666666667,4,2,0,45,0,0
161352,-50,4,2,0,65,0,1
161722,-90.9090909090909,4,2,0,65,0,1
173203,-90.9090909090909,4,2,0,65,0,1
178203,-100,4,2,0,45,0,0
178759,-90.9090909090909,4,2,0,45,0,0
184129,-100,4,2,0,45,0,0
200981,-74.0740740740741,4,2,0,45,0,0

[HitObjects]
408,248,7277,5,0,0:0:0:0:
244,84,7648,1,0,0:0:0:0:
244,84,7833,2,0,L|144:96,1,70
88,212,8389,1,0,0:0:0:0:
296,120,8759,1,0,0:0:0:0:
363,325,9129,2,0,L|340:260,1,70
340,260,9500,1,0,0:0:0:0:
388,92,9870,5,0,0:0:0:0:
200,40,10055,1,0,0:0:0:0:
120,152,10240,1,0,0:0:0:0:
424,208,10611,5,0,0:0:0:0:
288,344,10796,1,0,0:0:0:0:
136,272,10981,1,0,0:0:0:0:
328,176,11166,1,0,0:0:0:0:
328,176,11352,2,0,P|264:152|244:156,1,70
240,280,11722,1,0,0:0:0:0:
160,96,11907,1,0,0:0:0:0:
64,232,12092,1,0,0:0:0:0:
296,140,12277,1,0,0:0:0:0:
296,140,12370,1,0,0:0:0:0:
296,140,12462,1,0,0:0:0:0:
296,300,12648,5,0,0:0:0:0:
296,300,12833,2,0,L|208:324,1,70
108,164,13203,2,0,B|116:128|156:96,1,70
248,56,13574,1,0,0:0:0:0:
344,144,13759,1,0,0:0:0:0:
232,232,13944,1,0,0:0:0:0:
56,184,14315,1,0,0:0:0:0:
160,116,14685,1,0,0:0:0:0:
136,252,15055,6,0,P|76:204|72:184,1,70
224,104,15426,1,0,0:0:0:0:
192,324,15611,1,0,0:0:0:0:
396,136,15796,6,0,P|344:144|320:164,1,70
224,104,16166,1,0,0:0:0:0:
108,292,16352,1,0,0:0:0:0:
96,168,16537,6,0,P|156:160|192:172,1,70
200,48,16907,1,0,0:0:0:0:
248,304,17092,1,0,0:0:0:0:
368,296,17277,6,0,P|376:236|368:208,1,70
444,144,17648,1,0,0:0:0:0:
188,232,17833,1,0,0:0:0:0:
288,88,18018,1,0,0:0:0:0:
288,88,18203,1,0,0:0:0:0:
104,128,18389,5,0,0:0:0:0:
104,144,18481,1,0,0:0:0:0:
104,160,18574,1,0,0:0:0:0:
104,176,18666,1,0,0:0:0:0:
104,192,18759,2,0,L|96:288,1,70
260,176,19129,2,0,L|340:152,1,70
196,64,19500,2,0,L|108:104,1,70
176,264,19870,1,0,0:0:0:0:
336,148,20055,1,0,0:0:0:0:
184,120,20240,5,0,0:0:0:0:
184,120,20426,1,0,0:0:0:0:
380,208,20611,2,0,L|328:132,1,70
112,144,20981,1,0,0:0:0:0:
320,76,21166,1,0,0:0:0:0:
152,204,21352,1,0,0:0:0:0:
268,24,21537,1,0,0:0:0:0:
276,240,21722,5,0,0:0:0:0:
296,248,21815,1,0,0:0:0:0:
320,252,21907,1,0,0:0:0:0:
392,56,22092,2,0,P|416:88|428:136,1,70
240,92,22463,1,0,0:0:0:0:
168,244,22648,1,0,0:0:0:0:
112,124,22833,2,0,P|87:149|76:182,1,70
344,244,23203,5,0,0:0:0:0:
236,80,23389,1,0,0:0:0:0:
440,176,23574,1,0,0:0:0:0:
224,188,23759,1,0,0:0:0:0:
320,68,23944,1,0,0:0:0:0:
280,296,24129,1,0,0:0:0:0:
132,324,24315,1,0,0:0:0:0:
124,324,24407,1,0,0:0:0:0:
116,324,24500,6,0,P|56:304|28:276,1,70
88,140,24870,1,0,0:0:0:0:
240,80,25055,2,0,L|264:160,1,70
368,260,25426,2,0,L|428:220,1,70
464,96,25796,2,0,L|372:72,1,70
244,56,26166,1,0,0:0:0:0:
236,229,26352,2,0,L|268:141,2,70
108,296,26907,6,0,P|132:336|176:352,1,70
260,164,27277,2,0,P|240:120|204:92,1,70
64,192,27648,1,0,0:0:0:0:
240,280,27833,1,0,0:0:0:0:
260,164,28018,2,0,P|324:184|344:200,1,70
312,336,28389,2,0,P|368:348|404:344,1,70
432,228,28759,1,0,0:0:0:0:
260,164,28944,1,0,0:0:0:0:
124,84,29129,6,0,L|60:144,1,70
68,136,29500,1,0,0:0:0:0:
240,240,29685,1,0,0:0:0:0:
240,92,29870,1,0,0:0:0:0:
256,88,29963,1,0,0:0:0:0:
276,84,30055,1,0,0:0:0:0:
456,212,30240,1,0,0:0:0:0:
240,240,30426,1,0,0:0:0:0:
380,168,30611,1,0,0:0:0:0:
112,144,30796,5,0,0:0:0:0:
160,68,30981,2,0,B|204:72|204:72|252:120,1,83.9999974365235
216,204,31352,2,0,B|196:268|196:268|208:300,1,83.9999974365235
312,264,31722,1,0,0:0:0:0:
252,104,31907,1,0,0:0:0:0:
380,168,32092,2,0,B|392:124|392:124|376:68,1,83.9999974365235
208,48,32463,1,0,0:0:0:0:
92,72,32648,6,0,P|96:168|96:172,1,83.9999974365235
236,148,33018,2,0,L|204:260,1,83.9999974365235
112,268,33389,2,0,B|84:328|84:328|196:328,1,167.999994873047
256,192,33944,1,0,0:0:0:0:
448,216,34129,1,0,0:0:0:0:
320,104,34315,1,0,0:0:0:0:
296,304,34500,1,0,0:0:0:0:
148,248,34685,1,0,0:0:0:0:
256,192,34870,5,0,0:0:0:0:
256,192,35055,12,0,36537,0:0:0:0:
148,84,37277,6,0,L|260:100,1,105.000004005432
251,98,37833,1,0,0:0:0:0:
104,256,38018,5,0,0:0:0:0:
104,256,38111,1,0,0:0:0:0:
104,256,38203,1,0,0:0:0:0:
256,100,38389,1,0,0:0:0:0:
124,112,38574,1,0,0:0:0:0:
328,60,38759,6,0,P|376:56|408:60,1,77.0000023498536
332,208,39129,1,0,0:0:0:0:
196,136,39315,1,0,0:0:0:0:
196,136,39407,1,0,0:0:0:0:
196,136,39500,1,0,0:0:0:0:
84,284,39685,1,0,0:0:0:0:
90,292,39870,2,0,P|141:314|160:312,1,77.0000023498536
192,208,40240,5,0,0:0:0:0:
288,76,40426,1,0,0:0:0:0:
392,216,40611,1,0,0:0:0:0:
408,240,40796,2,0,L|456:328,1,77.0000023498536
272,184,41166,2,0,L|212:128,1,77.0000023498536
64,192,41537,1,0,0:0:0:0:
204,276,41722,1,0,0:0:0:0:
332,148,41907,1,0,0:0:0:0:
188,64,42092,1,0,0:0:0:0:
80,144,42277,6,0,P|84:200|100:224,1,77.0000023498536
240,148,42648,2,0,P|276:176|296:204,1,77.0000023498536
220,320,43018,2,0,P|260:340|376:340,1,154.000004699707
408,232,43574,2,0,L|372:156,1,77.0000023498536
96,196,43944,5,0,0:0:0:0:
320,196,44129,1,0,0:0:0:0:
152,340,44315,1,0,0:0:0:0:
200,124,44500,1,0,0:0:0:0:
292,336,44685,1,0,0:0:0:0:
96,196,44870,1,0,0:0:0:0:
320,196,45055,1,0,0:0:0:0:
164,120,45240,6,0,P|140:160|132:176,1,52.5000020027161
392,176,45611,2,0,P|408:224|412:248,1,52.5000020027161
232,144,45981,1,0,0:0:0:0:
147,207,46166,1,0,0:0:0:0:
147,207,46352,2,0,L|75:191,1,52.5000020027161
144,56,46907,5,0,0:0:0:0:
440,108,47092,1,0,0:0:0:0:
84,216,47648,5,0,0:0:0:0:
456,248,47833,1,0,0:0:0:0:
136,100,48389,5,0,0:0:0:0:
416,60,48574,1,0,0:0:0:0:
176,304,48759,1,0,0:0:0:0:
432,168,48944,1,0,0:0:0:0:
104,184,49129,1,0,0:0:0:0:
420,268,49315,1,0,0:0:0:0:
248,84,49500,1,0,0:0:0:0:
200,260,49685,5,0,0:0:0:0:
200,260,49777,1,0,0:0:0:0:
204,264,49870,2,0,B|252:260|280:268,1,62.9999980773926
272,268,50240,2,0,P|316:308|300:256,1,140
84,160,50611,6,0,L|156:212,1,77.0000023498536
204,124,50981,1,0,0:0:0:0:
268,68,51166,2,0,P|296:104|312:148,1,77.0000023498536
392,236,51537,1,0,0:0:0:0:
208,296,51722,2,0,P|152:272|120:236,1,77.0000023498536
184,176,52092,5,0,0:0:0:0:
296,120,52277,1,0,0:0:0:0:
380,200,52463,1,0,0:0:0:0:
248,320,52648,2,0,L|168:256,1,77.0000023498536
296,120,53018,2,0,L|364:40,1,77.0000023498536
152,152,53389,2,0,P|112:168|92:200,1,77.0000023498536
296,248,53759,2,0,P|340:284|372:292,1,77.0000023498536
380,176,54129,5,0,0:0:0:0:
136,56,54315,1,0,0:0:0:0:
216,232,54500,1,0,0:0:0:0:
352,60,54685,1,0,0:0:0:0:
108,92,54870,2,0,L|140:168,1,77.0000023498536
137,162,55148,1,0,0:0:0:0:
137,162,55240,1,0,0:0:0:0:
304,112,55426,1,0,0:0:0:0:
384,276,55611,1,0,0:0:0:0:
240,224,55796,6,0,P|192:240|160:264,2,77.0000023498536
424,60,56352,2,0,P|436:112|436:152,1,77.0000023498536
268,76,56722,2,0,P|220:104|200:120,1,77.0000023498536
324,256,57092,1,0,0:0:0:0:
152,200,57277,1,0,0:0:0:0:
180,328,57463,1,0,0:0:0:0:
72,216,57648,6,0,P|44:168|40:136,2,77.0000023498536
216,104,58203,2,0,L|296:56,1,77.0000023498536
276,220,58574,1,0,0:0:0:0:
384,84,58759,1,0,0:0:0:0:
124,144,58944,1,0,0:0:0:0:
336,332,59129,1,0,0:0:0:0:
252,48,59315,1,0,0:0:0:0:
112,308,59500,1,0,0:0:0:0:
400,136,59685,5,0,0:0:0:0:
104,172,59870,1,0,0:0:0:0:
104,172,59963,1,0,0:0:0:0:
104,172,60055,1,0,0:0:0:0:
376,268,60240,1,0,0:0:0:0:
144,84,60426,5,0,0:0:0:0:
172,308,60611,1,0,0:0:0:0:
328,104,60796,1,0,0:0:0:0:
132,236,60981,1,0,0:0:0:0:
376,232,61166,1,0,0:0:0:0:
208,84,61352,2,0,B|107:130|138:167|35:192|89:149|116:99,1,210.000008010865
376,96,61907,5,0,0:0:0:0:
384,200,62092,2,0,P|280:204|260:216,1,105.000004005432
336,308,62463,1,0,0:0:0:0:
204,280,62648,1,0,0:0:0:0:
108,324,62833,2,0,P|76:280|64:212,1,105.000004005432
152,160,63203,1,0,0:0:0:0:
428,84,63389,5,0,0:0:0:0:
112,164,63759,1,0,0:0:0:0:
312,112,63944,1,0,0:0:0:0:
224,272,64129,1,0,0:0:0:0:
412,244,64315,2,0,P|364:276|332:324,1,105.000004005432
72,192,64685,5,0,0:0:0:0:
260,172,64870,1,0,0:0:0:0:
144,124,65055,2,0,P|192:84|244:72,1,105.000004005432
432,112,65426,5,0,0:0:0:0:
344,200,65611,1,0,0:0:0:0:
428,256,65796,2,0,P|380:296|328:308,1,105.000004005432
328,304,66166,2,0,B|272:272|216:332|172:284,1,140
88,264,66722,1,0,0:0:0:0:
176,88,66907,5,0,0:0:0:0:
180,104,67000,1,0,0:0:0:0:
184,120,67092,1,0,0:0:0:0:
336,124,67277,5,0,0:0:0:0:
332,144,67370,1,0,0:0:0:0:
328,164,67463,1,0,0:0:0:0:
324,184,67555,1,0,0:0:0:0:
320,200,67648,2,0,P|308:256|296:296,1,70
180,212,68018,1,0,0:0:0:0:
180,212,68203,1,0,0:0:0:0:
188,72,68389,6,0,P|96:88|72:104,1,87.5
320,136,68759,2,0,P|368:172|396:212,1,87.5
216,220,69129,2,0,P|152:248|112:272,1,87.5
312,288,69500,2,0,P|368:320|412:328,1,87.5
392,204,69870,1,0,0:0:0:0:
392,204,70055,1,0,0:0:0:0:
332,120,70240,2,0,L|224:136,1,87.5
245,132,70611,1,0,0:0:0:0:
120,84,70796,5,0,0:0:0:0:
120,84,70981,2,0,P|120:136|136:184,1,87.5
280,256,71352,1,0,0:0:0:0:
136,304,71537,1,0,0:0:0:0:
200,184,71722,1,0,0:0:0:0:
352,168,71907,1,0,0:0:0:0:
360,56,72092,5,0,0:0:0:0:
288,64,72277,2,0,P|232:76|168:104,1,87.5
200,180,72648,1,0,0:0:0:0:
92,180,72833,2,0,P|112:272|116:292,1,87.5
240,272,73203,2,0,P|304:240|352:232,1,87.5
372,316,73574,1,0,0:0:0:0:
440,160,73759,6,0,L|324:104,1,87.5
361,121,74129,1,0,0:0:0:0:
248,224,74315,2,0,P|180:188|152:160,1,87.5
280,80,74685,1,0,0:0:0:0:
140,72,74870,1,0,0:0:0:0:
248,224,75055,2,0,L|204:324,1,97.9999970092774
344,240,75426,2,0,L|300:352,1,97.9999970092774
400,192,75796,5,0,0:0:0:0:
468,116,75981,2,0,P|384:100|344:100,2,87.5
292,156,76537,1,0,0:0:0:0:
168,256,76722,1,0,0:0:0:0:
184,112,76907,2,0,P|84:84|72:80,1,87.5
168,256,77277,2,0,L|256:324,1,87.5
380,296,77648,5,0,0:0:0:0:
268,168,77833,1,0,0:0:0:0:
420,144,78018,1,0,0:0:0:0:
384,56,78203,2,0,P|292:72|276:80,1,87.5
268,168,78574,2,0,P|196:152|160:128,1,87.5
160,44,78944,1,0,0:0:0:0:
72,160,79129,2,0,L|0:260,1,87.5
208,288,79500,5,0,0:0:0:0:
212,292,79592,1,0,0:0:0:0:
216,296,79685,2,0,P|264:320|296:328,1,80.5000015354157
404,232,80055,1,0,0:0:0:0:
392,104,80240,2,0,L|288:104,1,80.5000015354157
284,204,80611,2,0,L|176:204,1,80.5000015354157
232,72,80981,1,0,0:0:0:0:
116,112,81166,6,0,P|44:152|20:176,2,80.5000015354157
336,148,81722,1,0,0:0:0:0:
168,212,81907,1,0,0:0:0:0:
300,296,82092,1,0,0:0:0:0:
256,116,82277,1,0,0:0:0:0:
400,260,82463,1,0,0:0:0:0:
444,148,82648,6,0,L|372:88,1,80.5000015354157
356,84,83018,1,0,0:0:0:0:
328,216,83203,2,0,P|328:272|316:320,1,80.5000015354157
220,224,83574,2,0,P|176:176|164:128,1,80.5000015354157
296,72,83944,1,0,0:0:0:0:
296,72,84037,1,0,0:0:0:0:
296,72,84129,1,0,0:0:0:0:
88,112,84315,1,0,0:0:0:0:
148,236,84500,6,0,L|180:328,2,80.5000015354157
148,236,85055,1,0,0:0:0:0:
280,264,85240,5,0,0:0:0:0:
288,268,85333,1,0,0:0:0:0:
296,272,85426,1,0,0:0:0:0:
432,216,85611,6,0,B|420:168|420:168|356:140,1,80.5000015354157
280,196,85981,1,0,0:0:0:0:
216,96,86166,2,0,B|180:64|180:64|124:72,1,80.5000015354157
144,196,86537,2,0,B|128:240|128:240|76:262,1,80.5000015354157
64,148,86907,1,0,0:0:0:0:
224,112,87092,1,0,0:0:0:0:
208,260,87277,1,0,0:0:0:0:
352,224,87463,1,0,0:0:0:0:
260,176,87648,6,0,B|280:128|280:128|280:84,1,80.5000015354157
280,99,88018,1,0,0:0:0:0:
432,152,88203,2,0,L|416:248,1,80.5000015354157
312,320,88574,1,0,0:0:0:0:
288,224,88759,2,0,L|208:240,1,80.5000015354157
132,92,89129,2,0,L|212:56,1,80.5000015354157
328,60,89500,1,0,0:0:0:0:
264,164,89685,1,0,0:0:0:0:
104,120,89870,5,0,0:0:0:0:
216,312,90055,1,0,0:0:0:0:
240,80,90240,5,0,0:0:0:0:
248,300,90426,1,0,0:0:0:0:
300,76,90611,6,0,P|344:80|376:92,1,56
360,92,90889,2,0,P|412:152|428:160,1,84
424,160,91259,2,0,B|384:228|320:288|324:352|376:336|488:268|292:236,1,341.250013017655
288,116,92648,5,0,0:0:0:0:
272,124,92740,1,0,0:0:0:0:
252,132,92833,2,0,L|144:168,1,77.0000023498536
224,248,93203,2,0,P|184:272|120:284,1,77.0000023498536
116,68,93574,1,0,0:0:0:0:
52,216,93759,1,0,0:0:0:0:
236,300,93944,5,0,0:0:0:0:
244,308,94037,1,0,0:0:0:0:
252,316,94129,2,0,P|292:336|324:344,1,77.0000023498536
356,144,94500,2,0,P|300:112|264:104,1,77.0000023498536
180,156,94870,1,0,0:0:0:0:
200,264,95055,6,0,L|88:264,1,77.0000023498536
123,264,95426,1,0,0:0:0:0:
184,120,95611,1,0,0:0:0:0:
312,232,95796,1,0,0:0:0:0:
104,184,95981,1,0,0:0:0:0:
288,72,96166,1,0,0:0:0:0:
280,304,96352,1,0,0:0:0:0:
248,144,96537,2,0,L|356:168,1,77.0000023498536
328,164,96907,1,0,0:0:0:0:
312,280,97092,6,0,P|232:316|216:324,1,77.0000023498536
252,208,97463,2,0,L|144:216,1,77.0000023498536
220,116,97833,2,0,L|56:80,1,154.000004699707
56,180,98389,1,0,0:0:0:0:
60,184,98574,1,0,0:0:0:0:
180,276,98759,5,0,0:0:0:0:
320,148,98944,1,0,0:0:0:0:
316,308,99129,1,0,0:0:0:0:
180,168,99315,1,0,0:0:0:0:
392,76,99500,1,0,0:0:0:0:
416,260,99685,1,0,0:0:0:0:
272,72,99870,1,0,0:0:0:0:
152,120,100055,6,0,L|80:112,1,59.5000011348725
364,176,100426,2,0,L|440:192,1,70
160,236,100796,2,0,L|60:236,1,80.5000015354157
296,256,101166,2,0,P|372:292|408:300,1,119.000002269745
404,192,101722,5,0,0:0:0:0:
236,56,101907,1,0,0:0:0:0:
132,288,102463,5,0,0:0:0:0:
344,96,102648,1,0,0:0:0:0:
120,176,103203,5,0,0:0:0:0:
348,264,103389,1,0,0:0:0:0:
224,80,103574,5,0,0:0:0:0:
252,304,103759,1,0,0:0:0:0:
340,104,103944,5,0,0:0:0:0:
156,272,104129,1,0,0:0:0:0:
216,68,104315,1,0,0:0:0:0:
368,232,104500,5,0,0:0:0:0:
368,232,104592,1,0,0:0:0:0:
368,232,104685,2,0,L|388:308,1,62.9999980773926
376,296,105055,2,0,L|224:324,1,140
64,152,105426,6,0,P|120:136|160:136,1,77.0000023498536
256,176,105796,1,0,0:0:0:0:
108,268,105981,1,0,0:0:0:0:
112,276,106074,1,0,0:0:0:0:
116,284,106166,2,0,P|148:328|176:360,1,77.0000023498536
368,252,106537,2,0,P|404:200|408:168,1,77.0000023498536
420,52,106907,5,0,0:0:0:0:
420,52,107092,1,0,0:0:0:0:
288,144,107277,1,0,0:0:0:0:
136,92,107463,2,0,P|60:140|44:144,1,77.0000023498536
216,264,107833,2,0,P|252:312|296:340,1,77.0000023498536
337,179,108203,2,0,P|371:161|400:136,1,77.0000023498536
232,88,108574,2,0,P|196:40|152:12,1,77.0000023498536
264,256,108944,6,0,L|188:332,1,77.0000023498536
168,220,109315,1,0,0:0:0:0:
32,172,109500,1,0,0:0:0:0:
188,80,109685,1,0,0:0:0:0:
188,80,109777,1,0,0:0:0:0:
188,80,109870,1,0,0:0:0:0:
196,176,110055,2,0,P|260:196|304:192,2,77.0000023498536
304,88,110611,5,0,0:0:0:0:
352,224,110796,1,0,0:0:0:0:
204,124,110981,1,0,0:0:0:0:
224,252,111166,2,0,L|132:228,1,77.0000023498536
192,328,111537,2,0,L|96:312,1,77.0000023498536
336,284,111907,6,0,P|388:268|424:264,2,77.0000023498536
428,344,112463,1,0,0:0:0:0:
424,188,112648,1,0,0:0:0:0:
288,244,112833,1,0,0:0:0:0:
256,108,113018,1,0,0:0:0:0:
156,232,113203,1,0,0:0:0:0:
192,68,113389,5,0,0:0:0:0:
192,68,113481,1,0,0:0:0:0:
192,68,113574,1,0,0:0:0:0:
268,276,113759,1,0,0:0:0:0:
344,108,113944,5,0,0:0:0:0:
112,180,114129,1,0,0:0:0:0:
312,288,114315,1,0,0:0:0:0:
168,96,114500,1,0,0:0:0:0:
200,300,114685,1,0,0:0:0:0:
336,72,114870,1,0,0:0:0:0:
128,220,115055,1,0,0:0:0:0:
360,236,115240,5,0,0:0:0:0:
368,244,115333,1,0,0:0:0:0:
368,244,115426,2,0,L|276:208,1,77.0000023498536
256,120,115796,2,0,P|200:128|144:156,2,90.9999958343508
352,128,121722,5,0,0:0:0:0:
208,80,121907,1,0,0:0:0:0:
152,168,122277,6,0,P|100:164|48:148,1,105.000004005432
49,148,122833,1,0,0:0:0:0:
224,276,123018,6,0,P|268:300|324:316,1,105.000004005432
320,315,123574,1,0,0:0:0:0:
312,144,123759,2,0,P|372:128|436:124,1,105.000004005432
288,68,124685,5,0,0:0:0:0:
376,236,124870,1,0,0:0:0:0:
352,332,125240,2,0,L|228:304,1,105.000004005432
244,308,125796,1,0,0:0:0:0:
188,172,125981,1,0,0:0:0:0:
116,320,126166,1,0,0:0:0:0:
80,148,126352,5,0,0:0:0:0:
80,148,126537,1,0,0:0:0:0:
184,72,126722,2,0,P|252:44|280:40,2,70
260,168,127277,1,0,0:0:0:0:
260,168,127370,1,0,0:0:0:0:
260,168,127463,1,0,0:0:0:0:
392,92,127648,1,0,0:0:0:0:
424,208,127833,6,0,P|360:240|296:296,1,122.500001168251
424,208,128203,2,0,P|348:152|276:124,1,122.500001168251
232,200,128574,1,0,0:0:0:0:
232,200,128666,1,0,0:0:0:0:
232,200,128759,1,0,0:0:0:0:
120,304,128944,1,0,0:0:0:0:
156,148,129129,1,0,0:0:0:0:
88,44,129315,6,0,L|240:44,1,122.500001168251
88,44,129685,2,0,L|176:156,1,122.500001168251
80,184,130055,1,0,0:0:0:0:
240,268,130240,1,0,0:0:0:0:
112,300,130426,1,0,0:0:0:0:
112,300,130518,1,0,0:0:0:0:
112,300,130611,1,0,0:0:0:0:
360,156,130796,5,0,0:0:0:0:
360,156,130981,1,0,0:0:0:0:
416,264,131166,2,0,P|360:312|320:328,1,87.5
264,248,131537,1,0,0:0:0:0:
80,296,131722,2,0,P|120:236|156:208,1,87.5
236,144,132092,2,0,P|276:96|300:48,1,87.5
400,44,132463,2,0,L|500:64,1,87.5
416,144,132833,2,0,P|400:200|368:248,2,87.5
280,184,133389,6,0,L|276:280,1,70
160,216,133759,2,0,L|156:300,1,70
256,192,134129,12,0,136537,0:0:0:0:
352,116,143203,6,0,L|420:208,1,87.5
280,192,143574,2,0,L|320:296,1,87.5
192,196,143944,2,0,P|168:256|136:296,1,87.5
72,180,144315,1,0,0:0:0:0:
72,180,144500,1,0,0:0:0:0:
168,80,144685,2,0,P|228:56|264:56,2,87.5
168,80,145240,1,0,0:0:0:0:
304,200,145426,5,0,0:0:0:0:
156,244,145611,1,0,0:0:0:0:
264,332,145796,1,0,0:0:0:0:
412,216,146166,5,0,0:0:0:0:
296,80,146351,1,0,0:0:0:0:
244,232,146537,1,0,0:0:0:0:
68,168,146907,5,0,0:0:0:0:
228,128,147092,1,0,0:0:0:0:
176,292,147277,1,0,0:0:0:0:
352,224,147648,5,0,0:0:0:0:
424,200,148389,6,0,P|400:176|376:160,1,56
360,204,148944,2,0,P|304:240|184:264,1,168
196,108,149870,6,0,P|156:96|124:108,1,56
116,112,150426,2,0,P|120:188|152:284,1,168
252,312,151352,6,0,P|308:300|324:292,1,56
376,244,151907,2,0,L|420:192,1,56
336,120,152277,1,0,0:0:0:0:
216,256,152463,2,0,P|156:224|148:216,1,56
152,80,152833,2,0,P|116:48|88:36,2,56
124,224,153389,6,0,L|48:240,1,56
168,296,153759,2,0,L|80:332,1,70
256,276,154129,2,0,L|412:332,1,161.000003070831
408,212,154685,1,0,0:0:0:0:
408,212,154870,1,0,0:0:0:0:
332,120,155055,5,0,0:0:0:0:
308,240,155240,1,0,0:0:0:0:
240,76,155426,5,0,0:0:0:0:
240,240,155611,1,0,0:0:0:0:
140,64,155796,5,0,0:0:0:0:
164,276,155981,1,0,0:0:0:0:
56,144,156166,5,0,0:0:0:0:
104,268,156352,2,0,L|192:288,1,66.4999982242585
196,204,156722,2,0,L|296:200,1,80.5000015354157
252,120,157092,2,0,L|376:88,1,94.5000003604889
372,184,157463,2,0,L|496:292,1,161.000003070831
344,308,158018,5,0,0:0:0:0:
440,100,158203,1,0,0:0:0:0:
284,56,158759,5,0,0:0:0:0:
288,332,158944,1,0,0:0:0:0:
232,224,159315,6,0,P|168:228|152:264,1,80.5000015354157
220,304,159685,1,0,0:0:0:0:
124,144,159870,1,0,0:0:0:0:
316,208,160055,1,0,0:0:0:0:
124,316,160240,1,0,0:0:0:0:
196,108,160426,1,0,0:0:0:0:
324,80,160611,5,0,0:0:0:0:
336,88,160703,1,0,0:0:0:0:
348,96,160796,2,0,P|400:156|408:184,1,104.999996795654
384,184,161352,2,0,P|376:252|416:312,1,140
256,312,161722,6,0,L|168:324,1,77.0000023498536
192,192,162092,1,0,0:0:0:0:
192,192,162185,1,0,0:0:0:0:
192,192,162277,1,0,0:0:0:0:
116,92,162648,1,0,0:0:0:0:
116,92,162833,2,0,L|56:168,1,77.0000023498536
132,284,163203,5,0,0:0:0:0:
260,160,163389,1,0,0:0:0:0:
240,312,163574,1,0,0:0:0:0:
300,224,163759,2,0,P|344:276|356:308,1,77.0000023498536
432,204,164129,1,0,0:0:0:0:
304,76,164315,1,0,0:0:0:0:
260,160,164500,2,0,P|192:128|176:104,1,77.0000023498536
228,56,164870,2,0,P|176:32|136:36,1,77.0000023498536
76,152,165240,5,0,0:0:0:0:
76,152,165333,1,0,0:0:0:0:
76,152,165426,1,0,0:0:0:0:
164,276,165611,1,0,0:0:0:0:
164,276,165703,1,0,0:0:0:0:
164,276,165796,1,0,0:0:0:0:
324,224,165981,1,0,0:0:0:0:
296,308,166166,2,0,P|336:332|388:340,2,77.0000023498536
248,152,166722,1,0,0:0:0:0:
432,112,166907,5,0,0:0:0:0:
432,216,167092,1,0,0:0:0:0:
304,112,167277,1,0,0:0:0:0:
340,228,167463,2,0,L|240:244,1,77.0000023498536
272,148,167833,2,0,L|192:160,1,77.0000023498536
176,272,168203,2,0,P|120:252|100:232,2,77.0000023498536
136,116,168759,5,0,0:0:0:0:
324,56,168944,1,0,0:0:0:0:
272,216,169129,1,0,0:0:0:0:
172,32,169315,1,0,0:0:0:0:
128,236,169500,1,0,0:0:0:0:
280,308,169685,5,0,0:0:0:0:
280,308,169777,1,0,0:0:0:0:
280,308,169870,1,0,0:0:0:0:
432,172,170055,1,0,0:0:0:0:
248,208,170240,5,0,0:0:0:0:
440,284,170426,1,0,0:0:0:0:
300,136,170611,5,0,0:0:0:0:
352,320,170796,1,0,0:0:0:0:
404,164,170981,1,0,0:0:0:0:
252,280,171166,1,0,0:0:0:0:
140,140,171352,1,0,0:0:0:0:
344,160,171537,1,0,0:0:0:0:
156,268,171722,1,0,0:0:0:0:
256,88,171907,1,0,0:0:0:0:
280,272,172092,5,0,0:0:0:0:
280,272,172277,1,0,0:0:0:0:
188,132,172463,1,0,0:0:0:0:
188,132,172648,2,0,P|160:204|92:248,1,154.000004699707
84,136,173203,2,0,P|52:80|48:60,1,77.0000023498536
212,52,173574,2,0,P|272:60|300:80,1,77.0000023498536
240,176,173944,2,0,P|248:216|268:256,1,77.0000023498536
404,184,174315,5,0,0:0:0:0:
404,184,174500,1,0,0:0:0:0:
484,260,174685,2,0,P|424:280|384:288,1,77.0000023498536
304,232,175055,2,0,P|276:264|256:324,1,77.0000023498536
184,208,175426,2,0,L|88:164,1,77.0000023498536
100,288,175796,1,0,0:0:0:0:
100,288,175981,1,0,0:0:0:0:
16,124,176166,2,0,P|80:60|96:60,1,77.0000023498536
220,68,176537,6,0,L|300:96,1,77.0000023498536
248,176,176907,2,0,L|344:212,1,77.0000023498536
416,136,177277,1,0,0:0:0:0:
416,136,177463,1,0,0:0:0:0:
420,252,177648,2,0,P|388:300|360:328,1,77.0000023498536
280,256,178018,1,0,0:0:0:0:
204,200,178203,6,0,B|184:240|100:152|56:212,1,140
156,96,178759,2,0,P|188:64|248:48,2,77.0000023498536
288,144,179315,2,0,P|352:168|392:176,1,77.0000023498536
248,240,179685,2,0,P|304:288|336:304,1,77.0000023498536
448,236,180055,2,0,L|460:312,2,77.0000023498536
428,68,180611,1,0,0:0:0:0:
316,88,180796,6,0,P|264:92|232:128,1,77.0000023498536
240,208,181166,2,0,P|184:196|144:216,1,77.0000023498536
184,296,181537,1,0,0:0:0:0:
396,216,181722,1,0,0:0:0:0:
228,148,181907,1,0,0:0:0:0:
216,328,182092,1,0,0:0:0:0:
328,176,182277,1,0,0:0:0:0:
368,328,182463,1,0,0:0:0:0:
192,212,182648,5,0,0:0:0:0:
348,112,182833,1,0,0:0:0:0:
180,56,183018,1,0,0:0:0:0:
88,208,183203,1,0,0:0:0:0:
128,56,183389,1,0,0:0:0:0:
224,248,183574,1,0,0:0:0:0:
72,116,183759,1,0,0:0:0:0:
288,136,183944,1,0,0:0:0:0:
328,224,184129,6,0,B|408:252|344:296|436:328,1,140
296,324,184685,2,0,L|204:320,1,70
256,220,185055,1,0,0:0:0:0:
128,220,185240,2,0,P|80:248|56:284,1,70
144,100,185611,2,0,P|204:96|232:88,1,70
368,180,185981,1,0,0:0:0:0:
336,48,186166,1,0,0:0:0:0:
224,196,186352,1,0,0:0:0:0:
344,236,186537,6,0,L|336:316,2,70
464,308,187092,1,0,0:0:0:0:
420,176,187277,1,0,0:0:0:0:
216,164,187463,1,0,0:0:0:0:
216,164,187555,1,0,0:0:0:0:
216,164,187648,1,0,0:0:0:0:
152,296,187833,5,0,0:0:0:0:
100,200,188018,2,0,L|24:160,1,70
120,88,188389,2,0,L|188:60,1,70
284,148,188759,2,0,P|320:188|336:200,1,70
456,180,189129,2,0,P|476:252|476:272,1,70
348,84,189500,2,0,P|308:56|272:36,1,70
216,192,189870,2,0,P|160:244|148:252,1,70
284,288,190240,2,0,P|320:332|344:348,1,70
392,240,190611,5,0,0:0:0:0:
392,240,190703,1,0,0:0:0:0:
392,240,190796,1,0,0:0:0:0:
416,140,190981,2,0,L|332:120,1,70
228,104,191352,2,0,P|172:144|152:164,2,70
312,232,192092,5,0,0:0:0:0:
192,176,192278,1,0,0:0:0:0:
208,284,192463,2,0,L|112:264,1,70
340,152,192833,1,0,0:0:0:0:
340,152,193018,1,0,0:0:0:0:
340,152,193203,2,0,L|352:248,1,70
116,148,193574,5,0,0:0:0:0:
116,148,193759,1,0,0:0:0:0:
116,148,194129,5,0,0:0:0:0:
184,64,194315,2,0,P|248:112|264:128,2,70
184,204,194870,1,0,0:0:0:0:
344,124,195055,5,0,0:0:0:0:
344,124,195240,1,0,0:0:0:0:
344,124,195426,2,0,P|384:152|416:184,1,70
388,292,195796,1,0,0:0:0:0:
284,224,195981,1,0,0:0:0:0:
292,336,196166,2,0,P|248:344|208:340,1,70
184,196,196537,5,0,0:0:0:0:
140,284,196722,2,0,P|96:244|84:224,2,70
152,168,197277,2,0,P|124:112|104:92,1,70
232,64,197648,2,0,P|280:72|372:104,1,140
268,176,198203,1,0,0:0:0:0:
208,240,198389,2,0,P|259:279|292:292,1,70
372,224,198759,2,0,P|428:200|444:196,1,70
440,300,199129,1,0,0:0:0:0:
328,348,199315,1,0,0:0:0:0:
84,232,199500,5,0,0:0:0:0:
84,232,199685,1,0,0:0:0:0:
84,232,200055,5,0,0:0:0:0:
44,132,200240,2,0,L|92:72,2,70
176,136,200796,1,0,0:0:0:0:
304,120,200981,1,0,0:0:0:0:
272,232,201166,2,0,P|332:260|368:264,1,94.5000003604889
376,168,201537,1,0,0:0:0:0:
472,160,201722,2,0,P|492:236|492:276,1,94.5000003604889
348,328,202091,5,0,0:0:0:0:
328,332,202184,1,0,0:0:0:0:
312,336,202277,2,0,B|252:268|208:380|140:280,1,189.000000720978
232,224,202833,2,0,L|160:160,1,94.5000003604889
352,100,203203,5,0,0:0:0:0:
84,128,203389,1,0,0:0:0:0:
292,336,203574,5,0,0:0:0:0:
