osu file format v14

[General]
AudioFilename: 01 Dance The Night Away.mp3
AudioLeadIn: 0
PreviewTime: -1
Countdown: 0
SampleSet: Soft
StackLeniency: 0.7
Mode: 0
LetterboxInBreaks: 0
WidescreenStoryboard: 0

[Editor]
DistanceSpacing: 2
BeatDivisor: 8
GridSize: 32
TimelineZoom: 1

[Metadata]
Title:Dance The Night Away
TitleUnicode:Dance The Night Away
Artist:TWICE
ArtistUnicode:TWICE
Creator:Kenny888081
Version:Hard
Source:
Tags:
BeatmapID:1745869
BeatmapSetID:833468

[Difficulty]
HPDrainRate:5
CircleSize:5
OverallDifficulty:5
ApproachRate:5
SliderMultiplier:1.4
SliderTickRate:1

[Events]
//Background and Video events
//Break Periods
//Storyboard Layer 0 (Background)
//Storyboard Layer 1 (Fail)
//Storyboard Layer 2 (Pass)
//Storyboard Layer 3 (Foreground)
//Storyboard Sound Samples

[TimingPoints]
0,508.474576271186,4,2,0,100,1,0

[HitObjects]
128,96,1906,5,0,0:0:0:0:
128,96,2161,1,0,0:0:0:0:
128,96,2415,1,0,0:0:0:0:
128,96,2669,1,0,0:0:0:0:
128,96,2796,1,0,0:0:0:0:
128,96,3050,1,0,0:0:0:0:
128,96,3368,1,0,0:0:0:0:
128,96,4194,1,0,0:0:0:0:
128,96,4385,1,0,0:0:0:0:
128,96,4639,1,0,0:0:0:0:
128,96,4766,1,0,0:0:0:0:
128,96,5021,1,0,0:0:0:0:
128,96,5338,1,0,0:0:0:0:
128,96,5720,1,0,0:0:0:0:
128,96,5974,1,0,0:0:0:0:
128,96,6228,1,0,0:0:0:0:
128,96,6483,1,0,0:0:0:0:
128,96,6737,1,0,0:0:0:0:
128,96,6864,1,0,0:0:0:0:
128,96,7118,1,0,0:0:0:0:
128,96,7435,1,0,0:0:0:0:
128,96,8199,1,0,0:0:0:0:
128,96,8453,1,0,0:0:0:0:
128,96,8707,1,0,0:0:0:0:
128,96,8834,1,0,0:0:0:0:
128,96,9152,1,0,0:0:0:0:
128,96,9406,1,0,0:0:0:0:
128,96,9788,1,0,0:0:0:0:
288,96,10105,5,0,0:0:0:0:
288,160,10550,1,0,0:0:0:0:
224,160,11059,1,0,0:0:0:0:
224,96,11313,1,0,0:0:0:0:
160,96,11631,1,0,0:0:0:0:
160,160,11885,1,0,0:0:0:0:
96,160,12330,1,0,0:0:0:0:
96,96,12838,1,0,0:0:0:0:
128,32,13093,1,0,0:0:0:0:
192,32,13347,1,0,0:0:0:0:
288,64,13601,1,0,0:0:0:0:
96,160,14427,2,0,L|224:128,1,122.5
288,128,15190,1,0,0:0:0:0:
288,64,15444,1,0,0:0:0:0:
224,64,15699,1,0,0:0:0:0:
224,128,15953,1,0,0:0:0:0:
256,96,16334,1,0,0:0:0:0:
96,128,16843,2,0,L|192:96,3,87.5
215,127,18241,1,0,0:0:0:0:
247,84,18495,1,0,0:0:0:0:
269,120,18686,1,0,0:0:0:0:
256,160,19004,1,0,0:0:0:0:
208,172,19131,1,0,0:0:0:0:
175,134,19385,1,0,0:0:0:0:
191,80,19639,1,0,0:0:0:0:
271,62,20275,1,0,0:0:0:0:
320,68,20466,1,0,0:0:0:0:
339,113,20656,1,0,0:0:0:0:
342,164,20974,1,0,0:0:0:0:
334,221,21101,1,0,0:0:0:0:
282,220,21419,1,0,0:0:0:0:
278,158,21673,1,0,0:0:0:0:
279,90,22245,5,0,0:0:0:0:
353,94,22754,1,0,0:0:0:0:
350,45,23262,1,0,0:0:0:0:
291,38,23516,1,0,0:0:0:0:
223,32,23771,1,0,0:0:0:0:
165,77,24025,1,0,0:0:0:0:
224,128,24533,1,0,0:0:0:0:
300,123,25042,2,0,L|396:91,1,87.5
384,96,25550,2,0,L|416:192,1,87.5
352,192,26059,1,0,0:0:0:0:
256,192,26313,2,0,L|256:128,1,52.5
224,160,26694,1,0,0:0:0:0:
160,160,26885,2,0,L|128:128,1,35
96,96,27139,1,0,0:0:0:0:
128,96,27330,2,0,L|192:96,1,52.5
224,64,27648,1,0,0:0:0:0:
256,96,27838,1,0,0:0:0:0:
288,96,29110,2,0,P|192:0|96:96,1,297.5
96,160,30444,2,0,L|160:160,1,52.5
160,192,30762,1,0,0:0:0:0:
192,224,30889,2,0,L|256:224,1,52.5
256,160,31207,1,0,0:0:0:0:
256,128,31398,2,0,L|256:64,1,52.5
224,64,31779,1,0,0:0:0:0:
192,96,31906,2,0,P|96:32|0:128,1,262.5
0,160,33114,2,0,P|96:256|160:192,1,245
192,128,34449,5,0,0:0:0:0:
160,128,34703,1,0,0:0:0:0:
128,128,34957,1,0,0:0:0:0:
128,96,35211,1,0,0:0:0:0:
160,96,35402,1,0,0:0:0:0:
192,96,35593,1,0,0:0:0:0:
224,96,35847,1,0,0:0:0:0:
256,96,36483,1,0,0:0:0:0:
288,96,36737,1,0,0:0:0:0:
320,96,36991,1,0,0:0:0:0:
320,128,37245,1,0,0:0:0:0:
320,160,37436,1,0,0:0:0:0:
320,192,37690,1,0,0:0:0:0:
320,224,37944,1,0,0:0:0:0:
320,256,39279,1,0,0:0:0:0:
288,256,39406,1,0,0:0:0:0:
256,256,39533,1,0,0:0:0:0:
224,256,39788,1,0,0:0:0:0:
192,256,39915,1,0,0:0:0:0:
192,224,40042,1,0,0:0:0:0:
192,192,40296,1,0,0:0:0:0:
192,160,40550,1,0,0:0:0:0:
192,128,41313,1,0,0:0:0:0:
224,128,41567,1,0,0:0:0:0:
256,128,41822,1,0,0:0:0:0:
256,96,42076,1,0,0:0:0:0:
288,96,42584,1,0,0:0:0:0:
320,96,42838,1,0,0:0:0:0:
320,128,43093,1,0,0:0:0:0:
320,160,43347,1,0,0:0:0:0:
320,192,43474,1,0,0:0:0:0:
320,224,43792,1,0,0:0:0:0:
320,256,44046,1,0,0:0:0:0:
288,256,44936,1,8,0:0:0:0:
256,256,45190,1,8,0:0:0:0:
224,256,45381,1,0,0:0:0:0:
224,224,45508,1,0,0:0:0:0:
224,192,45762,1,0,0:0:0:0:
224,160,46016,1,0,0:0:0:0:
192,160,46398,1,0,0:0:0:0:
