osu file format v14

[General]
AudioFilename: TWICE-01-CHEER UP.mp3
AudioLeadIn: 0
PreviewTime: 60477
Countdown: 0
SampleSet: Soft
StackLeniency: 0.7
Mode: 0
LetterboxInBreaks: 0
WidescreenStoryboard: 0

[Editor]
Bookmarks: 5853,11402,16951,22500,28049,33598,39147,44697,50246,55795,77991,79379,84928,90477,96026,101575,107124,112673,118223,123772,147356,158454,162616,166777,169552,175101,180650,204234
DistanceSpacing: 1.4
BeatDivisor: 4
GridSize: 32
TimelineZoom: 3.499999

[Metadata]
Title:CHEER UP
TitleUnicode:CHEER UP
Artist:TWICE
ArtistUnicode:TWICE
Creator:Euny
Version:SHASHASHA
Source:
Tags:Natsu 나연 정연 모모 사나 지효 미나 다현 채영 쯔위 NAYEON JEONGYEON MOMO SANA JIHYO MINA DAHYUN CHAEYOUNG TZUYU PAGE TWO jyp entertainment kpop k-pop
BeatmapID:978382
BeatmapSetID:456547

[Difficulty]
HPDrainRate:6
CircleSize:4
OverallDifficulty:8
ApproachRate:9.2
SliderMultiplier:2
SliderTickRate:1

[Events]
//Background and Video events
Video,0,"TWICE-CHEER UP.avi"
0,0,"shut up.jpg",0,0
//Break Periods
2,147356,157884
2,169752,174531
//Storyboard Layer 0 (Background)
//Storyboard Layer 1 (Fail)
//Storyboard Layer 2 (Pass)
//Storyboard Layer 3 (Foreground)
//Storyboard Sound Samples

[TimingPoints]
304,346.820809248555,4,2,33,55,1,0
5853,-125,4,2,34,40,0,0
8627,-166.666666666667,4,2,34,40,0,0
10014,-125,4,2,33,55,0,0
13309,-125,4,2,34,55,0,0
13483,-125,4,2,33,55,0,0
13830,-125,4,2,34,55,0,0
14176,-125,4,2,33,55,0,0
18858,-125,4,2,34,55,0,0
19032,-125,4,2,33,55,0,0
19379,-125,4,2,34,55,0,0
19725,-125,4,2,33,55,0,0
24408,-125,4,2,34,55,0,0
24581,-125,4,2,33,55,0,0
24928,-125,4,2,34,55,0,0
25275,-125,4,2,33,55,0,0
29957,-125,4,2,34,55,0,0
30130,-125,4,2,33,55,0,0
30477,-125,4,2,34,55,0,0
30824,-125,4,2,33,55,0,0
33598,-142.857142857143,4,2,33,40,0,0
44697,-111.111111111111,4,2,33,55,0,0
55795,-90.9090909090909,4,2,35,63,0,1
56142,-90.9090909090909,4,2,35,63,0,0
61344,-90.9090909090909,4,2,35,63,0,1
61691,-90.9090909090909,4,2,35,63,0,0
66893,-90.9090909090909,4,2,35,63,0,1
67240,-90.9090909090909,4,2,35,63,0,0
72442,-90.9090909090909,4,2,35,63,0,1
72789,-90.9090909090909,4,2,35,63,0,0
77298,-166.666666666667,4,2,33,50,0,0
79379,-125,4,2,33,55,0,0
83540,-166.666666666667,4,2,33,55,0,0
83887,-142.857142857143,4,2,33,55,0,0
84234,-125,4,2,33,55,0,0
84581,-111.111111111111,4,2,33,55,0,0
84928,-125,4,2,33,55,0,0
92384,-125,4,2,34,55,0,0
92558,-125,4,2,33,55,0,0
92905,-125,4,2,34,55,0,0
93078,-125,4,2,33,55,0,0
97934,-125,4,2,34,55,0,0
98107,-125,4,2,33,55,0,0
98454,-125,4,2,34,55,0,0
98627,-125,4,2,33,55,0,0
100188,-125,4,2,34,55,0,0
100882,-125,4,2,33,55,0,0
101575,-142.857142857143,4,2,33,40,0,0
112673,-111.111111111111,4,2,33,55,0,0
123772,-90.909090909091,4,2,35,63,0,1
124119,-90.909090909091,4,2,35,63,0,0
129321,-90.909090909091,4,2,35,63,0,1
129668,-90.909090909091,4,2,35,63,0,0
134870,-90.909090909091,4,2,35,63,0,1
135217,-90.909090909091,4,2,35,63,0,0
140419,-90.909090909091,4,2,35,63,0,1
140766,-90.909090909091,4,2,35,63,0,0
145275,-166.666666666667,4,2,33,50,0,0
158454,-142.857142857143,4,2,33,55,0,0
162616,-142.857142857143,4,2,33,55,0,0
166777,-125,4,2,33,55,0,0
169552,-111.111111111111,4,2,33,55,0,0
175621,-125,4,2,33,55,0,0
176142,-99.9999999999999,4,2,33,55,0,0
176488,-111.111111111111,4,2,33,55,0,0
177009,-125,4,2,33,55,0,0
177529,-100,4,2,33,55,0,0
179263,-142.857142857143,4,2,33,55,0,0
179610,-142.857142857143,4,2,34,55,0,0
180650,-90.9090909090909,4,2,35,63,0,1
180997,-90.9090909090909,4,2,35,63,0,0
186199,-90.9090909090909,4,2,35,63,0,1
186546,-90.9090909090909,4,2,35,63,0,0
191749,-90.9090909090909,4,2,35,63,0,1
192095,-90.9090909090909,4,2,35,63,0,0
197298,-90.9090909090909,4,2,35,63,0,1
197645,-90.9090909090909,4,2,35,63,0,0
202153,-166.666666666667,4,2,33,50,0,0

[Colours]
Combo1 : 153,153,153
Combo2 : 0,230,230

[HitObjects]
328,167,5853,6,0,P|342:204|344:244,1,80,2|0,0:0|0:0,0:0:0:0:
264,111,6199,1,0,0:0:0:0:
404,139,6373,2,0,P|427:214|417:294,1,160,2|0,0:0|0:0,0:0:0:0:
341,87,6893,1,0,0:0:0:0:
141,253,7240,6,0,P|101:248|66:230,1,80,2|0,0:0|0:0,0:0:0:0:
207,195,7587,1,0,0:0:0:0:
166,332,7760,2,0,P|87:328|15:295,1,160,10|0,0:0|0:0,0:0:0:0:
224,274,8280,1,8,0:0:0:0:
352,72,8627,6,0,P|329:210|439:123,1,359.999989013672,2|0,0:0|0:0,0:0:0:0:
187,97,10014,5,8,0:1:0:0:
187,97,10188,1,8,0:1:0:0:
41,91,10361,1,8,0:1:0:0:
41,91,10535,1,8,0:1:0:0:
217,25,10708,5,8,0:1:0:0:
166,173,10882,1,8,0:1:0:0:
119,63,11055,1,8,0:1:0:0:
253,143,11228,1,8,0:1:0:0:
77,198,11402,6,0,P|108:249|158:263,1,80,4|0,0:1|0:0,0:0:0:0:
285,223,11749,2,0,P|291:262|281:300,1,80
166,173,12095,6,0,P|158:134|171:96,1,80,8|0,0:0|0:0,0:0:0:0:
339,100,12442,2,0,P|351:137|343:176,1,80
201,24,12789,5,2,0:0:0:0:
201,24,13136,1,0,0:0:0:0:
365,23,13309,1,8,0:0:0:0:
130,89,13483,2,0,P|109:56|106:17,1,80,8|0,0:0|0:0,0:0:0:0:
325,100,13829,1,8,0:0:0:0:
325,100,14176,5,2,0:0:0:0:
250,191,14350,1,0,0:0:0:0:
447,169,14523,1,0,0:0:0:0:
276,264,14697,1,0,0:0:0:0:
235,88,14870,6,0,P|248:51|278:25,1,80,8|0,0:0|0:0,0:0:0:0:
435,90,15217,1,0,0:0:0:0:
435,90,15390,1,0,0:0:0:0:
382,238,15564,6,0,L|392:338,1,80,2|0,0:0|0:0,0:0:0:0:
255,379,15910,2,0,L|275:296,1,80
320,173,16257,5,2,0:3:0:0:
170,243,16431,1,2,0:3:0:0:
170,243,16517,1,2,0:3:0:0:
170,243,16604,1,2,0:3:0:0:
202,161,16777,1,2,0:3:0:0:
173,327,16951,6,0,P|133:320|102:295,1,80,2|0,0:0|0:0,0:0:0:0:
100,125,17298,1,0,0:0:0:0:
242,281,17471,1,0,0:0:0:0:
30,82,17645,6,0,P|58:54|96:42,1,80,8|0,0:0|0:0,0:0:0:0:
156,185,17991,1,0,0:0:0:0:
11,157,18165,1,0,0:0:0:0:
331,95,18338,6,0,P|330:134|308:171,1,80,2|0,0:0|0:0,0:0:0:0:
100,125,18685,1,0,0:0:0:0:
253,111,18858,1,8,0:0:0:0:
40,187,19032,6,0,P|19:154|16:115,1,80,8|0,0:0|0:0,0:0:0:0:
103,9,19379,1,8,0:0:0:0:
75,340,19725,5,2,0:0:0:0:
6,267,19899,1,0,0:0:0:0:
172,320,20072,2,0,P|211:324|251:320,1,80
276,157,20419,6,0,P|257:191|259:231,1,80,8|0,0:0|0:0,0:0:0:0:
357,118,20766,1,0,0:0:0:0:
203,112,20939,1,0,0:0:0:0:
356,31,21113,5,8,0:1:0:0:
349,209,21286,1,8,0:1:0:0:
280,68,21460,1,8,0:1:0:0:
427,169,21633,1,8,0:1:0:0:
203,112,21806,5,8,0:1:0:0:
436,2,21980,1,8,0:1:0:0:
422,249,22153,1,8,0:1:0:0:
276,157,22327,1,8,0:1:0:0:
459,183,22500,6,0,P|479:149|488:110,1,80,2|0,0:0|0:0,0:0:0:0:
360,167,22847,2,0,P|383:136|398:97,1,80
169,164,23194,6,0,P|149:198|140:237,1,80,8|0,0:0|0:0,0:0:0:0:
268,180,23541,2,0,P|245:211|230:250,1,80
233,94,23887,5,2,0:0:0:0:
360,167,24061,1,0,0:0:0:0:
327,44,24234,1,0,0:0:0:0:
199,125,24408,1,8,0:0:0:0:
399,242,24581,6,0,P|428:216|440:178,1,80,8|0,0:0|0:0,0:0:0:0:
301,113,24928,1,8,0:0:0:0:
457,104,25101,1,0,0:0:0:0:
323,267,25275,6,0,P|342:301|377:320,1,80,2|0,0:0|0:0,0:0:0:0:
500,261,25621,1,0,0:3:0:0:
413,163,25795,1,0,0:3:0:0:
248,315,25968,6,0,P|234:279|239:235,1,80,8|0,0:0|0:0,0:0:0:0:
369,86,26315,2,0,B|327:102|327:75|280:89,1,80
413,163,26662,5,2,0:0:0:0:
434,23,26835,1,0,0:0:0:0:
326,167,27009,1,0,0:0:0:0:
492,83,27182,1,0,0:0:0:0:
310,82,27356,5,2,0:3:0:0:
499,172,27529,1,2,0:3:0:0:
499,172,27616,1,2,0:3:0:0:
498,172,27702,2,0,P|488:210|461:238,1,80,2|0,0:3|0:3,0:0:0:0:
248,128,28049,6,0,P|280:94|318:81,1,80,2|0,0:0|0:0,0:0:0:0:
257,215,28396,2,0,P|197:199|163:148,1,120
186,71,28743,5,8,0:0:0:0:
186,71,29090,2,0,L|93:70,1,80
366,171,29436,6,0,P|376:132|365:94,1,80,2|0,0:0|0:0,0:0:0:0:
257,215,29783,1,0,0:0:0:0:
257,215,29957,1,8,0:0:0:0:
462,145,30130,6,0,P|459:97|442:51,1,80,8|0,0:0|0:0,0:0:0:0:
269,136,30477,2,0,P|257:174|256:214,1,80,8|0,0:0|0:0,0:0:0:0:
350,92,30824,6,0,P|325:62|290:44,1,80,2|0,0:0|0:0,0:0:0:0:
344,176,31171,1,0,0:0:0:0:
209,72,31344,1,0,0:0:0:0:
455,68,31517,6,0,P|467:105|462:145,1,80,8|0,0:0|0:0,0:0:0:0:
260,297,31864,2,0,P|254:257|266:219,1,80
339,30,32211,5,8,0:1:0:0:
269,136,32384,1,8,0:1:0:0:
212,36,32558,5,8,0:1:0:0:
196,190,32731,1,8,0:1:0:0:
98,120,32905,5,8,0:1:0:0:
175,278,33078,1,8,0:1:0:0:
19,244,33251,5,8,0:1:0:0:
224,348,33425,1,8,0:1:0:0:
19,244,33598,6,0,P|19:209|37:179,1,69.9999978637696,6|0,0:0|0:0,0:0:0:0:
74,149,33858,1,0,0:0:0:0:
74,149,33945,1,0,0:0:0:0:
154,204,34119,2,0,P|188:208|223:202,1,69.9999978637696,8|2,0:0|0:0,0:0:0:0:
307,152,34465,1,0,0:0:0:0:
398,187,34639,2,0,P|391:221|375:252,1,69.9999978637696,8|0,0:0|0:0,0:0:0:0:
294,308,34986,6,0,L|279:225,1,69.9999978637696,2|0,0:0|0:0,0:0:0:0:
268,191,35246,1,0,0:0:0:0:
268,191,35332,1,0,0:0:0:0:
187,247,35506,1,8,0:0:0:0:
184,149,35679,2,0,P|207:123|237:103,1,69.9999978637696,2|0,0:0|0:0,0:0:0:0:
145,64,36026,2,0,P|178:31|213:15,1,69.9999978637696,8|0,0:0|0:0,0:0:0:0:
295,38,36373,6,0,P|329:43|364:41,1,69.9999978637696,2|0,0:0|0:0,0:0:0:0:
410,23,36633,1,0,0:0:0:0:
410,23,36720,1,0,0:0:0:0:
466,103,36893,2,0,P|461:137|461:180,1,69.9999978637696,8|2,0:0|0:0,0:0:0:0:
488,266,37240,1,0,0:0:0:0:
393,242,37413,1,8,0:0:0:0:
421,336,37587,1,0,0:0:0:0:
327,306,37760,6,0,P|310:275|306:240,1,69.9999978637696,2|2,0:0|0:3,0:0:0:0:
320,193,38020,1,2,0:3:0:0:
320,193,38107,1,2,0:3:0:0:
407,148,38280,1,8,0:0:0:0:
321,99,38454,2,0,P|286:107|256:127,1,69.9999978637696,2|0,0:0|0:0,0:0:0:0:
265,28,38801,2,0,P|232:39|204:60,1,69.9999978637696,8|0,0:0|0:0,0:0:0:0:
158,146,39147,6,0,P|123:144|89:136,1,69.9999978637696,2|0,0:1|0:0,0:0:0:0:
49,106,39408,1,0,0:0:0:0:
49,106,39494,1,0,0:0:0:0:
21,200,39668,2,0,L|29:294,1,69.9999978637696,8|2,0:0|0:0,0:0:0:0:
95,338,40014,1,0,0:0:0:0:
119,242,40188,2,0,L|135:168,1,69.9999978637696,8|0,0:0|0:0,0:0:0:0:
210,111,40535,6,0,L|225:194,1,69.9999978637696,2|0,0:0|0:0,0:0:0:0:
236,228,40795,1,0,0:0:0:0:
236,228,40881,1,0,0:0:0:0:
317,173,41055,1,8,0:0:0:0:
383,244,41228,2,0,P|377:274|350:310,1,69.9999978637696,2|0,0:0|0:0,0:0:0:0:
452,312,41575,2,0,P|435:351|415:371,1,69.9999978637696,8|0,0:0|0:0,0:0:0:0:
317,370,41922,6,0,P|284:357|249:356,1,69.9999978637696,2|0,0:0|0:0,0:0:0:0:
201,366,42182,1,0,0:0:0:0:
201,366,42269,1,0,0:0:0:0:
217,269,42442,2,0,P|225:234|222:199,1,69.9999978637696,8|2,0:0|0:0,0:0:0:0:
166,119,42789,1,0,0:0:0:0:
135,211,42962,1,8,0:0:0:0:
71,135,43136,1,0,0:0:0:0:
111,46,43309,6,0,P|146:31|186:29,1,69.9999978637696,2|2,0:0|0:3,0:0:0:0:
223,46,43569,1,2,0:3:0:0:
223,46,43656,1,2,0:3:0:0:
265,134,43830,1,8,0:0:0:0:
341,195,44003,2,0,P|356:162|361:128,1,69.9999978637696,2|0,0:0|0:0,0:0:0:0:
340,32,44350,2,0,L|428:53,1,69.9999978637696,8|0,0:0|0:0,0:0:0:0:
425,173,44697,6,0,P|419:233|307:278,1,179.999994506836,2|8,0:0|0:0,0:0:0:0:
367,115,45217,1,0,0:0:0:0:
450,313,45390,1,2,0:0:0:0:
450,312,45737,2,0,P|480:279|496:238,1,89.9999972534181,8|0,0:0|0:0,0:0:0:0:
493,65,46084,6,0,L|499:158,1,89.9999972534181,2|0,0:0|0:0,0:0:0:0:
406,0,46431,2,0,L|401:97,1,89.9999972534181,8|0,0:0|0:0,0:0:0:0:
308,67,46777,6,0,L|324:168,1,89.9999972534181,2|0,0:0|0:0,0:0:0:0:
228,10,47124,2,0,L|207:106,1,89.9999972534181,8|0,0:0|0:0,0:0:0:0:
372,8,47471,5,2,0:0:0:0:
228,10,47645,1,0,0:0:0:0:
360,133,47818,1,8,0:0:0:0:
208,97,47991,1,0,0:0:0:0:
357,216,48165,6,0,P|400:206|432:175,1,89.9999972534181,2|0,0:0|0:0,0:0:0:0:
281,169,48512,2,0,P|264:210|271:254,1,89.9999972534181,8|0,0:0|0:0,0:0:0:0:
360,133,48858,6,0,P|332:98|290:83,1,89.9999972534181,2|2,0:0|0:3,0:0:0:0:
235,93,49119,1,2,0:3:0:0:
235,93,49205,1,2,0:3:0:0:
449,163,49379,6,0,P|456:116|436:56,1,89.9999972534181,0|2,0:0|0:0,0:0:0:0:
339,36,49725,1,0,0:0:0:0:
385,211,49899,2,0,P|426:243|477:237,1,89.9999972534181,8|0,0:0|0:0,0:0:0:0:
430,76,50246,5,2,0:0:0:0:
300,127,50419,1,8,0:0:0:0:
339,36,50593,1,2,0:0:0:0:
392,164,50766,1,8,0:0:0:0:
220,87,50939,5,2,0:0:0:0:
248,241,51113,1,8,0:0:0:0:
392,164,51286,2,0,P|399:211|390:264,1,89.9999972534181,2|8,0:0|0:0,0:0:0:0:
227,171,51633,5,2,0:0:0:0:
339,36,51806,1,8,0:0:0:0:
141,151,51980,1,2,0:0:0:0:
378,100,52153,1,8,0:0:0:0:
90,75,52327,5,2,0:0:0:0:
300,127,52500,1,8,0:0:0:0:
157,16,52673,1,2,0:0:0:0:
55,155,52847,1,8,0:0:0:0:
315,165,53021,5,2,0:0:0:0:
162,180,53194,1,2,0:0:0:0:
252,288,53368,1,2,0:0:0:0:
220,88,53541,1,2,0:0:0:0:
53,177,53714,5,2,0:0:0:0:
244,203,53888,1,2,0:0:0:0:
76,76,54061,1,2,0:0:0:0:
40,290,54235,1,2,0:0:0:0:
293,119,54408,5,2,0:0:0:0:
305,345,54581,1,2,0:0:0:0:
126,255,54754,1,2,0:0:0:0:
349,238,54928,1,2,0:0:0:0:
190,347,55101,5,2,0:0:0:0:
244,203,55275,1,2,0:0:0:0:
426,268,55448,2,0,P|426:202|378:158,1,134.999995880127,4|0,0:0|0:0,0:0:0:0:
300,127,55795,5,6,0:1:0:0:
494,152,55968,1,0,0:0:0:0:
244,203,56142,1,8,0:0:0:0:
307,40,56315,6,0,L|421:47,1,110.000003356934
488,105,56662,1,8,0:0:0:0:
212,120,56835,2,0,P|189:70|193:16,1,110.000003356934,8|0,0:0|0:0,0:0:0:0:
333,203,57182,5,2,0:0:0:0:
267,12,57355,1,0,0:0:0:0:
244,203,57529,1,8,0:0:0:0:
367,277,57702,6,0,P|409:242|418:189,1,110.000003356934
360,111,58049,1,2,0:0:0:0:
162,185,58222,2,0,P|165:238|160:302,1,110.000003356934,8|2,0:0|0:0,0:0:0:0:
114,118,58569,5,2,0:0:0:0:
229,316,58743,1,0,0:0:0:0:
79,191,58916,1,8,0:0:0:0:
244,203,59090,6,0,B|295:199|328:161|328:161|294:156,1,110.000003356934
217,123,59436,1,2,0:0:0:0:
292,279,59610,1,8,0:0:0:0:
96,298,59783,2,0,P|82:244|78:190,1,110.000003356934,0|2,0:0|0:0,0:0:0:0:
168,56,60130,5,2,0:3:0:0:
168,56,60217,1,2,0:3:0:0:
168,56,60304,1,2,0:3:0:0:
308,136,60477,2,0,P|296:83|257:44,1,110.000003356934,2|0,0:3|0:0,0:0:0:0:
119,187,60824,5,2,0:0:0:0:
350,211,60997,1,8,0:0:0:0:
91,187,61171,1,2,0:0:0:0:
418,273,61344,6,0,P|439:212|422:167,1,110.000003356934,6|0,0:1|0:0,0:0:0:0:
254,173,61691,2,0,P|296:208|350:210,1,110.000003356934,8|0,0:0|0:0,0:0:0:0:
422,39,62038,6,0,P|377:70|361:121,1,110.000003356934,0|2,0:0|0:0,0:0:0:0:
418,273,62384,2,0,P|439:212|422:167,1,110.000003356934,8|0,0:0|0:0,0:0:0:0:
117,197,62731,5,2,0:0:0:0:
349,210,62905,1,0,0:0:0:0:
91,187,63078,1,8,0:0:0:0:
418,273,63251,6,0,P|439:212|422:167,1,110.000003356934
336,296,63598,1,2,0:0:0:0:
397,354,63772,1,8,0:0:0:0:
349,210,63945,1,2,0:0:0:0:
263,344,64119,6,0,P|250:292|268:241,1,110.000003356934,2|2,0:0|0:3,0:0:0:0:
349,210,64379,1,2,0:3:0:0:
349,210,64465,1,2,0:3:0:0:
479,338,64639,6,0,P|502:289|496:235,1,110.000003356934
420,69,64986,2,0,L|430:188,1,110.000003356934,2|8,0:0|0:0,0:0:0:0:
283,254,65332,6,0,P|273:165|349:211,1,220.000006713867
356,297,65853,1,8,0:0:0:0:
356,297,66026,1,2,0:0:0:0:
185,264,66199,2,0,P|169:212|181:157,1,110.000003356934,8|2,0:0|0:0,0:0:0:0:
283,254,66546,1,2,0:0:0:0:
283,254,66720,1,2,0:0:0:0:
79,281,66893,5,6,0:1:0:0:
254,175,67066,1,0,0:0:0:0:
100,172,67240,1,8,0:0:0:0:
283,254,67413,6,0,P|327:211|331:155,1,110.000003356934
284,97,67760,1,2,0:0:0:0:
399,234,67933,2,0,L|515:216,1,110.000003356934,8|0,0:0|0:0,0:0:0:0:
361,305,68280,5,2,0:0:0:0:
432,136,68453,1,0,0:0:0:0:
254,175,68627,1,8,0:0:0:0:
395,384,68800,6,0,P|437:349|446:296,1,110.000003356934
344,161,69147,1,2,0:0:0:0:
194,237,69320,2,0,P|191:291|199:355,1,110.000003356934,8|2,0:0|0:0,0:0:0:0:
164,147,69667,5,2,0:0:0:0:
284,248,69841,1,0,0:0:0:0:
106,215,70014,1,8,0:0:0:0:
336,313,70188,6,0,B|375:283|379:229|379:229|352:236,1,110.000003356934
284,248,70534,1,2,0:0:0:0:
453,230,70708,1,8,0:0:0:0:
222,306,70881,2,0,P|197:253|216:200,1,110.000003356934,0|2,0:0|0:0,0:0:0:0:
335,158,71228,5,2,0:3:0:0:
335,158,71315,1,2,0:3:0:0:
335,158,71402,1,2,0:3:0:0:
382,5,71575,2,0,P|408:52|407:106,1,110.000003356934,2|0,0:3|0:0,0:0:0:0:
105,130,71922,5,2,0:0:0:0:
335,158,72095,1,8,0:0:0:0:
77,123,72269,1,2,0:0:0:0:
411,208,72442,6,0,P|425:145|403:102,1,110.000003356934,6|0,0:1|0:0,0:0:0:0:
330,251,72789,2,0,P|366:292|419:302,1,110.000003356934,8|0,0:0|0:0,0:0:0:0:
335,158,73136,6,0,P|281:168|246:209,1,110.000003356934,0|2,0:0|0:0,0:0:0:0:
411,208,73483,2,0,P|425:145|403:102,1,110.000003356934,8|0,0:0|0:0,0:0:0:0:
196,335,73829,5,2,0:0:0:0:
335,158,74003,1,0,0:0:0:0:
175,353,74176,1,8,0:0:0:0:
418,121,74349,6,0,P|373:73|326:67,1,110.000003356934
253,198,74696,1,2,0:0:0:0:
335,158,74870,2,0,P|338:212|336:283,1,110.000003356934,8|0,0:0|0:0,0:0:0:0:
259,108,75217,6,0,P|299:73|360:72,1,110.000003356934,2|2,0:0|0:3,0:0:0:0:
418,121,75477,1,2,0:3:0:0:
418,121,75563,1,2,0:3:0:0:
407,207,75737,1,0,0:0:0:0:
187,148,75910,6,0,P|175:85|206:43,1,110.000003356934,0|2,0:0|0:0,0:0:0:0:
278,30,76257,1,8,0:0:0:0:
257,191,76431,1,2,0:3:0:0:
109,82,76604,6,0,L|-11:102,1,110.000003356934,2|0,0:0|0:0,0:0:0:0:
187,148,76951,2,0,L|71:171,1,110.000003356934,8|2,0:0|0:0,0:0:0:0:
167,20,77298,5,2,0:0:0:0:
211,259,77471,2,0,B|245:284|288:268|288:268|295:285|295:285|336:263|376:275,1,179.999994506836,2|0,0:0|0:0,0:0:0:0:
331,222,79379,6,0,P|339:261|333:311,2,80,2|2|0,0:0|0:0|0:0,0:0:0:0:
259,268,79899,1,0,0:0:0:0:
362,149,80072,6,0,P|398:189|410:235,1,80
352,72,80419,2,0,P|400:83|429:112,1,80
287,119,80766,5,2,0:0:0:0:
287,119,80939,1,2,0:0:0:0:
215,82,81113,1,0,0:0:0:0:
215,82,81286,1,0,0:0:0:0:
220,161,81460,6,0,P|177:172|147:200,1,80
51,223,81806,2,0,P|87:238|116:265,1,80
205,335,82153,6,0,L|294:318,2,80,2|2|0,0:0|0:0|0:0,0:0:0:0:
140,378,82673,1,0,0:0:0:0:
343,370,82847,6,0,P|357:336|351:289,1,80
205,335,83194,2,0,P|191:298|196:259,1,80
84,320,83540,6,0,L|8:349,1,59.9999981689454,8|0,0:0|0:0,0:0:0:0:
107,238,83887,6,0,L|35:251,1,69.9999978637696,8|0,0:0|0:0,0:0:0:0:
160,161,84234,6,0,L|77:157,1,80,8|0,0:0|0:0,0:0:0:0:
206,86,84581,6,0,L|103:69,1,89.9999972534181,8|0,0:0|0:0,0:0:0:0:
248,158,84928,6,0,P|283:122|289:81,2,80,2|2|0,0:0|0:0|0:0,0:0:0:0:
206,86,85448,1,0,0:0:0:0:
258,11,85621,6,0,L|353:30,1,80
473,41,85968,2,0,L|383:84,1,80
349,138,86315,5,2,0:0:0:0:
349,138,86488,1,2,0:0:0:0:
434,144,86662,1,0,0:0:0:0:
434,144,86835,1,0,0:0:0:0:
352,221,87009,6,0,P|312:217|283:190,1,80
253,39,87356,2,0,P|271:74|273:114,1,80
96,37,87702,6,0,L|179:62,2,80,2|2|0,0:0|0:0|0:0,0:0:0:0:
26,85,88223,1,0,0:0:0:0:
184,137,88396,2,0,P|220:123|244:91,1,80
100,130,88743,2,0,P|111:187|136:212,1,80
253,180,89090,5,8,0:1:0:0:
73,219,89263,1,8,0:1:0:0:
190,108,89437,1,8,0:1:0:0:
136,288,89610,1,8,0:1:0:0:
100,130,89783,5,8,0:1:0:0:
253,180,89957,1,8,0:1:0:0:
198,349,90130,1,8,0:1:0:0:
163,198,90304,1,8,0:1:0:0:
307,247,90477,5,2,0:0:0:0:
307,247,90650,2,0,P|337:211|342:171,1,80,2|0,0:0|0:0,0:0:0:0:
218,263,90997,2,0,P|245:314|358:326,1,160,8|0,0:0|0:0,0:0:0:0:
391,265,91517,1,8,0:0:0:0:
80,345,91864,6,0,P|36:346|-3:337,1,80,2|0,0:0|0:0,0:0:0:0:
120,258,92211,2,0,P|65:268|35:266,1,80,0|8,0:0|0:0,0:0:0:0:
160,345,92558,6,0,P|204:346|243:337,1,80
120,258,92905,2,0,P|175:268|205:266,1,80,8|0,0:0|0:0,0:0:0:0:
89,183,93251,5,2,0:0:0:0:
272,239,93425,1,2,0:0:0:0:
211,112,93598,1,0,0:0:0:0:
120,258,93772,1,8,0:0:0:0:
286,152,93945,5,0,0:0:0:0:
286,152,94119,1,0,0:0:0:0:
126,107,94292,1,8,0:0:0:0:
199,267,94465,1,0,0:0:0:0:
352,201,94639,5,2,0:0:0:0:
338,356,94812,1,8,0:0:0:0:
272,239,94986,1,2,0:0:0:0:
422,164,95159,1,8,0:0:0:0:
434,316,95332,6,0,P|491:295|509:260,1,80,8|0,0:0|0:0,0:0:0:0:
353,282,95679,1,8,0:0:0:0:
353,282,95853,1,8,0:0:0:0:
184,204,96026,5,2,0:0:0:0:
184,204,96199,2,0,P|177:250|194:286,1,80,2|0,0:0|0:0,0:0:0:0:
225,125,96546,2,0,B|144:92|144:157|57:124,1,160,8|0,0:0|0:0,0:0:0:0:
18,56,97066,1,8,0:0:0:0:
340,162,97413,6,0,P|344:117|341:83,1,80,2|0,0:0|0:0,0:0:0:0:
378,235,97760,2,0,P|410:203|424:159,1,80,0|8,0:0|0:0,0:0:0:0:
251,165,98107,6,0,P|247:120|250:86,1,80
213,238,98454,2,0,P|181:206|167:162,1,80,8|0,0:0|0:0,0:0:0:0:
340,162,98800,5,2,0:0:0:0:
195,276,98974,1,2,0:0:0:0:
378,235,99147,1,0,0:0:0:0:
168,174,99321,1,8,0:0:0:0:
421,166,99494,6,0,P|409:113|381:86,1,80
464,243,99841,2,0,P|491:215|502:175,1,80,8|0,0:0|0:0,0:0:0:0:
270,219,100188,5,2,0:0:0:0:
421,166,100361,1,2,0:0:0:0:
240,142,100535,1,2,0:0:0:0:
378,235,100708,1,2,0:0:0:0:
303,32,100882,6,0,L|316:116,1,80,8|0,0:0|0:0,0:0:0:0:
424,8,101228,2,0,L|391:94,1,80
250,297,101575,6,0,P|217:283|197:255,1,69.9999978637696,6|0,0:0|0:0,0:0:0:0:
184,209,101835,1,0,0:0:0:0:
184,209,101922,1,0,0:0:0:0:
206,113,102096,2,0,P|171:118|136:115,1,69.9999978637696,8|2,0:0|0:0,0:0:0:0:
54,62,102442,1,0,0:0:0:0:
17,153,102616,2,0,P|22:193|19:239,1,69.9999978637696,8|0,0:0|0:0,0:0:0:0:
7,320,102963,6,0,L|86:339,1,69.9999978637696,2|0,0:0|0:0,0:0:0:0:
123,343,103223,1,0,0:0:0:0:
123,343,103309,1,0,0:0:0:0:
135,245,103483,1,8,0:0:0:0:
225,280,103656,2,0,L|312:287,1,69.9999978637696,2|0,0:0|0:0,0:0:0:0:
380,334,104003,2,0,L|311:369,1,69.9999978637696,8|0,0:0|0:0,0:0:0:0:
219,367,104350,6,0,P|188:349|155:340,1,69.9999978637696,2|0,0:0|0:0,0:0:0:0:
107,354,104610,1,0,0:0:0:0:
107,354,104697,1,0,0:0:0:0:
9,353,104870,2,0,P|9:318|14:283,1,69.9999978637696,8|2,0:0|0:0,0:0:0:0:
79,209,105217,1,0,0:0:0:0:
165,255,105390,1,8,0:0:0:0:
171,156,105564,1,0,0:0:0:0:
84,110,105737,6,0,P|74:75|78:40,1,69.9999978637696,2|2,0:0|0:3,0:0:0:0:
121,18,105997,1,2,0:3:0:0:
121,18,106084,1,2,0:3:0:0:
202,71,106257,1,8,0:0:0:0:
289,27,106431,2,0,L|295:109,1,69.9999978637696,2|0,0:0|0:0,0:0:0:0:
368,160,106778,2,0,L|379:81,1,69.9999978637696,8|0,0:0|0:0,0:0:0:0:
457,34,107124,6,0,L|471:115,1,69.9999978637696,2|0,0:0|0:0,0:0:0:0:
479,151,107385,1,0,0:0:0:0:
479,151,107471,1,0,0:0:0:0:
465,248,107645,2,0,P|430:253|398:268,1,69.9999978637696,8|2,0:0|0:0,0:0:0:0:
334,341,107991,1,0,0:0:0:0:
297,249,108165,2,0,P|305:213|298:172,1,69.9999978637696,8|0,0:0|0:0,0:0:0:0:
202,178,108512,6,0,P|194:211|198:246,1,69.9999978637696,2|0,0:0|0:0,0:0:0:0:
226,286,108772,1,0,0:0:0:0:
226,286,108858,1,0,0:0:0:0:
313,331,109032,1,8,0:0:0:0:
224,372,109205,2,0,L|144:359,1,69.9999978637696,2|0,0:0|0:0,0:0:0:0:
67,316,109552,2,0,L|141:273,1,69.9999978637696,8|0,0:0|0:0,0:0:0:0:
187,202,109899,6,0,L|101:190,1,69.9999978637696,2|0,0:0|0:0,0:0:0:0:
68,187,110159,1,0,0:0:0:0:
68,187,110246,1,0,0:0:0:0:
21,100,110419,2,0,L|95:78,1,69.9999978637696,8|2,0:0|0:0,0:0:0:0:
183,54,110766,1,0,0:0:0:0:
229,139,110939,1,8,0:0:0:0:
293,64,111113,1,0,0:0:0:0:
339,149,111286,6,0,P|370:128|388:90,1,69.9999978637696,2|2,0:0|0:3,0:0:0:0:
386,50,111546,1,2,0:3:0:0:
386,50,111633,1,2,0:3:0:0:
293,64,111807,1,8,0:0:0:0:
229,139,111980,2,0,L|236:229,1,69.9999978637696,2|0,0:0|0:0,0:0:0:0:
331,221,112327,2,0,L|308:288,1,69.9999978637696,8|0,0:0|0:0,0:0:0:0:
158,203,112673,6,0,P|132:148|205:52,1,179.999994506836,2|8,0:0|0:0,0:0:0:0:
237,222,113193,1,0,0:0:0:0:
64,95,113366,1,2,0:0:0:0:
64,96,113714,2,0,P|55:139|62:183,1,89.9999972534181,8|0,0:0|0:0,0:0:0:0:
138,345,114060,6,0,L|22:360,1,89.9999972534181,2|0,0:0|0:0,0:0:0:0:
186,274,114407,2,0,L|93:255,1,89.9999972534181,8|0,0:0|0:0,0:0:0:0:
138,163,114754,6,0,L|43:181,1,89.9999972534181,2|0,0:0|0:0,0:0:0:0:
186,69,115101,2,0,L|86:66,1,89.9999972534181,8|0,0:0|0:0,0:0:0:0:
238,147,115447,5,2,0:0:0:0:
242,10,115621,1,0,0:0:0:0:
368,88,115794,1,8,0:0:0:0:
186,69,115967,1,0,0:0:0:0:
402,172,116141,6,0,P|443:139|455:99,1,89.9999972534181,2|0,0:0|0:0,0:0:0:0:
319,165,116488,2,0,L|323:269,1,89.9999972534181,8|0,0:0|0:0,0:0:0:0:
238,147,116835,6,0,P|255:105|295:82,1,89.9999972534181,2|2,0:0|0:3,0:0:0:0:
349,77,117095,1,2,0:3:0:0:
349,77,117181,1,2,0:3:0:0:
260,237,117355,6,0,L|160:232,1,89.9999972534181,0|2,0:0|0:0,0:0:0:0:
319,165,117701,1,0,0:0:0:0:
305,325,117875,2,0,L|403:311,1,89.9999972534181,8|0,0:0|0:0,0:0:0:0:
404,137,118223,5,2,0:0:0:0:
282,147,118396,1,8,0:0:0:0:
338,41,118570,1,2,0:0:0:0:
349,208,118743,1,8,0:0:0:0:
216,97,118916,5,2,0:0:0:0:
250,249,119090,1,8,0:0:0:0:
149,49,119263,2,0,P|189:20|252:21,1,89.9999972534181,2|8,0:0|0:0,0:0:0:0:
360,115,119610,5,2,0:0:0:0:
142,201,119783,1,8,0:0:0:0:
330,293,119957,1,2,0:0:0:0:
216,97,120130,1,8,0:0:0:0:
167,271,120304,5,2,0:0:0:0:
117,20,120477,1,8,0:0:0:0:
0,117,120650,1,2,0:0:0:0:
204,180,120824,1,8,0:0:0:0:
105,122,120998,5,2,0:0:0:0:
374,126,121171,1,2,0:0:0:0:
256,251,121345,1,2,0:0:0:0:
215,34,121518,1,2,0:0:0:0:
125,258,121691,5,2,0:0:0:0:
289,141,121865,1,2,0:0:0:0:
78,178,122038,1,2,0:0:0:0:
187,320,122212,1,2,0:0:0:0:
282,38,122385,5,2,0:0:0:0:
440,206,122558,1,2,0:0:0:0:
242,254,122731,1,2,0:0:0:0:
405,94,122905,1,2,0:0:0:0:
345,299,123078,5,2,0:0:0:0:
289,141,123252,1,2,0:0:0:0:
488,121,123425,2,0,P|486:56|436:12,1,134.999995880127,4|0,0:0|0:0,0:0:0:0:
349,19,123772,5,6,0:1:0:0:
440,206,123945,1,0,0:0:0:0:
230,144,124119,1,8,0:0:0:0:
508,253,124292,6,0,P|527:202|503:141,1,110.000003356934
349,162,124639,1,2,0:0:0:0:
295,318,124812,2,0,B|259:326|222:298|222:298|193:324,1,110.000003356934,8|0,0:0|0:0,0:0:0:0:
283,230,125159,5,2,0:0:0:0:
134,376,125332,1,0,0:0:0:0:
377,345,125506,1,8,0:0:0:0:
260,148,125679,6,0,P|214:177|198:229,1,110.000003356934
236,305,126026,1,2,0:0:0:0:
140,113,126199,2,0,L|27:132,1,110.000003356934,8|2,0:0|0:0,0:0:0:0:
147,26,126546,5,2,0:0:0:0:
260,148,126720,1,0,0:0:0:0:
86,203,126893,1,8,0:0:0:0:
340,153,127067,6,0,P|359:102|310:109,1,110.000003356934
260,148,127413,1,2,0:0:0:0:
321,298,127587,1,8,0:0:0:0:
441,154,127760,2,0,P|440:99|415:50,1,110.000003356934,0|2,0:0|0:0,0:0:0:0:
303,31,128107,5,2,0:3:0:0:
303,31,128194,1,2,0:3:0:0:
303,31,128281,1,2,0:3:0:0:
287,230,128454,2,0,P|229:226|183:184,1,110.000003356934,2|0,0:3|0:0,0:0:0:0:
210,75,128801,5,2,0:0:0:0:
237,306,128974,1,8,0:0:0:0:
208,48,129148,1,2,0:0:0:0:
287,384,129321,6,0,P|323:330|319:283,1,110.000003356934,6|0,0:1|0:0,0:0:0:0:
155,244,129668,2,0,P|185:288|236:306,1,110.000003356934,8|0,0:0|0:0,0:0:0:0:
354,159,130015,6,0,P|301:176|272:220,1,110.000003356934,0|2,0:0|0:0,0:0:0:0:
287,384,130361,2,0,P|323:330|319:283,1,110.000003356934,8|0,0:0|0:0,0:0:0:0:
216,170,130708,5,2,2:0:0:0:
427,265,130882,1,0,2:0:0:0:
195,151,131055,1,8,2:0:0:0:
469,348,131228,6,0,P|510:298|516:250,1,110.000003356934,0|0,2:0|2:0,2:0:0:0:
427,265,131575,1,2,0:0:0:0:
383,343,131749,1,8,0:0:0:0:
342,265,131922,1,2,0:0:0:0:
422,161,132095,6,0,P|440:211|427:264,1,110.000003356934,2|2,0:0|0:3,0:0:0:0:
383,343,132356,1,2,0:3:0:0:
383,343,132442,1,2,0:3:0:0:
252,232,132616,6,0,P|283:187|334:171,1,110.000003356934
487,272,132963,2,0,L|351:256,1,110.000003356934,2|8,0:0|0:0,0:0:0:0:
168,219,133309,6,0,P|109:287|198:291,1,220.000006713867
252,232,133830,1,2,0:0:0:0:
252,232,134003,1,2,0:0:0:0:
39,211,134176,2,0,P|23:262|35:318,1,110.000003356934,8|2,0:0|0:0,0:0:0:0:
196,293,134523,1,2,0:0:0:0:
196,293,134697,1,2,0:0:0:0:
294,161,134870,5,6,0:1:0:0:
112,276,135043,1,0,0:0:0:0:
280,306,135217,1,8,0:0:0:0:
121,178,135390,6,0,P|95:224|111:275,1,110.000003356934
196,293,135737,1,2,0:0:0:0:
147,87,135910,2,0,L|34:103,1,110.000003356934,8|0,0:0|0:0,0:0:0:0:
184,10,136257,5,2,0:0:0:0:
121,178,136430,1,0,0:0:0:0:
311,134,136604,1,8,0:0:0:0:
107,25,136777,6,0,B|87:24|87:24|102:72|153:89,1,110.000003356934
287,47,137124,1,2,0:0:0:0:
230,222,137297,2,0,P|223:167|226:112,1,110.000003356934,8|2,0:0|0:0,0:0:0:0:
324,222,137644,5,2,0:0:0:0:
121,178,137818,1,0,0:0:0:0:
311,134,137991,1,8,0:0:0:0:
140,265,138165,6,0,B|86:279|87:245|28:261,1,110.000003356934
8,342,138511,1,2,0:0:0:0:
121,178,138685,1,8,0:0:0:0:
201,332,138858,2,0,P|226:279|212:220,1,110.000003356934,0|2,0:0|0:0,0:0:0:0:
121,178,139205,5,2,0:3:0:0:
121,178,139292,1,2,0:3:0:0:
121,178,139379,1,2,0:3:0:0:
308,218,139552,2,0,P|363:231|420:216,1,110.000003356934,2|0,0:3|0:0,0:0:0:0:
359,94,139899,5,2,0:0:0:0:
423,316,140072,1,8,0:0:0:0:
354,65,140246,1,2,0:0:0:0:
497,360,140419,6,0,P|508:307|485:258,1,110.000003356934,6|0,0:1|0:0,0:0:0:0:
296,223,140766,2,0,P|346:244|398:229,1,110.000003356934,8|0,0:0|0:0,0:0:0:0:
493,78,141113,6,0,P|458:120|459:174,1,110.000003356934,0|2,0:0|0:0,0:0:0:0:
497,360,141460,2,0,P|508:307|485:258,1,110.000003356934,8|0,0:0|0:0,0:0:0:0:
376,151,141806,5,2,0:0:0:0:
200,290,141980,1,0,0:0:0:0:
403,139,142153,1,8,0:0:0:0:
162,362,142326,6,0,P|125:322|119:268,1,110.000003356934
179,206,142673,1,2,0:0:0:0:
243,130,142847,2,0,P|267:178|266:234,1,110.000003356934,8|0,0:0|0:0,0:0:0:0:
156,122,143194,6,0,P|184:69|239:46,1,110.000003356934,2|2,0:0|0:3,0:0:0:0:
303,70,143454,1,2,0:3:0:0:
303,70,143540,1,2,0:3:0:0:
327,151,143714,1,0,0:0:0:0:
280,313,143887,6,0,P|255:255|266:202,1,110.000003356934,0|2,0:0|0:0,0:0:0:0:
327,151,144234,1,8,0:0:0:0:
179,206,144408,1,2,0:3:0:0:
398,220,144581,6,0,L|417:103,1,110.000003356934,2|0,0:0|0:0,0:0:0:0:
438,321,144928,2,0,L|501:211,1,110.000003356934,8|0,0:0|0:0,0:0:0:0:
348,300,145275,5,2,0:0:0:0:
273,85,145448,2,0,B|250:102|249:129|249:129|231:139|231:139|272:182|256:239,1,179.999994506836,2|0,0:0|0:0,0:0:0:0:
216,315,158454,6,0,L|198:410,1,69.9999978637696,2|0,0:0|0:0,0:0:0:0:
291,244,158801,2,0,L|309:318,1,69.9999978637696,2|0,0:0|0:0,0:0:0:0:
223,153,159147,6,0,L|205:248,1,69.9999978637696,2|0,0:0|0:0,0:0:0:0:
298,82,159494,2,0,L|316:156,1,69.9999978637696,2|0,0:0|0:0,0:0:0:0:
149,115,159841,5,2,0:0:0:0:
364,32,160014,1,0,0:0:0:0:
220,70,160188,1,2,0:0:0:0:
375,113,160361,1,0,0:0:0:0:
223,153,160535,5,2,0:0:0:0:
439,58,160708,1,0,0:0:0:0:
305,170,160882,1,2,0:0:0:0:
285,8,161055,1,0,0:0:0:0:
387,196,161228,6,0,L|375:290,1,69.9999978637696,2|0,0:0|0:0,0:0:0:0:
296,101,161575,2,0,L|305:170,1,69.9999978637696,2|0,0:0|0:0,0:0:0:0:
186,67,161922,6,0,L|214:140,1,69.9999978637696,2|0,0:0|0:0,0:0:0:0:
60,80,162269,2,0,L|122:125,1,69.9999978637696,2|0,0:0|0:0,0:0:0:0:
111,11,162616,5,2,0:0:0:0:
9,146,162789,1,0,0:0:0:0:
144,235,162962,1,2,0:0:0:0:
60,80,163136,1,0,0:0:0:0:
181,155,163309,5,2,0:0:0:0:
40,225,163483,1,0,0:0:0:0:
152,79,163656,1,2,0:0:0:0:
90,295,163830,1,0,0:0:0:0:
97,157,164003,5,2,0:0:0:0:
228,228,164176,1,8,0:0:0:0:
308,34,164350,1,2,0:0:0:0:
392,164,164523,1,8,0:0:0:0:
230,82,164696,5,2,0:0:0:0:
267,295,164870,1,8,0:0:0:0:
473,203,165043,1,2,0:0:0:0:
307,121,165217,1,8,0:0:0:0:
356,311,165390,5,2,0:0:0:0:
385,79,165563,1,8,0:0:0:0:
162,158,165737,1,2,0:0:0:0:
303,209,165910,1,8,0:0:0:0:
90,75,166084,5,2,0:0:0:0:
307,121,166257,1,8,0:0:0:0:
27,225,166431,1,2,0:0:0:0:
219,213,166604,1,8,0:0:0:0:
219,213,166691,1,0,0:0:0:0:
219,213,166778,1,2,0:0:0:0:
213,97,166951,5,2,0:0:0:0:
392,274,167125,1,2,0:0:0:0:
275,35,167298,1,2,0:0:0:0:
212,329,167471,5,2,0:0:0:0:
307,121,167645,1,2,0:0:0:0:
77,144,167818,1,2,0:0:0:0:
400,167,167992,1,2,0:0:0:0:
212,329,168165,5,2,0:0:0:0:
209,277,168251,1,0,0:0:0:0:
237,234,168338,1,2,0:0:0:0:
284,215,168424,1,0,0:0:0:0:
334,227,168511,1,2,0:0:0:0:
369,258,168598,1,0,0:0:0:0:
376,303,168684,1,2,0:0:0:0:
307,379,168858,5,8,0:1:0:0:
232,123,169032,1,8,0:1:0:0:
99,220,169205,1,8,0:1:0:0:
376,303,169379,1,8,0:1:0:0:
164,169,169552,5,12,0:1:0:0:
382,228,175101,6,0,P|456:244|441:169,1,179.999994506836,6|0,0:1|0:0,0:0:0:0:
307,180,175621,6,0,B|283:220|302:261|302:261|291:278|291:278|313:307|303:346,1,160,2|0,0:0|0:0,0:0:0:0:
372,132,176142,6,0,P|371:91|321:108,1,100,2|0,0:0|0:0,0:0:0:0:
307,180,176402,1,0,0:0:0:0:
307,180,176488,6,0,P|235:204|251:131,1,179.999994506836,2|0,0:0|0:0,0:0:0:0:
464,129,177009,6,0,B|471:171|436:212|436:212|452:235|452:235|437:259|446:293,1,160,2|0,0:0|0:0,0:0:0:0:
404,52,177529,6,0,P|449:47|448:2,1,100,2|0,0:0|0:0,0:0:0:0:
340,127,177876,5,2,0:0:0:0:
452,279,178049,1,2,0:0:0:0:
302,204,178223,1,2,0:0:0:0:
464,129,178396,1,2,0:0:0:0:
347,277,178569,5,2,0:0:0:0:
340,127,178743,1,2,0:0:0:0:
493,205,178916,1,2,0:0:0:0:
399,348,179090,1,2,0:0:0:0:
401,198,179263,5,2,0:0:0:0:
391,207,179610,6,0,L|297:220,1,69.9999978637696,2|0,0:0|0:0,0:0:0:0:
179,222,179957,2,0,L|266:158,1,104.999996795654,2|0,0:0|0:0,0:0:0:0:
340,127,180304,1,2,0:0:0:0:
166,304,180650,5,6,0:1:0:0:
125,99,180823,1,0,0:0:0:0:
262,198,180997,1,8,0:0:0:0:
38,120,181170,6,0,P|44:66|79:25,1,110.000003356934
256,105,181517,1,8,0:0:0:0:
85,203,181690,2,0,L|-33:226,1,110.000003356934,8|0,0:0|0:0,0:0:0:0:
125,99,182037,5,2,0:0:0:0:
67,324,182210,1,0,0:0:0:0:
189,280,182384,1,8,0:0:0:0:
13,159,182557,6,0,P|-1:210|21:259,1,110.000003356934
91,113,182904,1,2,0:0:0:0:
257,212,183077,2,0,P|267:158|256:105,1,110.000003356934,8|2,0:0|0:0,0:0:0:0:
154,17,183424,5,2,0:0:0:0:
354,120,183598,1,0,0:0:0:0:
161,161,183771,1,8,0:0:0:0:
261,302,183945,6,0,B|312:298|345:260|345:260|311:255,1,110.000003356934
257,212,184291,1,2,0:0:0:0:
390,322,184465,1,8,0:0:0:0:
194,375,184638,2,0,P|168:326|173:272,1,110.000003356934,0|2,0:0|0:0,0:0:0:0:
257,212,184985,5,2,0:3:0:0:
257,212,185072,1,2,0:3:0:0:
257,212,185159,1,2,0:3:0:0:
329,43,185332,2,0,P|347:93|336:147,1,110.000003356934,2|0,0:3|0:0,0:0:0:0:
108,191,185679,5,2,0:0:0:0:
336,147,185852,1,8,0:0:0:0:
80,193,186026,1,2,0:0:0:0:
399,96,186199,6,0,P|421:144|405:196,1,110.000003356934,6|0,0:1|0:0,0:0:0:0:
247,275,186546,2,0,P|284:236|338:232,1,110.000003356934,8|0,0:0|0:0,0:0:0:0:
486,324,186893,6,0,P|433:313|400:270,1,110.000003356934,0|2,2:0|0:0,0:0:0:0:
218,350,187240,2,0,P|270:357|314:325,1,110.000003356934,8|0,0:0|0:0,0:0:0:0:
250,43,187586,5,2,0:0:0:0:
247,275,187760,1,0,0:0:0:0:
241,16,187933,1,8,0:0:0:0:
218,350,188107,6,0,P|270:357|314:325,1,110.000003356934
151,280,188453,1,2,0:0:0:0:
133,365,188627,1,8,0:0:0:0:
247,275,188800,1,2,0:0:0:0:
91,216,188974,6,0,P|139:193|192:202,1,110.000003356934,2|2,0:0|0:3,0:0:0:0:
247,275,189234,1,2,0:3:0:0:
247,275,189320,1,2,0:3:0:0:
65,302,189494,6,0,P|21:274|4:203,1,110.000003356934
45,36,189841,2,0,L|42:155,1,110.000003356934,2|8,0:0|0:0,0:0:0:0:
181,319,190188,6,0,P|171:230|247:276,1,220.000006713867
254,359,190708,1,8,0:0:0:0:
254,359,190881,1,2,0:0:0:0:
111,371,191054,2,0,P|75:329|65:274,1,110.000003356934,8|2,0:0|0:0,0:0:0:0:
181,319,191401,1,2,0:0:0:0:
181,319,191575,1,2,0:0:0:0:
1,342,191748,5,6,0:1:0:0:
252,278,191921,1,0,0:0:0:0:
108,199,192095,1,8,0:0:0:0:
254,359,192268,6,0,P|310:334|334:283,1,110.000003356934
308,211,192615,1,2,0:0:0:0:
384,371,192788,2,0,L|500:353,1,110.000003356934,8|0,0:0|0:0,0:0:0:0:
387,121,193135,5,2,0:0:0:0:
225,207,193308,1,0,0:0:0:0:
388,289,193482,1,8,0:0:0:0:
154,256,193656,6,0,P|137:203|159:154,1,110.000003356934
332,163,194002,1,2,0:0:0:0:
219,325,194176,2,0,L|107:361,1,110.000003356934,8|2,0:0|0:0,0:0:0:0:
155,174,194522,5,2,0:0:0:0:
286,258,194696,1,0,0:0:0:0:
83,290,194869,1,8,0:0:0:0:
370,279,195043,6,0,B|380:230|348:187|348:187|332:209,1,110.000003356934
286,258,195389,1,2,0:0:0:0:
458,252,195563,1,8,0:0:0:0:
197,274,195736,2,0,P|209:216|249:177,1,110.000003356934,0|2,0:0|0:0,0:0:0:0:
339,179,196083,5,2,0:3:0:0:
339,179,196170,1,2,0:3:0:0:
339,179,196257,1,2,0:3:0:0:
411,25,196431,2,0,P|424:82|405:135,1,110.000003356934,2|0,0:3|0:0,0:0:0:0:
188,185,196777,5,2,0:0:0:0:
418,213,196950,1,8,0:0:0:0:
160,178,197124,1,2,0:0:0:0:
494,263,197297,6,0,P|508:200|486:157,1,110.000003356934,6|0,0:1|0:0,0:0:0:0:
413,306,197644,2,0,P|449:347|502:357,1,110.000003356934,8|0,0:0|0:0,0:0:0:0:
418,213,197991,6,0,L|283:237,1,110.000003356934,0|2,0:0|0:0,0:0:0:0:
146,133,198338,2,0,L|268:146,1,110.000003356934,8|0,0:0|0:0,0:0:0:0:
463,141,198684,5,2,0:0:0:0:
264,245,198858,1,0,0:0:0:0:
489,133,199031,1,8,0:0:0:0:
244,332,199205,6,0,P|197:303|178:253,1,110.000003356934
232,164,199551,1,2,0:0:0:0:
346,201,199725,2,0,P|353:256|335:307,1,110.000003356934,8|0,0:0|0:0,0:0:0:0:
154,128,200072,6,0,P|190:89|250:81,1,110.000003356934,2|2,0:0|0:3,0:0:0:0:
313,124,200332,1,2,0:3:0:0:
313,124,200418,1,2,0:3:0:0:
269,237,200592,1,0,0:0:0:0:
81,171,200765,6,0,P|69:108|100:66,1,110.000003356934,0|2,0:0|0:0,0:0:0:0:
173,46,201112,1,8,0:0:0:0:
152,212,201286,1,2,0:3:0:0:
313,124,201460,6,0,L|427:91,1,110.000003356934,2|0,0:0|0:0,0:0:0:0:
238,202,201807,2,0,L|364:212,1,110.000003356934,8|0,0:0|0:0,0:0:0:0:
241,4,202153,5,2,0:0:0:0:
238,202,202326,2,0,B|244:224|232:256|232:256|243:265|243:265|211:316|237:376,1,179.999994506836,2|0,0:0|0:0,0:0:0:0:
