osu file format v14

[General]
AudioFilename: TWICE-01-CHEER UP.mp3
AudioLeadIn: 0
PreviewTime: 60477
Countdown: 0
SampleSet: Soft
StackLeniency: 0.3
Mode: 0
LetterboxInBreaks: 0
WidescreenStoryboard: 1

[Editor]
Bookmarks: 5853,11402,16951,22500,28049,33598,39147,44697,50246,55795,77991,79379,84928,90477,96026,101575,107124,112673,118223,123772,147356,158454,162616,166777,169552,175101,180650,204234
DistanceSpacing: 1.4
BeatDivisor: 4
GridSize: 32
TimelineZoom: 3.399999

[Metadata]
Title:CHEER UP
TitleUnicode:CHEER UP
Artist:TWICE
ArtistUnicode:TWICE
Creator:Euny
Version:Hard
Source:
Tags:Natsu 나연 정연 모모 사나 지효 미나 다현 채영 쯔위 NAYEON JEONGYEON MOMO SANA JIHYO MINA DAHYUN CHAEYOUNG TZUYU PAGE TWO jyp entertainment kpop k-pop
BeatmapID:988181
BeatmapSetID:456547

[Difficulty]
HPDrainRate:5.5
CircleSize:4
OverallDifficulty:6
ApproachRate:7.8
SliderMultiplier:1.6
SliderTickRate:1

[Events]
//Background and Video events
0,0,"shut up.jpg",0,0
Video,0,"TWICE-CHEER UP.avi"
//Break Periods
2,147356,157675
2,169752,174322
//Storyboard Layer 0 (Background)
//Storyboard Layer 1 (Fail)
//Storyboard Layer 2 (Pass)
//Storyboard Layer 3 (Foreground)
//Storyboard Sound Samples

[TimingPoints]
304,346.820809248555,4,2,33,55,1,0
5853,-166.666666666667,4,2,34,40,0,0
8627,-200,4,2,34,40,0,0
10014,-125,4,2,33,55,0,0
13309,-125,4,2,34,55,0,0
13483,-125,4,2,33,55,0,0
13830,-125,4,2,34,55,0,0
14176,-125,4,2,33,55,0,0
18858,-125,4,2,34,55,0,0
19032,-125,4,2,33,55,0,0
19379,-125,4,2,34,55,0,0
19725,-125,4,2,33,55,0,0
24408,-125,4,2,34,55,0,0
24581,-125,4,2,33,55,0,0
24928,-125,4,2,34,55,0,0
25275,-125,4,2,33,55,0,0
29957,-125,4,2,34,55,0,0
30130,-125,4,2,33,55,0,0
30477,-125,4,2,34,55,0,0
30824,-125,4,2,33,55,0,0
33598,-142.857142857143,4,2,33,40,0,0
40014,-142.857142857143,4,2,33,40,0,0
44697,-125,4,2,33,55,0,0
55795,-100,4,2,35,63,0,1
56142,-100,4,2,35,63,0,0
61344,-100,4,2,35,63,0,1
61691,-100,4,2,35,63,0,0
66893,-100,4,2,35,63,0,1
67240,-100,4,2,35,63,0,0
72442,-100,4,2,35,63,0,1
72789,-100,4,2,35,63,0,0
77298,-125,4,2,33,50,0,0
79379,-125,4,2,33,55,0,0
84928,-125,4,2,33,55,0,0
92384,-125,4,2,34,55,0,0
92558,-125,4,2,33,55,0,0
92905,-125,4,2,34,55,0,0
93078,-125,4,2,33,55,0,0
97934,-125,4,2,34,55,0,0
98107,-125,4,2,33,55,0,0
98454,-125,4,2,34,55,0,0
98627,-125,4,2,33,55,0,0
100188,-125,4,2,34,55,0,0
100882,-125,4,2,33,55,0,0
101575,-142.857142857143,4,2,33,40,0,0
107991,-142.857142857143,4,2,33,40,0,0
112673,-125,4,2,33,55,0,0
123772,-100,4,2,35,63,0,1
124119,-100,4,2,35,63,0,0
129321,-100,4,2,35,63,0,1
129668,-100,4,2,35,63,0,0
134870,-100,4,2,35,63,0,1
135217,-100,4,2,35,63,0,0
140419,-100,4,2,35,63,0,1
140766,-100,4,2,35,63,0,0
145275,-125,4,2,33,50,0,0
158454,-125,4,2,33,55,0,0
162616,-125,4,2,33,55,0,0
166777,-125,4,2,33,55,0,0
169552,-125,4,2,33,55,0,0
179610,-142.857142857143,4,2,34,55,0,0
180650,-100,4,2,35,63,0,1
180997,-100,4,2,35,63,0,0
186199,-100,4,2,35,63,0,1
186546,-100,4,2,35,63,0,0
191749,-100,4,2,35,63,0,1
192095,-100,4,2,35,63,0,0
197298,-100,4,2,35,63,0,1
197645,-100,4,2,35,63,0,0
202153,-125,4,2,33,50,0,0

[Colours]
Combo1 : 153,153,153
Combo2 : 0,230,230

[HitObjects]
140,152,5853,6,0,P|180:176|244:172,1,95.9999970703126,2|0,0:0|0:0,0:0:0:0:
296,140,6373,1,2,0:0:0:0:
317,213,6546,2,0,P|313:260|318:308,1,95.9999970703126,0|0,0:0|0:0,0:0:0:0:
452,233,7240,6,0,P|457:185|453:137,1,95.9999970703126,2|0,0:0|0:0,0:0:0:0:
412,72,7760,1,10,0:0:0:0:
345,110,7933,2,0,P|301:129|253:130,1,95.9999970703126,0|8,0:0|0:0,0:0:0:0:
151,51,8627,6,0,P|64:111|139:185,1,240,2|0,0:0|0:0,0:0:0:0:
343,178,10014,6,0,P|335:142|332:107,2,64,8|8|8,0:1|0:1|0:1,0:0:0:0:
406,242,10535,1,8,0:1:0:0:
447,321,10708,2,0,P|483:327|526:308,2,64,8|8|8,0:1|0:1|0:1,0:0:0:0:
357,318,11228,1,8,0:1:0:0:
217,263,11402,6,0,P|249:262|280:271,1,64,4|0,0:1|0:0,0:0:0:0:
169,341,11749,2,0,P|136:346|101:343,1,64,0|0,0:0|0:0,0:0:0:0:
34,289,12095,2,0,B|23:236|23:236|37:211|37:211|28:148,1,128,8|0,0:0|0:0,0:0:0:0:
25,75,12616,1,0,0:0:0:0:
25,75,12789,6,0,B|161:104,1,128,2|0,0:0|0:0,0:0:0:0:
237,122,13309,1,8,0:0:0:0:
190,198,13483,2,0,P|181:228|184:260,2,64,8|0|8,0:0|0:0|0:0,0:0:0:0:
349,112,14176,6,0,L|425:111,1,64,2|0,0:0|0:0,0:0:0:0:
487,161,14523,1,0,0:0:0:0:
487,161,14697,1,0,0:0:0:0:
424,225,14870,2,0,P|437:266|442:311,1,64,8|0,0:0|0:0,0:0:0:0:
394,364,15217,1,0,0:0:0:0:
394,364,15390,1,0,0:0:0:0:
242,344,15564,6,0,P|274:346|306:343,1,64,2|0,0:0|0:0,0:0:0:0:
180,279,15910,2,0,P|148:279|103:288,1,64,0|0,0:0|0:0,0:0:0:0:
46,341,16257,1,2,0:3:0:0:
17,255,16431,1,2,0:3:0:0:
17,255,16517,1,2,0:3:0:0:
17,255,16604,1,2,0:3:0:0:
90,204,16777,1,2,0:3:0:0:
92,114,16951,6,0,P|56:104|28:86,1,64,2|0,0:0|0:0,0:0:0:0:
82,15,17298,2,0,P|118:25|146:43,1,64,0|0,0:0|0:0,0:0:0:0:
189,113,17645,2,0,P|227:96|255:73,1,64,8|0,0:0|0:0,0:0:0:0:
294,8,17991,1,0,0:0:0:0:
294,8,18165,1,0,0:0:0:0:
381,28,18338,6,0,P|385:59|381:91,1,64,2|0,0:0|0:0,0:0:0:0:
322,152,18685,2,0,P|323:190|336:228,1,64,0|8,0:0|0:0,0:0:0:0:
375,292,19032,2,0,L|284:304,1,64,8|0,0:0|0:0,0:0:0:0:
226,271,19379,1,8,0:0:0:0:
89,155,19725,6,0,P|61:170|29:170,1,64,2|0,0:0|0:0,0:0:0:0:
24,260,20072,2,0,L|29:334,1,64,0|0,0:0|0:0,0:0:0:0:
110,361,20419,2,0,L|126:294,1,64,8|0,0:0|0:0,0:0:0:0:
177,225,20766,2,0,P|208:239|242:240,1,64,0|0,0:0|0:0,0:0:0:0:
323,215,21113,6,0,L|344:282,2,64,8|8|8,0:1|0:1|0:1,0:0:0:0:
283,133,21633,1,8,0:1:0:0:
372,138,21806,2,0,L|455:154,2,64,8|8|8,0:1|0:1|0:1,0:0:0:0:
333,56,22327,1,8,0:1:0:0:
246,31,22500,6,0,P|211:49|177:56,1,64,2|0,0:0|0:0,0:0:0:0:
99,33,22847,2,0,L|97:111,1,64,0|0,0:0|0:0,0:0:0:0:
76,184,23194,2,0,P|107:179|138:185,1,64,8|0,0:0|0:0,0:0:0:0:
194,256,23541,2,0,P|225:260|257:257,1,64,0|0,0:0|0:0,0:0:0:0:
380,191,23887,6,0,P|348:186|317:191,1,64,2|0,0:0|0:0,0:0:0:0:
441,258,24234,2,0,P|460:232|468:202,1,64,0|8,0:0|0:0,0:0:0:0:
433,119,24581,2,0,P|441:88|460:63,1,64,8|0,0:0|0:0,0:0:0:0:
395,1,24928,2,0,P|355:17|321:15,1,64,8|0,0:0|0:0,0:0:0:0:
244,16,25275,6,0,L|260:101,1,64,2|0,0:0|0:0,0:0:0:0:
324,135,25621,2,0,L|311:212,1,64,0|0,0:3|0:3,0:0:0:0:
281,281,25968,2,0,P|249:286|218:280,1,64,8|0,0:0|0:0,0:0:0:0:
144,227,26315,2,0,P|113:226|81:230,1,64,0|0,0:0|0:0,0:0:0:0:
0,265,26662,6,0,L|29:335,2,64,2|0|0,0:0|0:0|0:0,0:0:0:0:
17,176,27182,2,0,P|31:134|33:110,1,64,0|2,0:0|0:3,0:0:0:0:
33,24,27529,1,2,0:3:0:0:
33,24,27616,1,2,0:3:0:0:
32,24,27702,2,0,L|104:36,1,64,2|0,0:3|0:3,0:0:0:0:
184,41,28049,6,0,P|172:70|172:102,1,64,2|0,0:0|0:0,0:0:0:0:
253,142,28396,2,0,P|260:172|258:204,1,64,0|0,0:0|0:0,0:0:0:0:
196,270,28743,1,8,0:0:0:0:
196,270,29090,2,0,P|221:289|235:317,1,64
154,348,29436,6,0,P|129:329|115:301,1,64,2|0,0:0|0:0,0:0:0:0:
127,212,29783,1,0,0:0:0:0:
127,212,29957,1,8,0:0:0:0:
154,126,30130,2,0,P|155:95|151:63,1,64,8|0,0:0|0:0,0:0:0:0:
65,86,30477,2,0,P|61:117|62:149,1,64,8|0,0:0|0:0,0:0:0:0:
127,212,30824,6,0,P|166:209|200:212,1,64,2|0,0:0|0:0,0:0:0:0:
239,286,31171,2,0,P|268:298|299:301,1,64,0|0,0:0|0:0,0:0:0:0:
388,313,31517,2,0,P|386:282|376:252,1,64,8|0,0:0|0:0,0:0:0:0:
304,204,31864,2,0,P|284:179|272:150,1,64
351,108,32211,6,0,P|382:101|410:86,2,64,8|8|8,0:1|0:1|0:1,0:0:0:0:
274,60,32731,1,8,0:1:0:0:
196,104,32905,2,0,P|164:97|136:82,2,64,8|8|8,0:1|0:1|0:1,0:0:0:0:
272,150,33425,1,8,0:1:0:0:
352,188,33598,6,0,P|357:227|351:263,1,55.9999982910157,6|0,0:0|0:0,0:0:0:0:
333,282,33858,1,0,0:0:0:0:
333,282,33945,2,0,L|415:277,1,55.9999982910157,0|8,0:0|0:0,0:0:0:0:
473,309,34292,1,2,0:0:0:0:
488,221,34465,2,0,P|485:185|492:147,2,55.9999982910157,0|8|0,0:0|0:0|0:0,0:0:0:0:
473,309,34986,6,0,P|458:340|436:360,1,55.9999982910157,2|0,0:0|0:0,0:0:0:0:
354,345,35332,2,0,P|325:345|288:351,1,55.9999982910157,0|8,0:0|0:0,0:0:0:0:
208,362,35679,2,0,P|202:335|192:309,1,55.9999982910157,2|0,0:0|0:0,0:0:0:0:
112,267,36026,2,0,P|115:239|124:212,1,55.9999982910157,8|0,0:0|0:0,0:0:0:0:
168,134,36373,6,0,P|207:134|242:123,1,55.9999982910157,2|0,0:0|0:0,0:0:0:0:
259,104,36633,1,0,0:0:0:0:
259,104,36720,2,0,L|264:185,1,55.9999982910157,0|8,0:0|0:0,0:0:0:0:
283,247,37067,1,2,0:0:0:0:
365,213,37240,2,0,P|385:189|409:153,2,55.9999982910157,0|8|0,0:0|0:0|0:0,0:0:0:0:
358,302,37760,6,0,P|329:333|294:339,1,55.9999982910157,2|2,0:0|0:3,0:0:0:0:
272,340,38020,1,2,0:3:0:0:
272,340,38107,2,0,L|192:349,1,55.9999982910157,2|8,0:3|0:0,0:0:0:0:
126,352,38454,2,0,P|128:325|128:297,1,55.9999982910157,2|0,0:0|0:0,0:0:0:0:
53,248,38801,2,0,P|50:220|50:192,1,55.9999982910157,8|0,0:0|0:0,0:0:0:0:
67,104,39147,6,0,L|136:108,1,55.9999982910157,2|0,0:1|0:0,0:0:0:0:
168,108,39408,1,0,0:0:0:0:
168,108,39494,2,0,P|199:138|222:147,1,55.9999982910157,0|8,0:0|0:0,0:0:0:0:
299,134,39841,1,2,0:0:0:0:
346,209,40014,2,0,L|336:280,2,55.9999982910157,0|8|0,0:0|0:0|0:0,0:0:0:0:
395,133,40535,6,0,P|392:105|379:80,1,55.9999982910157,2|0,0:0|0:0,0:0:0:0:
300,36,40882,2,0,P|273:41|245:41,1,55.9999982910157,0|8,0:0|0:0,0:0:0:0:
157,24,41228,2,0,P|156:56|149:88,1,55.9999982910157,2|0,0:0|0:0,0:0:0:0:
65,105,41575,2,0,P|54:147|52:169,1,55.9999982910157,8|0,0:0|0:0,0:0:0:0:
37,248,41922,6,0,P|76:248|111:237,1,55.9999982910157,2|0,0:0|0:0,0:0:0:0:
128,218,42182,1,0,0:0:0:0:
128,218,42269,2,0,L|133:299,1,55.9999982910157,0|8,0:0|0:0,0:0:0:0:
141,363,42616,1,2,0:0:0:0:
51,368,42789,2,0,P|21:358|-4:340,2,55.9999982910157,0|8|0,0:0|0:0|0:0,0:0:0:0:
141,363,43309,6,0,P|169:351|207:347,1,55.9999982910157,2|2,0:0|0:3,0:0:0:0:
236,361,43569,1,2,0:3:0:0:
236,361,43656,2,0,P|268:358|301:343,1,55.9999982910157,2|8,0:3|0:0,0:0:0:0:
359,291,44003,2,0,P|372:323|387:352,1,55.9999982910157,2|0,0:0|0:0,0:0:0:0:
466,314,44350,2,0,P|453:281|438:253,1,55.9999982910157,8|0,0:0|0:0,0:0:0:0:
401,183,44697,6,0,P|333:201|337:138,1,128,2|8,0:0|0:0,0:0:0:0:
380,92,45217,1,0,0:0:0:0:
380,92,45390,1,2,0:0:0:0:
252,218,45737,2,0,L|255:288,1,64,8|0,0:0|0:0,0:0:0:0:
190,344,46084,6,0,P|160:336|128:332,1,64,2|0,0:0|0:0,0:0:0:0:
39,346,46431,2,0,P|44:314|44:282,1,64,8|0,0:0|0:0,0:0:0:0:
6,201,46777,2,0,P|3:169|4:137,1,64,2|0,0:0|0:0,0:0:0:0:
40,55,47124,2,0,L|105:78,1,64,8|0,0:0|0:0,0:0:0:0:
175,125,47471,6,0,P|165:164|170:201,2,64,2|0|8,0:0|0:0|0:0,0:0:0:0:
186,35,47991,1,0,0:0:0:0:
261,83,48165,2,0,L|343:73,1,64,2|0,0:0|0:0,0:0:0:0:
397,23,48512,2,0,L|468:40,1,64,8|0,0:0|0:0,0:0:0:0:
486,123,48858,6,0,P|477:154|472:203,1,64,2|2,0:0|0:3,0:0:0:0:
487,228,49119,1,2,0:3:0:0:
487,228,49205,1,2,0:3:0:0:
457,313,49379,2,0,L|490:375,2,64,0|2|0,0:0|0:0|0:0,0:0:0:0:
369,290,49899,2,0,P|330:298|287:297,1,64,8|0,0:0|0:0,0:0:0:0:
220,269,50246,6,0,L|218:348,2,64,2|8|2,0:0|0:0|0:0,0:0:0:0:
190,184,50766,1,8,0:0:0:0:
130,251,50939,2,0,P|69:267|7:254,1,128,2|2,0:0|0:0,0:0:0:0:
190,184,51633,6,0,P|205:208|219:248,2,64,2|8|2,0:0|0:0|0:0,0:0:0:0:
102,163,52153,1,8,0:0:0:0:
164,97,52327,2,0,P|225:83|275:44,1,128,2|2,0:0|0:0,0:0:0:0:
454,31,53020,6,0,P|468:59|473:90,2,64,2|2|2,0:0|0:0|0:0,0:0:0:0:
364,23,53540,1,2,0:0:0:0:
388,109,53714,2,0,P|391:140|385:171,2,64,2|2|2,0:0|0:0|0:0,0:0:0:0:
299,95,54234,1,2,0:0:0:0:
296,184,54408,6,0,P|288:215|272:242,1,64,2|2,0:0|0:0,0:0:0:0:
182,239,54754,2,0,P|165:266|158:297,1,64,2|2,0:0|0:0,0:0:0:0:
226,354,55101,2,0,L|295:347,2,64,2|2|4,0:0|0:0|0:0,0:0:0:0:
97,233,55795,6,0,L|17:237,2,80,6|0|8,0:1|0:0|0:0,0:0:0:0:
182,238,56315,2,0,P|175:199|156:164,1,80,0|0,0:0|0:0,0:0:0:0:
101,96,56662,1,8,0:0:0:0:
252,51,56835,2,0,L|173:46,1,80,8|0,0:0|0:0,0:0:0:0:
341,47,57182,6,0,P|331:98|332:129,2,80,2|0|8,0:0|0:0|0:0,0:0:0:0:
428,58,57702,2,0,P|427:97|418:136,1,80,0|0,0:0|0:0,0:0:0:0:
364,206,58049,1,2,0:0:0:0:
423,284,58222,2,0,L|344:291,1,80,8|2,0:0|0:0,0:0:0:0:
511,273,58569,6,0,P|511:222|495:180,2,80,2|0|8,0:0|0:0|0:0,0:0:0:0:
484,357,59090,2,0,B|392:366,1,80,0|0,0:0|0:0,0:0:0:0:
260,322,59436,2,0,P|282:354|315:376,1,80,2|8,0:0|0:0,0:0:0:0:
230,239,59783,2,0,P|193:252|153:259,1,80,0|2,0:0|0:0,0:0:0:0:
69,234,60130,6,0,L|53:285,2,40,2|2|2,0:3|0:3|0:3,0:0:0:0:
129,169,60477,2,0,L|125:63,1,80,2|0,0:3|0:0,0:0:0:0:
71,19,60824,2,0,P|38:41|0:51,2,80,2|8|2,0:0|0:0|0:0,0:0:0:0:
158,11,61344,6,0,P|193:29|232:36,1,80,6|0,0:1|0:0,0:0:0:0:
319,21,61691,2,0,L|320:107,1,80,8|0,0:0|0:0,0:0:0:0:
357,180,62038,2,0,P|388:155|424:137,1,80,0|2,0:0|0:0,0:0:0:0:
472,210,62384,2,0,P|440:234|404:252,1,80,8|0,0:0|0:0,0:0:0:0:
316,257,62731,6,0,L|328:355,2,80,2|0|8,0:0|0:0|0:0,0:0:0:0:
257,190,63251,2,0,P|217:195|177:193,1,80,0|0,0:0|0:0,0:0:0:0:
112,133,63598,2,0,P|72:130|32:136,2,80,2|8|2,0:0|0:0|0:0,0:0:0:0:
92,219,64119,6,0,L|97:308,1,80,2|2,0:0|0:3,0:0:0:0:
100,342,64379,1,2,0:3:0:0:
100,342,64465,1,2,0:3:0:0:
186,357,64639,2,0,P|224:347|264:344,1,80,0|0,0:0|0:0,0:0:0:0:
352,357,64986,2,0,P|347:317|349:277,1,80,2|8,0:0|0:0,0:0:0:0:
402,207,65332,6,0,P|454:257|507:207,1,160,0|0,0:0|0:0,0:0:0:0:
463,130,65853,2,0,L|374:117,1,80,8|2,0:0|0:0,0:0:0:0:
240,79,66199,2,0,L|318:60,1,80,8|2,0:0|0:0,0:0:0:0:
153,96,66546,2,0,P|163:140|161:185,1,80,2|2,0:0|0:0,0:0:0:0:
128,256,66893,6,0,L|36:266,2,80,6|0|8,0:1|0:0|0:0,0:0:0:0:
168,334,67413,2,0,P|200:311|215:275,1,80,0|0,0:0|0:0,0:0:0:0:
192,189,67760,1,2,0:0:0:0:
355,215,67933,2,0,L|275:215,1,80,8|0,0:0|0:0,0:0:0:0:
434,253,68280,6,0,P|419:290|419:329,2,80,2|0|8,0:0|0:0|0:0,0:0:0:0:
496,190,68801,2,0,P|510:152|510:113,1,80,0|0,0:0|0:0,0:0:0:0:
454,45,69147,1,2,0:0:0:0:
300,98,69320,2,0,L|380:93,1,80,8|2,0:0|0:0,0:0:0:0:
224,144,69668,6,0,P|237:198|234:243,2,80,2|0|8,0:0|0:0|0:0,0:0:0:0:
182,66,70188,2,0,B|80:81,1,80,0|0,0:0|0:0,0:0:0:0:
51,149,70535,2,0,B|153:164,1,80,2|8,0:0|0:0,0:0:0:0:
178,233,70882,2,0,B|76:248,1,80,0|2,0:0|0:0,0:0:0:0:
16,274,71228,6,0,P|11:255|10:228,2,40,2|2|2,0:3|0:3|0:3,0:0:0:0:
76,338,71575,2,0,B|178:353,1,80,2|0,0:3|0:0,0:0:0:0:
243,346,71922,2,0,P|243:303|264:257,2,80,2|8|2,0:0|0:0|0:0,0:0:0:0:
330,356,72442,6,0,P|369:348|408:353,1,80,6|0,0:1|0:0,0:0:0:0:
496,363,72789,2,0,P|491:323|501:284,1,80,8|0,0:0|0:0,0:0:0:0:
506,196,73136,2,0,P|468:208|430:198,1,80,0|2,0:0|0:0,0:0:0:0:
291,136,73483,2,0,P|328:124|367:135,1,80,8|0,0:0|0:0,0:0:0:0:
226,196,73830,6,0,P|188:208|150:198,2,80,2|0|8,0:0|0:0|0:0,0:0:0:0:
297,248,74350,2,0,P|275:281|240:298,2,80,0|0|2,0:0|0:0|0:0,0:0:0:0:
380,218,74870,1,8,0:0:0:0:
380,218,75217,6,0,L|378:123,1,80,2|2,0:0|0:3,0:0:0:0:
379,93,75477,1,2,0:3:0:0:
379,93,75564,2,0,P|417:104|456:106,1,80,2|0,0:3|0:0,0:0:0:0:
493,26,75910,2,0,P|454:14|415:12,1,80,0|2,0:0|0:0,0:0:0:0:
250,47,76257,2,0,P|290:43|327:28,1,80,8|2,0:0|0:3,0:0:0:0:
164,36,76604,6,0,L|170:127,1,80,2|0,0:0|0:0,0:0:0:0:
249,153,76951,2,0,L|214:228,1,80,8|2,0:0|0:0,0:0:0:0:
170,294,77298,5,2,0:0:0:0:
170,294,77471,2,0,B|204:319|251:301|251:301|260:319|260:319|303:295|348:312,1,192,2|0,0:0|0:0,0:0:0:0:
342,309,79379,6,0,P|346:278|341:246,2,64,2|2|0,0:0|0:0|0:0,0:0:0:0:
257,280,79899,1,0,0:0:0:0:
277,193,80072,2,0,P|302:173|338:162,1,64
419,183,80419,2,0,P|417:151|406:121,1,64
330,74,80766,5,2,0:0:0:0:
330,74,80939,1,2,0:0:0:0:
247,110,81113,1,0,0:0:0:0:
247,110,81286,1,0,0:0:0:0:
274,192,81460,2,0,L|190:209,1,64,0|0,0:0|0:0,0:0:0:0:
151,270,81806,2,0,L|222:296,1,64,0|0,0:0|0:0,0:0:0:0:
282,346,82153,6,0,P|297:318|301:286,2,64,2|2|0,0:0|0:0|0:0,0:0:0:0:
197,377,82673,1,0,0:0:0:0:
110,353,82847,2,0,L|34:365,1,64,0|0,0:0|0:0,0:0:0:0:
10,280,83194,2,0,P|14:241|13:203,1,64,0|0,0:0|0:0,0:0:0:0:
15,126,83540,6,0,L|80:136,1,64,8|0,0:0|0:0,0:0:0:0:
164,161,83887,2,0,P|166:129|172:97,1,64,8|0,0:0|0:0,0:0:0:0:
262,96,84234,2,0,P|268:127|270:159,1,64,8|0,0:0|0:0,0:0:0:0:
350,200,84581,2,0,L|413:190,1,64,8|0,0:0|0:0,0:0:0:0:
502,182,84928,6,0,P|494:151|474:126,2,64,2|2|0,0:0|0:0|0:0,0:0:0:0:
462,262,85448,1,0,0:0:0:0:
375,284,85621,2,0,L|301:299,1,64,0|0,0:0|0:0,0:0:0:0:
236,345,85968,2,0,L|167:338,1,64,0|0,0:0|0:0,0:0:0:0:
84,317,86315,5,2,0:0:0:0:
84,317,86488,1,2,0:0:0:0:
143,249,86662,1,0,0:0:0:0:
143,249,86835,1,0,0:0:0:0:
63,206,87009,6,0,P|60:170|66:135,1,64,0|0,0:0|0:0,0:0:0:0:
77,53,87356,2,0,P|107:62|139:64,1,64,0|0,0:0|0:0,0:0:0:0:
226,47,87702,6,0,L|238:112,2,64,2|2|0,0:0|0:0|0:0,0:0:0:0:
311,17,88223,1,0,0:0:0:0:
348,96,88396,2,0,P|375:80|392:53,1,64,0|0,0:0|0:0,0:0:0:0:
477,24,88743,2,0,L|475:107,1,64,0|0,0:0|0:0,0:0:0:0:
466,177,89090,6,0,L|543:159,2,64,8|8|8,0:1|0:1|0:1,0:0:0:0:
407,245,89610,1,8,0:1:0:0:
328,201,89783,2,0,L|265:186,2,64,8|8|8,0:1|0:1|0:1,0:0:0:0:
407,245,90304,1,8,0:1:0:0:
367,325,90477,5,2,0:0:0:0:
367,325,90650,2,0,L|301:325,1,64,2|0,0:0|0:0,0:0:0:0:
219,357,90997,2,0,P|216:293|184:239,1,128,8|0,0:0|0:0,0:0:0:0:
102,201,91517,1,8,0:0:0:0:
278,233,91864,6,0,L|372:225,1,64,2|0,0:0|0:0,0:0:0:0:
400,159,92211,2,0,L|323:132,1,64,0|8,0:0|0:0,0:0:0:0:
251,121,92558,2,0,P|257:89|252:58,1,64,0|0,0:0|0:0,0:0:0:0:
164,39,92905,2,0,P|157:70|162:101,1,64,8|0,0:0|0:0,0:0:0:0:
188,187,93251,6,0,P|163:207|133:217,2,64,2|2|0,0:0|0:0|0:0,0:0:0:0:
251,121,93772,1,8,0:0:0:0:
305,191,93945,2,0,L|385:182,1,64,0|0,0:0|0:0,0:0:0:0:
458,175,94292,2,0,P|449:205|447:237,1,64,8|0,0:0|0:0,0:0:0:0:
506,305,94639,6,0,P|505:336|499:368,2,64,2|8|2,0:0|0:0|0:0,0:0:0:0:
418,327,95159,1,8,0:0:0:0:
331,350,95332,6,0,P|331:318|337:286,1,64,8|0,0:0|0:0,0:0:0:0:
367,203,95679,2,0,L|288:187,1,64,8|8,0:0|0:0,0:0:0:0:
215,175,96026,5,2,0:0:0:0:
215,175,96199,2,0,P|216:206|212:238,1,64,2|0,0:0|0:0,0:0:0:0:
124,255,96546,2,0,P|136:199|107:128,1,128,8|0,0:0|0:0,0:0:0:0:
36,85,97066,1,8,0:0:0:0:
215,94,97413,6,0,L|292:100,1,64,2|0,0:0|0:0,0:0:0:0:
356,142,97760,2,0,P|365:112|365:80,1,64,0|8,0:0|0:0,0:0:0:0:
455,78,98107,2,0,P|455:109|464:140,1,64,0|0,0:0|0:0,0:0:0:0:
511,217,98454,2,0,L|431:227,1,64,8|0,0:0|0:0,0:0:0:0:
361,206,98801,6,0,P|361:170|354:138,2,64,2|2|0,0:0|0:0|0:0,0:0:0:0:
338,293,99321,1,8,0:0:0:0:
260,247,99494,2,0,L|170:267,1,64,0|0,0:0|0:0,0:0:0:0:
195,350,99841,2,0,L|108:341,1,64,8|0,0:0|0:0,0:0:0:0:
46,313,100188,6,0,P|33:279|28:247,2,64,2|2|2,0:0|0:0|0:0,0:0:0:0:
118,259,100708,1,2,0:0:0:0:
146,174,100881,2,0,L|159:99,1,64,8|0,0:0|0:0,0:0:0:0:
209,38,101228,2,0,L|246:104,1,64,0|0,0:0|0:0,0:0:0:0:
317,139,101575,6,0,L|305:215,1,55.9999982910157,6|0,0:0|0:0,0:0:0:0:
299,238,101835,1,0,0:0:0:0:
299,238,101922,2,0,L|381:233,1,55.9999982910157,0|8,0:0|0:0,0:0:0:0:
444,229,102269,1,2,0:0:0:0:
500,297,102442,2,0,P|504:324|505:354,2,55.9999982910157,0|8|0,0:0|0:0|0:0,0:0:0:0:
416,331,102963,6,0,L|351:340,1,55.9999982910157,2|0,0:0|0:0,0:0:0:0:
273,357,103309,2,0,L|212:338,1,55.9999982910157,0|8,0:0|0:0,0:0:0:0:
132,317,103656,2,0,P|148:294|156:267,1,55.9999982910157,2|0,0:0|0:0,0:0:0:0:
114,188,104003,2,0,L|173:178,1,55.9999982910157,8|0,0:0|0:0,0:0:0:0:
254,150,104350,6,0,L|253:224,1,55.9999982910157,2|0,0:0|0:0,0:0:0:0:
272,246,104610,1,0,0:0:0:0:
272,246,104697,2,0,P|297:234|324:228,1,55.9999982910157,0|8,0:0|0:0,0:0:0:0:
407,264,105044,1,2,0:0:0:0:
476,206,105217,2,0,P|495:186|511:163,2,55.9999982910157,0|8|0,0:0|0:0|0:0,0:0:0:0:
397,163,105737,6,0,L|399:87,1,55.9999982910157,2|2,0:0|0:3,0:0:0:0:
391,62,105997,1,2,0:3:0:0:
390,62,106084,2,0,P|363:68|335:71,1,55.9999982910157,2|8,0:3|0:0,0:0:0:0:
248,49,106431,2,0,L|250:113,1,55.9999982910157,2|0,0:0|0:0,0:0:0:0:
310,170,106778,2,0,L|295:228,1,55.9999982910157,8|0,0:0|0:0,0:0:0:0:
248,300,107124,6,0,P|221:292|193:288,1,55.9999982910157,2|0,0:0|0:0,0:0:0:0:
153,309,107385,1,0,0:0:0:0:
153,309,107471,2,0,L|147:240,1,55.9999982910157,0|8,0:0|0:0,0:0:0:0:
149,163,107818,1,2,0:0:0:0:
62,141,107991,2,0,P|37:155|11:164,2,55.9999982910157,0|8|0,0:0|0:0|0:0,0:0:0:0:
104,60,108512,6,0,P|130:52|159:46,1,55.9999982910157,2|0,0:0|0:0,0:0:0:0:
245,60,108859,2,0,P|242:87|244:115,1,55.9999982910157,0|8,0:0|0:0,0:0:0:0:
324,154,109205,2,0,P|327:181|324:209,1,55.9999982910157,2|0,0:0|0:0,0:0:0:0:
306,297,109552,2,0,L|376:291,1,55.9999982910157,8|0,0:0|0:0,0:0:0:0:
448,268,109899,6,0,P|445:229|455:193,1,55.9999982910157,2|0,0:0|0:0,0:0:0:0:
469,172,110159,1,0,0:0:0:0:
469,172,110246,2,0,L|387:171,1,55.9999982910157,0|8,0:0|0:0,0:0:0:0:
324,154,110593,1,2,0:0:0:0:
237,177,110766,2,0,P|235:150|240:122,2,55.9999982910157,0|8|0,0:0|0:0|0:0,0:0:0:0:
304,241,111286,6,0,P|308:268|305:296,1,55.9999982910157,2|2,0:0|0:3,0:0:0:0:
303,341,111546,1,2,0:3:0:0:
303,341,111633,2,0,L|374:353,1,55.9999982910157,2|8,0:3|0:0,0:0:0:0:
445,330,111980,2,0,P|432:304|422:278,1,55.9999982910157,2|0,0:0|0:0,0:0:0:0:
491,223,112327,2,0,P|478:190|463:162,1,55.9999982910157,8|0,0:0|0:0,0:0:0:0:
401,111,112674,6,0,P|365:156|319:121,1,128,2|8,0:0|0:0,0:0:0:0:
356,40,113194,1,0,0:0:0:0:
356,40,113367,1,2,0:0:0:0:
270,197,113714,2,0,L|192:193,1,64,8|0,0:0|0:0,0:0:0:0:
123,229,114061,6,0,P|124:197|120:165,1,64,2|0,0:0|0:0,0:0:0:0:
37,130,114408,2,0,P|35:98|39:66,1,64,8|0,0:0|0:0,0:0:0:0:
113,16,114754,2,0,L|185:25,1,64,2|0,0:0|0:0,0:0:0:0:
257,63,115101,2,0,L|327:49,1,64,8|0,0:0|0:0,0:0:0:0:
406,75,115448,6,0,P|408:34|396:0,2,64,2|0|8,0:0|0:0|0:0,0:0:0:0:
340,136,115968,1,0,0:0:0:0:
367,221,116142,2,0,L|303:228,1,64,2|0,0:0|0:0,0:0:0:0:
259,307,116489,2,0,L|330:324,1,64,8|0,0:0|0:0,0:0:0:0:
408,304,116835,6,0,P|438:279|451:251,1,64,2|2,0:0|0:3,0:0:0:0:
459,212,117096,1,2,0:3:0:0:
459,212,117182,1,2,0:3:0:0:
449,122,117356,2,0,P|480:133|529:137,2,64,0|2|0,0:0|0:0|0:0,0:0:0:0:
390,53,117876,2,0,P|359:42|310:38,1,64,8|0,0:0|0:0,0:0:0:0:
261,97,118223,6,0,P|268:130|264:177,2,64,2|8|2,0:0|0:0|0:0,0:0:0:0:
185,48,118743,1,8,0:0:0:0:
180,137,118916,2,0,P|190:199|234:243,1,128,2|2,0:0|0:0,0:0:0:0:
414,242,119610,6,0,P|436:216|455:173,2,64,2|8|2,0:0|0:0|0:0,0:0:0:0:
324,249,120130,1,8,0:0:0:0:
363,169,120303,2,0,P|401:118|461:101,1,128,2|2,0:0|0:0,0:0:0:0:
501,277,120997,6,0,P|485:304|462:325,2,64,2|2|2,0:0|0:0|0:0,0:0:0:0:
457,198,121517,1,2,0:0:0:0:
399,266,121691,2,0,P|374:285|345:298,2,64,2|2|2,0:0|0:0|0:0,0:0:0:0:
361,184,122211,1,2,0:0:0:0:
285,231,122385,6,0,P|254:241|223:243,1,64,2|2,0:0|0:0,0:0:0:0:
158,182,122731,2,0,P|127:191|102:211,1,64,2|2,0:0|0:0,0:0:0:0:
27,260,123078,2,0,L|3:197,2,64,2|2|4,0:0|0:0|0:0,0:0:0:0:
183,342,123772,6,0,L|263:338,2,80,6|0|8,0:1|0:0|0:0,0:0:0:0:
101,376,124292,2,0,P|94:338|106:299,1,80
185,257,124639,1,2,0:0:0:0:
59,175,124812,2,0,L|139:181,1,80,8|0,0:0|0:0,0:0:0:0:
6,104,125159,6,0,P|6:64|15:25,2,80,2|0|8,0:0|0:0|0:0,0:0:0:0:
93,91,125679,2,0,L|190:99,1,80,0|0,0:0|0:0,0:0:0:0:
230,164,126026,1,2,0:0:0:0:
299,56,126199,2,0,P|310:95|313:135,1,80,8|2,0:0|0:0,0:0:0:0:
378,17,126546,6,0,P|426:33|471:32,2,80,2|0|8,0:0|0:0|0:0,0:0:0:0:
300,57,127067,2,0,P|260:64|220:62,1,80,0|0,0:0|0:0,0:0:0:0:
141,119,127413,2,0,P|141:79|135:40,1,80,2|8,0:0|0:0,0:0:0:0:
67,168,127760,2,0,P|64:218|69:265,1,80,0|2,0:0|0:0,0:0:0:0:
114,322,128107,6,0,L|72:362,2,40,2|2|2,0:3|0:3|0:3,0:0:0:0:
202,316,128454,2,0,P|238:301|277:293,1,80,2|0,0:3|0:0,0:0:0:0:
364,310,128801,2,0,P|362:270|374:232,2,80,2|8|2,0:0|0:0|0:0,0:0:0:0:
451,320,129321,6,0,P|459:282|457:242,1,80,6|0,0:1|0:0,0:0:0:0:
418,161,129668,2,0,P|411:122|412:82,1,80,8|0,0:0|0:0,0:0:0:0:
366,7,130015,2,0,P|330:25|292:35,1,80,0|2,0:0|0:0,0:0:0:0:
204,27,130361,2,0,P|214:64|217:106,1,80,8|0,0:0|0:0,0:0:0:0:
187,188,130708,6,0,P|231:190|274:178,2,80,2|0|8,2:0|2:0|2:0,0:0:0:0:
115,136,131228,2,0,P|99:177|102:214,1,80,0|0,2:0|2:0,0:0:0:0:
161,277,131575,2,0,P|125:302|73:330,2,80,2|8|2,0:0|0:0|0:0,0:0:0:0:
187,188,132096,6,0,L|277:212,1,80,2|2,0:0|0:3,0:0:0:0:
305,224,132356,1,2,0:3:0:0:
305,224,132442,1,2,0:3:0:0:
388,194,132616,2,0,P|380:155|379:115,1,80,0|0,0:0|0:0,0:0:0:0:
406,31,132963,2,0,L|316:41,1,80,2|8,0:0|0:0,0:0:0:0:
238,43,133309,6,0,P|249:114|177:129,1,160,0|0,0:0|0:0,0:0:0:0:
98,88,133830,2,0,L|100:173,1,80,2|2,0:0|0:0,0:0:0:0:
66,312,134176,2,0,L|44:236,1,80,8|2,0:0|0:0,0:0:0:0:
148,345,134523,2,0,P|191:333|236:333,1,80,2|2,0:0|0:0,0:0:0:0:
314,338,134870,6,0,P|305:298|300:259,2,80,6|0|8,0:1|0:0|0:0,0:0:0:0:
397,366,135390,2,0,P|437:363|492:351,1,80,0|0,0:0|0:0,0:0:0:0:
511,275,135737,1,2,0:0:0:0:
438,144,135910,2,0,L|439:224,1,80,8|0,0:0|0:0,0:0:0:0:
443,55,136257,6,0,P|484:72|524:73,2,80,2|0|8,0:0|0:0|0:0,0:0:0:0:
363,17,136777,2,0,P|332:37|289:47,1,80,0|0,0:0|0:0,0:0:0:0:
207,17,137124,1,2,0:0:0:0:
136,151,137297,2,0,L|138:72,1,80,8|2,0:0|0:0,0:0:0:0:
103,234,137645,6,0,P|67:207|49:175,2,80,2|0|8,0:0|0:0|0:0,0:0:0:0:
190,222,138165,2,0,P|228:210|268:206,1,80,0|0,0:0|0:0,0:0:0:0:
324,274,138512,2,0,P|361:286|401:290,1,80,2|8,0:0|0:0,0:0:0:0:
474,240,138859,2,0,B|468:149,1,80,0|2,0:0|0:0,0:0:0:0:
464,72,139205,6,0,P|486:73|510:66,2,40,2|2|2,0:3|0:3|0:3,0:0:0:0:
387,28,139552,2,0,P|347:23|307:24,1,80,2|0,0:3|0:0,0:0:0:0:
250,91,139899,2,0,P|226:56|220:4,2,80,2|8|2,0:0|0:0|0:0,0:0:0:0:
334,115,140419,6,0,L|324:219,1,80,6|0,0:1|0:0,0:0:0:0:
260,253,140766,2,0,L|236:163,1,80,8|0,0:0|0:0,0:0:0:0:
165,127,141113,2,0,L|155:231,1,80,0|2,0:0|0:0,0:0:0:0:
91,265,141460,2,0,L|67:175,1,80,8|0,0:0|0:0,0:0:0:0:
75,99,141807,6,0,P|37:111|-1:101,2,80,2|0|8,0:0|0:0|0:0,0:0:0:0:
140,39,142327,2,0,P|179:33|215:48,2,80,0|0|2,0:0|0:0|0:0,0:0:0:0:
165,127,142847,1,8,0:0:0:0:
165,127,143194,6,0,P|161:176|168:217,1,80,2|2,0:0|0:3,0:0:0:0:
190,242,143454,1,2,0:3:0:0:
190,242,143541,2,0,P|229:228|276:230,1,80,2|0,0:3|0:0,0:0:0:0:
350,256,143887,2,0,P|355:215|350:176,1,80,0|2,0:0|0:0,0:0:0:0:
286,42,144234,2,0,P|277:81|279:121,1,80,8|2,0:0|0:3,0:0:0:0:
374,27,144581,6,0,L|455:38,1,80,2|0,0:0|0:0,0:0:0:0:
509,106,144928,2,0,L|432:133,1,80,8|0,0:0|0:0,0:0:0:0:
349,165,145275,5,2,0:0:0:0:
349,165,145448,2,0,B|367:230|339:299|339:299|311:234,1,192,2|0,0:0|0:0,0:0:0:0:
419,112,158454,6,0,L|413:177,1,64,2|0,0:0|0:0,0:0:0:0:
342,230,158801,2,0,L|327:163,1,64,2|0,0:0|0:0,0:0:0:0:
249,125,159147,2,0,L|243:190,1,64,2|0,0:0|0:0,0:0:0:0:
172,243,159494,2,0,L|157:176,1,64,2|0,0:0|0:0,0:0:0:0:
136,93,159841,6,0,P|99:101|64:91,2,64,2|0|2,0:0|0:0|0:0,0:0:0:0:
210,41,160361,1,0,0:0:0:0:
298,55,160535,2,0,P|318:79|329:109,1,64,2|0,0:0|0:0,0:0:0:0:
335,197,160882,2,0,P|365:187|396:181,1,64,2|0,0:0|0:0,0:0:0:0:
419,267,161228,6,0,L|389:325,1,64,2|0,0:0|0:0,0:0:0:0:
303,347,161575,2,0,L|314:279,1,64,2|0,0:0|0:0,0:0:0:0:
256,215,161921,2,0,L|226:273,1,64,2|0,0:0|0:0,0:0:0:0:
141,296,162268,2,0,L|152:228,1,64,2|0,0:0|0:0,0:0:0:0:
176,146,162616,5,2,0:0:0:0:
176,146,162789,1,0,0:0:0:0:
174,56,162962,2,0,P|138:61|99:62,1,64,2|0,0:0|0:0,0:0:0:0:
23,41,163309,1,2,0:0:0:0:
23,41,163483,1,0,0:0:0:0:
54,124,163656,2,0,P|50:157|57:200,1,64,2|0,0:0|0:0,0:0:0:0:
75,274,164003,6,0,P|50:293|22:307,2,64,2|8|2,0:0|0:0|0:0,0:0:0:0:
156,234,164523,1,8,0:0:0:0:
219,170,164697,2,0,P|211:128|192:87,2,64,2|8|2,0:0|0:0|0:0,0:0:0:0:
251,254,165217,1,8,0:0:0:0:
339,242,165390,6,0,P|349:286|346:323,2,64,2|8|2,0:0|0:0|0:0,0:0:0:0:
314,155,165910,1,8,0:0:0:0:
401,176,166084,2,0,P|401:142|392:112,1,64,2|8,0:0|0:0,0:0:0:0:
321,57,166431,1,2,0:0:0:0:
240,95,166604,1,8,0:0:0:0:
240,95,166691,1,0,0:0:0:0:
239,95,166777,6,0,P|208:98|177:91,1,64,2|2,0:0|0:0,0:0:0:0:
100,44,167124,2,0,P|89:74|86:106,1,64,2|2,0:0|0:0,0:0:0:0:
110,192,167471,2,0,L|43:203,2,64,2|2|2,0:0|0:0|0:0,0:0:0:0:
181,246,167991,1,2,0:0:0:0:
263,211,168165,6,0,L|317:218,3,32,2|0|2|0,0:0|0:0|0:0|0:0,0:0:0:0:
339,214,168512,2,0,L|346:297,1,64,2|0,0:0|0:0,0:0:0:0:
414,333,168858,2,0,L|438:265,1,64,8|8,0:1|0:1,0:0:0:0:
448,183,169205,2,0,P|413:158|394:133,1,64,8|8,0:1|0:1,0:0:0:0:
352,65,169552,5,0,0:0:0:0:
132,151,175101,6,0,B|193:176|193:135|264:158,1,128,6|0,0:1|0:0,0:0:0:0:
331,205,175621,6,0,P|345:143|315:88,1,128,2|0,0:0|0:0,0:0:0:0:
246,31,176142,2,0,L|160:42,1,64,2|0,0:0|0:0,0:0:0:0:
137,45,176402,1,0,0:0:0:0:
137,45,176488,6,0,P|165:89|123:154,1,128,2|0,0:0|0:0,0:0:0:0:
42,140,177009,6,0,B|36:176|60:208|60:208|53:231|53:231|67:251|73:273,1,128,2|0,0:0|0:0,0:0:0:0:
148,298,177529,2,0,P|178:287|209:281,1,64,2|0,0:0|0:0,0:0:0:0:
298,296,177876,6,0,P|302:264|318:237,2,64,2|2|2,0:0|0:0|0:0,0:0:0:0:
387,297,178396,1,2,0:0:0:0:
476,299,178569,2,0,P|471:330|455:357,2,64,2|2|2,0:0|0:0|0:0,0:0:0:0:
432,219,179090,1,2,0:0:0:0:
432,219,179263,1,2,0:0:0:0:
380,70,179610,6,0,L|359:127,1,55.9999982910157,2|0,0:0|0:0,0:0:0:0:
284,170,179957,2,0,L|276:65,1,83.9999974365235,2|0,0:0|0:0,0:0:0:0:
275,41,180304,1,2,0:0:0:0:
112,107,180650,6,0,L|32:111,2,80,6|0|8,0:1|0:0|0:0,0:0:0:0:
171,45,181170,2,0,P|190:80|198:120,1,80,0|0,0:0|0:0,0:0:0:0:
144,189,181517,1,8,0:0:0:0:
308,188,181690,2,0,L|230:203,1,80,8|0,0:0|0:0,0:0:0:0:
385,233,182037,6,0,P|396:195|391:155,2,80,2|0|8,0:0|0:0|0:0,0:0:0:0:
337,307,182557,2,0,P|376:322|424:319,1,80,0|0,0:0|0:0,0:0:0:0:
490,278,182904,1,2,0:0:0:0:
489,110,183077,2,0,P|494:150|496:190,1,80,8|2,0:0|0:0,0:0:0:0:
435,40,183425,6,0,L|517:16,2,80,2|0|8,0:0|0:0|0:0,0:0:0:0:
373,104,183945,2,0,B|274:85,1,80,0|0,0:0|0:0,0:0:0:0:
206,83,184292,2,0,P|214:121|202:161,1,80,2|8,0:0|0:0,0:0:0:0:
117,184,184639,2,0,P|108:222|121:262,1,80,0|2,0:0|0:0,0:0:0:0:
199,299,184985,6,0,L|192:341,2,40,2|2|2,0:3|0:3|0:3,0:0:0:0:
284,277,185332,2,0,P|323:280|363:277,1,80,2|0,0:3|0:0,0:0:0:0:
444,241,185679,2,0,P|451:279|445:318,2,80,2|8|2,0:0|0:0|0:0,0:0:0:0:
370,192,186199,6,0,P|362:153|368:114,1,80,6|0,0:1|0:0,0:0:0:0:
355,26,186546,2,0,L|263:37,1,80,8|0,0:0|0:0,0:0:0:0:
214,99,186893,2,0,L|112:58,1,80,0|2,2:0|0:0,0:0:0:0:
53,51,187239,2,0,P|56:90|52:130,1,80,8|0,0:0|0:0,0:0:0:0:
10,209,187587,6,0,P|6:248|14:287,2,80,2|0|8,0:0|0:0|0:0,0:0:0:0:
99,202,188106,2,0,P|138:203|178:198,1,80,0|0,0:0|0:0,0:0:0:0:
266,188,188454,2,0,P|258:227|260:267,2,80,2|8|2,0:0|0:0|0:0,0:0:0:0:
327,124,188974,6,0,P|293:104|251:99,1,80,2|2,0:0|0:3,0:0:0:0:
213,117,189234,1,2,0:3:0:0:
213,117,189320,1,2,0:3:0:0:
178,198,189494,2,0,L|184:287,1,80,0|0,0:0|0:0,0:0:0:0:
247,338,189841,2,0,L|273:243,1,80,2|8,0:0|0:0,0:0:0:0:
305,181,190188,6,0,P|368:216|406:155,1,160
406,66,190708,2,0,L|324:59,1,80,8|2,0:0|0:0,0:0:0:0:
170,47,191054,2,0,L|246:22,1,80,8|2,0:0|0:0,0:0:0:0:
87,77,191401,2,0,P|97:121|95:166,1,80,2|2,0:0|0:0,0:0:0:0:
74,241,191748,6,0,P|27:228|-5:208,2,80,6|0|8,0:1|0:0|0:0,0:0:0:0:
161,250,192268,2,0,P|154:292|169:340,1,80,0|0,0:0|0:0,0:0:0:0:
240,369,192615,1,2,0:0:0:0:
355,288,192788,2,0,L|275:288,1,80,8|0,0:0|0:0,0:0:0:0:
441,307,193136,6,0,P|426:344|426:383,2,80,2|0|8,0:0|0:0|0:0,0:0:0:0:
508,249,193656,2,0,P|500:209|480:175,1,80,0|0,0:0|0:0,0:0:0:0:
406,128,194002,1,2,0:0:0:0:
307,47,194176,2,0,L|387:42,1,80,8|2,0:0|0:0,0:0:0:0:
226,83,194523,6,0,P|239:137|236:182,2,80,2|0|8,0:0|0:0|0:0,0:0:0:0:
149,38,195043,2,0,B|47:53,1,80,0|0,0:0|0:0,0:0:0:0:
5,109,195390,2,0,P|3:150|17:198,1,80,2|8,0:0|0:0,0:0:0:0:
83,239,195737,2,0,B|120:225|125:241|160:224,1,80,0|2,0:0|0:0,0:0:0:0:
222,161,196083,6,0,P|217:142|216:115,2,40,2|2|2,0:3|0:3|0:3,0:0:0:0:
288,220,196431,2,0,B|322:236|327:221|365:234,1,80,2|0,0:3|0:0,0:0:0:0:
442,278,196777,2,0,P|428:315|429:355,2,80,2|8|2,0:0|0:0|0:0,0:0:0:0:
510,221,197297,6,0,P|479:197|439:187,1,80,6|0,0:1|0:0,0:0:0:0:
351,180,197644,2,0,P|356:140|346:101,1,80,8|0,0:0|0:0,0:0:0:0:
273,50,197991,2,0,P|235:62|196:63,1,80,0|2,0:0|0:0,0:0:0:0:
108,49,198338,2,0,L|126:145,1,80,8|0,0:0|0:0,0:0:0:0:
171,202,198685,6,0,P|208:213|246:204,2,80,2|0|8,0:0|0:0|0:0,0:0:0:0:
82,206,199205,2,0,P|45:217|7:208,2,80,0|0|2,0:0|0:0|0:0,0:0:0:0:
122,127,199725,1,8,0:0:0:0:
122,127,200072,6,0,P|105:93|97:43,1,80,2|2,0:0|0:3,0:0:0:0:
131,23,200332,1,2,0:3:0:0:
131,23,200419,2,0,P|169:34|208:36,1,80,2|0,0:3|0:0,0:0:0:0:
296,30,200765,2,0,P|287:73|293:132,1,80,0|2,0:0|0:0,0:0:0:0:
360,235,201112,2,0,P|365:195|362:156,1,80,8|2,0:0|0:3,0:0:0:0:
323,315,201459,6,0,P|282:305|232:308,1,80,2|0,0:0|0:0,0:0:0:0:
169,352,201806,2,0,P|129:354|91:342,1,80,8|0,0:0|0:0,0:0:0:0:
38,269,202153,5,2,0:0:0:0:
38,269,202326,2,0,B|43:216|43:216|28:205|28:205|49:147|31:73,1,192,2|0,0:0|0:0,0:0:0:0:
