osu file format v14

[General]
AudioFilename: TWICE-01-CHEER UP.mp3
AudioLeadIn: 0
PreviewTime: 60477
Countdown: 0
SampleSet: Soft
StackLeniency: 0.3
Mode: 0
LetterboxInBreaks: 0
WidescreenStoryboard: 1

[Editor]
Bookmarks: 5853,11402,16951,22500,28049,33598,39147,44697,50246,55795,77991,79379,84928,90477,96026,101575,107124,112673,118223,123772,147356,158454,162616,166777,169552,175101,180650,204234
DistanceSpacing: 0.9
BeatDivisor: 4
GridSize: 32
TimelineZoom: 0.9

[Metadata]
Title:CHEER UP
TitleUnicode:CHEER UP
Artist:TWICE
ArtistUnicode:TWICE
Creator:Euny
Version:Easy
Source:
Tags:Natsu 나연 정연 모모 사나 지효 미나 다현 채영 쯔위 NAYEON JEONGYEON MOMO SANA JIHYO MINA DAHYUN CHAEYOUNG TZUYU PAGE TWO jyp entertainment kpop k-pop
BeatmapID:988327
BeatmapSetID:456547

[Difficulty]
HPDrainRate:2.5
CircleSize:3
OverallDifficulty:2.5
ApproachRate:3
SliderMultiplier:1
SliderTickRate:1

[Events]
//Background and Video events
0,0,"shut up.jpg",0,0
Video,0,"TWICE-CHEER UP.avi"
//Break Periods
2,147356,157014
2,169752,173661
//Storyboard Layer 0 (Background)
//Storyboard Layer 1 (Fail)
//Storyboard Layer 2 (Pass)
//Storyboard Layer 3 (Foreground)
//Storyboard Sound Samples

[TimingPoints]
304,346.820809248555,4,2,33,55,1,0
5853,-100,4,2,34,40,0,0
8627,-100,4,2,34,40,0,0
10014,-100,4,2,33,55,0,0
13309,-100,4,2,34,55,0,0
13483,-100,4,2,33,55,0,0
13830,-100,4,2,34,55,0,0
14176,-100,4,2,33,55,0,0
18858,-100,4,2,34,55,0,0
19032,-100,4,2,33,55,0,0
19379,-100,4,2,34,55,0,0
19725,-100,4,2,33,55,0,0
24408,-100,4,2,34,55,0,0
24581,-100,4,2,33,55,0,0
24928,-100,4,2,34,55,0,0
25275,-100,4,2,33,55,0,0
29957,-100,4,2,34,55,0,0
30130,-100,4,2,33,55,0,0
30477,-100,4,2,34,55,0,0
30824,-100,4,2,33,55,0,0
33598,-100,4,2,33,40,0,0
40014,-100,4,2,33,40,0,0
44697,-100,4,2,33,55,0,0
55795,-100,4,2,35,63,0,1
56142,-100,4,2,35,63,0,0
61344,-100,4,2,35,63,0,1
61691,-100,4,2,35,63,0,0
66893,-100,4,2,35,63,0,1
67240,-100,4,2,35,63,0,0
72442,-100,4,2,35,63,0,1
72789,-100,4,2,35,63,0,0
77298,-100,4,2,33,50,0,0
79379,-100,4,2,33,55,0,0
84928,-100,4,2,33,55,0,0
92384,-100,4,2,34,55,0,0
92558,-100,4,2,33,55,0,0
92905,-100,4,2,34,55,0,0
93078,-100,4,2,33,55,0,0
97934,-100,4,2,34,55,0,0
98107,-100,4,2,33,55,0,0
98454,-100,4,2,34,55,0,0
98627,-100,4,2,33,55,0,0
100188,-100,4,2,34,55,0,0
100882,-100,4,2,33,55,0,0
101575,-100,4,2,33,40,0,0
107991,-100,4,2,33,40,0,0
112673,-100,4,2,33,55,0,0
123772,-100,4,2,35,63,0,1
124119,-100,4,2,35,63,0,0
129321,-100,4,2,35,63,0,1
129668,-100,4,2,35,63,0,0
134870,-100,4,2,35,63,0,1
135217,-100,4,2,35,63,0,0
140419,-100,4,2,35,63,0,1
140766,-100,4,2,35,63,0,0
145275,-100,4,2,33,50,0,0
158454,-100,4,2,33,55,0,0
162616,-100,4,2,33,55,0,0
166777,-100,4,2,33,55,0,0
169552,-100,4,2,33,55,0,0
179610,-100,4,2,34,55,0,0
180650,-100,4,2,35,63,0,1
180997,-100,4,2,35,63,0,0
186199,-100,4,2,35,63,0,1
186546,-100,4,2,35,63,0,0
191749,-100,4,2,35,63,0,1
192095,-100,4,2,35,63,0,0
197298,-100,4,2,35,63,0,1
197645,-100,4,2,35,63,0,0
202153,-100,4,2,33,50,0,0

[Colours]
Combo1 : 153,153,153
Combo2 : 0,230,230

[HitObjects]
182,151,5853,6,0,L|28:169,2,150,2|2|0,0:0|0:0|0:0,0:0:0:0:
271,155,7240,2,0,P|274:79|230:19,2,150,2|10|8,0:0|0:0|0:0,0:0:0:0:
231,236,8627,6,0,P|359:283|421:161,1,300,2|0,0:0|0:0,0:0:0:0:
422,71,10014,2,0,L|301:85,1,100,8|8,0:1|0:1,0:0:0:0:
246,131,10708,2,0,L|132:115,1,100,8|8,0:1|0:1,0:0:0:0:
59,95,11402,6,0,L|67:202,1,100,4|0,0:1|0:0,0:0:0:0:
76,284,12095,1,8,0:0:0:0:
244,348,12789,2,0,P|283:336|365:335,1,100,2|0,0:0|0:0,0:0:0:0:
431,344,13483,2,0,L|409:238,1,100,8|8,0:0|0:0,0:0:0:0:
400,156,14176,6,0,P|338:179|300:180,2,100,2|0|8,0:0|0:0|0:0,0:0:0:0:
409,66,15217,1,0,0:0:0:0:
324,33,15564,2,0,L|213:42,1,100,2|0,0:0|0:0,0:0:0:0:
134,46,16257,2,0,P|145:94|132:142,1,100,2|2,0:3|0:3,0:0:0:0:
122,231,16951,6,0,P|171:223|219:234,1,100,2|0,0:0|0:0,0:0:0:0:
289,291,17645,1,8,0:0:0:0:
367,247,17991,1,0,0:0:0:0:
333,163,18338,2,0,P|315:90|329:18,2,150,2|8|8,0:0|0:0|0:0,0:0:0:0:
422,171,19725,6,0,P|454:208|462:259,1,100,2|0,0:0|0:0,0:0:0:0:
443,345,20419,2,0,L|330:346,1,100,8|0,0:0|0:0,0:0:0:0:
253,338,21113,2,0,P|175:230|291:166,1,300,8|8,0:1|0:1,0:0:0:0:
379,183,22500,6,0,P|374:134|346:93,1,100,2|0,0:0|0:0,0:0:0:0:
261,66,23194,2,0,P|213:76|165:64,1,100,8|0,0:0|0:0,0:0:0:0:
77,46,23887,2,0,L|85:211,2,150,2|8|8,0:0|0:0|0:0,0:0:0:0:
167,48,25275,6,0,L|282:40,1,100,2|0,0:0|0:3,0:0:0:0:
355,45,25968,2,0,P|346:93|356:142,1,100,8|0,0:0|0:0,0:0:0:0:
436,183,26662,2,0,P|446:231|437:280,1,100,2|0,0:0|0:0,0:0:0:0:
366,337,27356,2,0,P|269:312|171:321,1,200,2|2,0:3|0:0,0:0:0:0:
97,374,28396,5,0,0:0:0:0:
59,292,28743,2,0,P|58:242|70:193,1,100,8|0,0:0|0:0,0:0:0:0:
104,110,29436,2,0,P|32:97|-5:32,2,150,2|8|8,0:0|0:0|0:0,0:0:0:0:
180,61,30824,6,0,P|226:54|292:59,1,100,2|0,0:0|0:0,0:0:0:0:
346,116,31517,2,0,P|395:118|445:111,1,100,8|0,0:0|0:0,0:0:0:0:
493,186,32211,2,0,P|460:321|321:315,1,300,8|8,0:1|0:1,0:0:0:0:
251,259,33598,6,0,B|154:217|154:290|56:255,1,200,6|2,0:0|0:0,0:0:0:0:
6,180,34639,1,8,0:0:0:0:
39,96,34986,2,0,P|97:48|170:34,2,150,2|8|8,0:0|0:0|0:0,0:0:0:0:
93,168,36373,6,0,L|211:192,1,100,2|0,0:0|0:0,0:0:0:0:
281,190,37067,2,0,P|276:140|283:90,1,100,2|8,0:0|0:0,0:0:0:0:
356,38,37761,2,0,B|510:21,2,150,2|0|8,0:0|0:0|0:0,0:0:0:0:
272,69,39147,6,0,B|317:164|244:167|282:263,1,200,2|2,0:1|0:0,0:0:0:0:
350,322,40188,1,8,0:0:0:0:
399,247,40535,2,0,P|456:199|494:131,2,150,2|8|8,0:0|0:0|0:0,0:0:0:0:
314,214,41922,6,0,L|216:194,1,100,2|0,0:0|0:0,0:0:0:0:
125,197,42616,2,0,P|136:148|126:100,1,100,2|8,0:0|0:0,0:0:0:0:
189,35,43310,2,0,B|343:18,2,150,2|8|8,0:0|0:0|0:0,0:0:0:0:
125,99,44697,6,0,P|101:56|103:7,2,100,2|8|2,0:0|0:0|0:0,0:0:0:0:
204,144,45737,1,8,0:0:0:0:
239,226,46084,2,0,P|301:239|383:207,2,150,2|0|8,0:0|0:0|0:0,0:0:0:0:
149,218,47471,6,0,L|143:334,1,100,2|8,0:0|0:0,0:0:0:0:
214,374,48165,2,0,P|257:350|306:340,1,100,2|8,0:0|0:0,0:0:0:0:
389,372,48858,2,0,P|451:331|477:262,2,150,2|0|8,0:0|0:0|0:0,0:0:0:0:
338,297,50246,6,0,L|331:191,1,100,2|2,0:0|0:0,0:0:0:0:
316,108,50939,2,0,P|268:121|218:122,1,100,2|2,0:0|0:0,0:0:0:0:
131,99,51633,2,0,L|132:198,1,100,2|2,0:0|0:0,0:0:0:0:
136,289,52327,2,0,P|185:289|233:303,1,100,2|2,0:0|0:0,0:0:0:0:
323,302,53020,6,0,P|370:168|272:65,1,300,2|2,0:0|0:0,0:0:0:0:
184,85,54408,2,0,P|136:219|234:322,1,300,2|4,0:0|0:0,0:0:0:0:
323,302,55795,5,6,0:1:0:0:
410,324,56142,2,0,B|413:240|413:240|401:199|401:199|402:125,1,200,8|8,0:0|0:0,0:0:0:0:
403,36,57182,1,2,0:0:0:0:
318,66,57529,2,0,P|221:86|125:61,1,200,8|8,0:0|0:0,0:0:0:0:
38,36,58569,5,2,0:0:0:0:
16,123,58916,2,0,B|49:222|-2:222|28:322,1,200,8|8,0:0|0:0,0:0:0:0:
109,358,59957,2,0,P|181:341|255:349,2,150,2|2|8,0:0|0:3|0:0,0:0:0:0:
104,268,61344,6,0,P|109:219|101:170,1,100,6|8,0:1|0:0,0:0:0:0:
92,79,62038,2,0,L|195:93,1,100,0|8,0:0|0:0,0:0:0:0:
277,120,62731,2,0,P|265:168|267:218,2,100,2|8|0,0:0|0:0|0:0,0:0:0:0:
358,79,63772,1,8,0:0:0:0:
440,115,64119,6,0,P|456:187|452:262,1,150,2|0,0:0|0:0,0:0:0:0:
385,323,64986,1,2,0:0:0:0:
295,329,65332,2,0,L|122:347,1,150,0|8,0:0|0:0,0:0:0:0:
58,320,66199,2,0,P|62:270|50:222,1,100,8|2,0:0|0:0,0:0:0:0:
22,136,66893,5,6,0:1:0:0:
75,63,67240,2,0,B|271:96,1,200,8|8,0:0|0:0,0:0:0:0:
360,114,68280,1,2,0:0:0:0:
443,80,68627,2,0,P|461:177|442:275,1,200,8|8,0:0|0:0,0:0:0:0:
392,350,69667,5,2,0:0:0:0:
305,324,70014,2,0,B|203:350|207:299|107:321,1,200,8|8,0:0|0:0,0:0:0:0:
25,284,71055,2,0,P|15:210|31:137,2,150,2|2|8,0:0|0:3|0:0,0:0:0:0:
103,239,72442,6,0,L|208:223,1,100,6|8,0:1|0:0,0:0:0:0:
260,155,73136,2,0,L|361:196,1,100,0|8,0:0|0:0,0:0:0:0:
427,242,73829,2,0,P|415:290|417:340,2,100,2|8|0,0:0|0:0|0:0,0:0:0:0:
438,152,74870,1,8,0:0:0:0:
397,71,75217,6,0,P|325:91|200:66,1,200,2|0,0:0|0:0,0:0:0:0:
119,37,76257,1,8,0:0:0:0:
44,86,76604,2,0,L|62:192,1,100,2|8,0:0|0:0,0:0:0:0:
91,269,77298,2,0,B|190:248|190:302|288:274,1,200,2|0,0:0|0:0,0:0:0:0:
288,274,79379,6,0,P|292:133|425:90,1,300,2|0,0:0|0:0,0:0:0:0:
469,168,80766,2,0,L|478:278,1,100,2|0,0:0|0:0,0:0:0:0:
448,353,81460,2,0,P|398:345|349:352,1,100,0|0,0:0|0:0,0:0:0:0:
259,358,82153,6,0,P|122:322|110:182,1,300,2|0,0:0|0:0,0:0:0:0:
145,99,83540,2,0,L|252:116,1,100,8|8,0:0|0:0,0:0:0:0:
327,149,84234,2,0,L|425:105,1,100,8|8,0:0|0:0,0:0:0:0:
500,142,84928,6,0,B|469:209|481:293|481:293|387:283|345:332,1,300,2|0,0:0|0:0,0:0:0:0:
261,363,86315,2,0,P|213:374|167:355,1,100,2|0,0:0|0:0,0:0:0:0:
94,302,87009,2,0,P|93:253|71:209,1,100,0|0,0:0|0:0,0:0:0:0:
79,118,87702,6,0,B|228:168|227:68|372:112,1,300,2|0,0:0|0:0,0:0:0:0:
344,198,89090,2,0,P|234:256|339:322,1,300,8|8,0:1|0:1,0:0:0:0:
426,298,90477,6,0,P|440:225|480:162,2,150,2|8|8,0:0|0:0|0:0,0:0:0:0:
355,354,91864,2,0,P|281:365|206:357,2,150,2|8|8,0:0|0:0|0:0,0:0:0:0:
426,298,93251,6,0,P|431:222|417:143,2,150,2|8|8,0:0|0:0|0:0,0:0:0:0:
343,259,94639,2,0,P|294:254|245:262,1,100,2|2,0:0|0:0,0:0:0:0:
177,321,95332,2,0,P|127:328|78:324,1,100,8|8,0:0|0:0,0:0:0:0:
2,274,96026,6,0,P|-10:200|2:126,2,150,2|8|8,0:0|0:0|0:0,0:0:0:0:
86,241,97413,2,0,L|242:215,2,150,2|8|8,0:0|0:0|0:0,0:0:0:0:
25,173,98801,6,0,P|6:93|48:34,2,150,2|8|8,0:0|0:0|0:0,0:0:0:0:
109,140,100188,2,0,P|207:127|302:156,1,200,2|8,0:0|0:0,0:0:0:0:
461,240,101575,6,0,B|422:141|495:144|463:44,1,200,6|2,0:0|0:0,0:0:0:0:
374,35,102616,1,8,0:0:0:0:
290,69,102963,2,0,P|216:83|142:72,2,150,2|8|8,0:0|0:0|0:0,0:0:0:0:
361,123,104350,6,0,P|351:171|355:221,1,100,2|0,0:0|0:0,0:0:0:0:
391,304,105044,2,0,L|292:318,1,100,2|8,0:0|0:0,0:0:0:0:
201,323,105738,2,0,P|206:248|174:181,2,150,2|0|8,0:0|0:0|0:0,0:0:0:0:
111,314,107124,6,0,B|134:221|51:234|77:122,1,200,2|2,0:0|0:0,0:0:0:0:
115,42,108165,1,8,0:0:0:0:
202,64,108512,2,0,P|272:89|349:88,2,150,2|8|8,0:0|0:0|0:0,0:0:0:0:
115,42,109899,6,0,L|124:143,1,100,2|0,0:0|0:0,0:0:0:0:
207,175,110593,2,0,L|183:277,1,100,2|8,0:0|0:0,0:0:0:0:
145,353,111287,2,0,P|75:327|1:332,2,150,2|8|8,0:0|0:0|0:0,0:0:0:0:
233,367,112674,6,0,P|281:375|327:357,2,100,2|8|0,0:0|0:0|0:0,0:0:0:0:
272,285,113714,1,8,0:0:0:0:
361,271,114061,2,0,P|380:210|357:125,2,150,2|0|8,0:0|0:0|0:0,0:0:0:0:
272,285,115448,6,0,L|149:294,1,100,2|8,0:0|0:0,0:0:0:0:
83,306,116142,2,0,P|78:256|64:208,1,100,2|8,0:0|0:0,0:0:0:0:
25,127,116835,2,0,P|62:62|130:33,2,150,2|0|8,0:0|0:0|0:0,0:0:0:0:
64,208,118223,6,0,L|175:207,1,100,2|2,0:0|0:0,0:0:0:0:
235,262,118916,2,0,L|338:228,1,100,2|2,0:0|0:0,0:0:0:0:
416,205,119610,2,0,P|396:160|386:111,1,100,2|2,0:0|0:0,0:0:0:0:
352,28,120304,2,0,P|305:45|255:48,1,100,2|2,0:0|0:0,0:0:0:0:
164,38,120997,6,0,P|66:141|112:276,1,300,2|2,0:0|0:0,0:0:0:0:
203,285,122384,2,0,P|301:182|255:47,1,300,2|4,0:0|0:0,0:0:0:0:
164,38,123772,5,6,0:1:0:0:
76,59,124119,2,0,B|96:159|31:159|62:254,1,200,8|8,0:0|0:0,0:0:0:0:
124,318,125159,1,2,0:0:0:0:
202,274,125506,2,0,P|297:299|395:279,1,200,8|8,0:0|0:0,0:0:0:0:
462,219,126546,5,2,0:0:0:0:
398,155,126893,2,0,P|302:129|204:149,1,200,8|8,0:0|0:0,0:0:0:0:
139,211,127934,2,0,P|156:283|147:357,2,150,2|2|8,0:0|0:3|0:0,0:0:0:0:
58,170,129321,6,0,P|50:120|55:71,1,100,6|8,0:1|0:0,0:0:0:0:
133,26,130015,2,0,L|236:40,1,100,0|8,0:0|0:0,0:0:0:0:
315,73,130708,2,0,P|303:121|305:171,2,100,2|8|0,2:0|2:0|2:0,0:0:0:0:
395,32,131749,1,8,0:0:0:0:
480,59,132096,6,0,P|496:131|492:206,1,150,2|0,0:0|0:0,0:0:0:0:
440,280,132963,1,2,0:0:0:0:
362,325,133309,2,0,P|292:297|218:300,1,150,0|2,0:0|0:0,0:0:0:0:
130,317,134176,2,0,P|134:267|122:219,1,100,8|2,0:0|0:0,0:0:0:0:
56,157,134870,5,6,0:1:0:0:
73,68,135217,2,0,B|172:95|172:34|269:59,1,200,8|8,0:0|0:0,0:0:0:0:
344,107,136257,1,2,0:0:0:0:
428,76,136604,2,0,P|446:173|427:271,1,200,8|8,0:0|0:0,0:0:0:0:
377,346,137644,5,2,0:0:0:0:
288,327,137991,2,0,B|186:353|190:302|90:324,1,200,8|8,0:0|0:0,0:0:0:0:
19,268,139032,2,0,P|9:194|25:121,2,150,2|2|8,0:0|0:3|0:0,0:0:0:0:
102,234,140419,6,0,L|207:218,1,100,6|8,0:1|0:0,0:0:0:0:
275,168,141113,2,0,L|376:209,1,100,0|8,0:0|0:0,0:0:0:0:
444,253,141806,2,0,P|432:301|434:351,2,100,2|8|0,0:0|0:0|0:0,0:0:0:0:
474,167,142847,1,8,0:0:0:0:
425,90,143194,6,0,P|329:111|232:87,1,200,2|0,0:0|0:0,0:0:0:0:
159,35,144234,1,8,0:0:0:0:
76,70,144581,2,0,L|94:176,1,100,2|8,0:0|0:0,0:0:0:0:
142,244,145275,2,0,P|232:243|234:153,1,200,2|0,0:0|0:0,0:0:0:0:
150,101,158454,6,0,P|145:150|152:199,1,100,2|2,0:0|0:0,0:0:0:0:
237,229,159147,2,0,P|283:212|333:216,1,100,2|2,0:0|0:0,0:0:0:0:
417,247,159841,2,0,P|426:198|420:148,1,100,2|2,0:0|0:0,0:0:0:0:
385,64,160535,2,0,P|337:78|288:70,1,100,2|2,0:0|0:0,0:0:0:0:
211,23,161228,6,0,P|161:19|112:29,1,100,2|2,0:0|0:0,0:0:0:0:
28,62,161922,2,0,L|43:179,1,100,2|2,0:0|0:0,0:0:0:0:
58,249,162616,2,0,L|39:348,1,100,2|2,0:0|0:0,0:0:0:0:
127,364,163309,2,0,P|175:354|225:359,1,100,2|2,0:0|0:0,0:0:0:0:
314,373,164003,6,0,L|328:274,1,100,2|2,0:0|0:0,0:0:0:0:
345,184,164697,2,0,P|295:188|246:178,1,100,2|2,0:0|0:0,0:0:0:0:
188,109,165390,2,0,P|139:99|89:103,1,100,2|2,0:0|0:0,0:0:0:0:
26,167,166084,2,0,L|29:283,1,100,2|2,0:0|0:0,0:0:0:0:
92,329,166777,6,0,B|239:278|238:384|384:335,1,300,2|2,0:0|0:0,0:0:0:0:
358,248,168165,2,0,P|238:197|316:93,1,300,2|8,0:0|0:1,0:0:0:0:
406,97,169552,5,12,0:1:0:0:
406,97,175101,6,0,L|245:114,2,150,6|2|2,0:1|0:0|0:0,0:0:0:0:
468,160,176488,2,0,P|496:92|461:25,2,150,2|2|2,0:0|0:0|0:0,0:0:0:0:
408,226,177876,6,0,B|361:226|304:162|304:162|233:248|158:288|71:288,1,400,2|2,0:0|0:0,0:0:0:0:
4,226,179610,2,0,P|0:177|15:130,2,100,2|2|2,0:0|0:0|0:0,0:0:0:0:
71,288,180650,5,6,0:1:0:0:
136,349,180997,2,0,P|233:329|332:341,1,200,8|8,0:0|0:0,0:0:0:0:
419,364,182037,1,2,0:0:0:0:
475,293,182384,2,0,P|447:199|464:101,1,200,8|8,0:0|0:0,0:0:0:0:
495,17,183424,5,2,0:0:0:0:
406,33,183771,2,0,B|303:53|309:3|207:20,1,200,8|8,0:0|0:0,0:0:0:0:
129,62,184812,2,0,P|108:133|112:208,2,150,2|2|8,0:0|0:3|0:0,0:0:0:0:
204,111,186199,6,0,P|194:158|207:209,1,100,6|8,0:1|0:0,0:0:0:0:
296,206,186893,2,0,P|305:158|292:107,1,100,0|8,2:0|0:0,0:0:0:0:
350,39,187586,2,0,P|398:51|448:49,2,100,2|8|0,0:0|0:0|0:0,0:0:0:0:
260,28,188627,1,8,0:0:0:0:
194,90,188974,6,0,P|120:79|48:100,1,150,2|0,0:0|0:0,0:0:0:0:
1,177,189841,1,2,0:0:0:0:
56,248,190188,2,0,P|129:258|201:237,1,150,0|8,0:0|0:0,0:0:0:0:
279,193,191055,2,0,P|291:241|286:290,1,100,8|2,0:0|0:0,0:0:0:0:
251,373,191748,5,6,0:1:0:0:
340,364,192095,2,0,P|422:307|480:209,1,200,8|8,0:0|0:0,0:0:0:0:
487,134,193135,1,2,0:0:0:0:
432,61,193482,2,0,P|334:72|238:46,1,200,8|8,0:0|0:0,0:0:0:0:
149,28,194522,5,2,0:0:0:0:
69,70,194870,2,0,B|109:166|44:166|82:265,1,200,8|8,0:0|0:0,0:0:0:0:
141,332,195910,2,0,P|69:359|4:315,2,150,2|2|8,0:0|0:3|0:0,0:0:0:0:
212,278,197298,6,0,P|261:287|307:304,1,100,6|8,0:1|0:0,0:0:0:0:
395,324,197991,2,0,L|385:222,1,100,0|8,0:0|0:0,0:0:0:0:
403,136,198685,2,0,P|451:148|501:146,2,100,2|8|0,0:0|0:0|0:0,0:0:0:0:
338,72,199725,1,8,0:0:0:0:
289,147,200072,6,0,P|217:167|92:142,1,200,2|0,0:0|0:0,0:0:0:0:
11,112,201112,1,8,0:0:0:0:
7,201,201459,2,0,L|25:307,1,100,2|8,0:0|0:0,0:0:0:0:
109,327,202153,2,0,B|208:306|208:360|306:332,1,200,2|0,0:0|0:0,0:0:0:0:
