osu file format v11

[General]
AudioFilename: You Only Love.mp3
AudioLeadIn: 0
PreviewTime: -1
Countdown: 0
SampleSet: Soft
StackLeniency: 0.7
Mode: 0
LetterboxInBreaks: 0

[Editor]
Bookmarks: 133928
DistanceSpacing: 1
BeatDivisor: 4
GridSize: 4

[Metadata]
Title:You Only Love
TitleUnicode:You Only Love
Artist:TVXQ
ArtistUnicode:TVXQ
Creator:Teru21
Version:Xinely in Love
Source:
Tags:DBSK Tohoshinki Hinsvar Xinely dong bang shin ki o jung ban hap thsk
BeatmapID:190257
BeatmapSetID:64740

[Difficulty]
HPDrainRate:4
CircleSize:3
OverallDifficulty:4
ApproachRate:4
SliderMultiplier:2
SliderTickRate:2

[Events]
//Background and Video events
0,0,"BG.jpg"
//Break Periods
2,73249,75311
2,116234,118296
//Storyboard Layer 0 (Background)
//Storyboard Layer 1 (Fail)
//Storyboard Layer 2 (Pass)
//Storyboard Layer 3 (Foreground)
//Storyboard Sound Samples
//Background Colour Transformations
3,100,139,139,139

[TimingPoints]
4990,895.522388059701,4,2,1,50,1,0
13050,-100,4,2,2,50,0,0
13273,-100,4,2,1,50,0,0
18422,-100,4,2,2,50,0,0
18646,-100,4,2,1,50,0,0
34550,-100,4,2,2,50,0,0
34766,-100,4,2,1,50,0,0
47962,-100,4,2,1,70,0,1
48870,-100,4,2,2,70,0,1
49094,-100,4,2,1,70,0,1
56034,-100,4,2,2,70,0,1
56258,-100,4,2,1,70,0,1
73029,-100,4,2,1,50,0,0
88273,-100,4,2,2,50,0,0
88497,-100,4,2,1,50,0,0
90934,-100,4,2,1,70,0,1
93646,-100,4,2,2,70,0,1
93870,-100,4,2,1,70,0,1
111557,-100,4,2,2,70,0,1
111781,-100,4,2,1,70,0,1
113348,-100,4,2,2,70,0,1
113572,-100,4,2,1,70,0,1
116034,-100,4,2,1,50,0,0
148230,-100,4,2,1,80,0,1
149169,-100,4,2,2,80,0,1
149392,-100,4,2,1,80,0,1
150960,-100,4,2,2,80,0,1
151184,-100,4,2,1,80,0,1
152751,-100,4,2,2,80,0,1
152975,-100,4,2,1,80,0,1
170661,-100,4,2,2,80,0,1
170885,-100,4,2,1,80,0,1
173809,-100,4,2,1,50,0,0
174252,-100,4,2,2,50,0,0
174467,-100,4,2,1,50,0,0
175144,937.5,4,2,1,50,1,0
177077,1000,4,2,1,50,1,0
179327,1111.11111111111,4,2,1,50,1,0
182104,1111.11111111111,4,2,1,50,1,0

[Colours]
Combo1 : 252,84,134
Combo2 : 197,197,197
Combo3 : 238,191,49

[HitObjects]
44,92,4990,2,0,P|136:24|240:96|240:96,1,200,4|8,0:0|0:0,0:0:0
324,132,6333,1,0,0:0:0
396,192,6781,2,0,P|360:308,1,100,2|0,0:0|0:0,0:0:0
272,320,7676,1,8,0:0:0
100,196,8572,6,0,P|193:231,1,100,2|0,0:0|0:0,0:0:0
292,232,9467,2,0,P|409:196,1,100,8|0,0:0|0:0,0:0:0
464,136,10363,1,2,0:0:0
404,56,10810,2,0,P|308:136,1,100,0|8,0:0|0:0,0:0:0
452,276,12154,6,0,P|368:336|312:348|312:348|240:328|168:232,1,300,4|0,0:0|0:0,0:0:0
180,168,13945,2,0,P|80:175,1,100,2|0,0:0|0:0,0:0:0
52,272,14840,1,8,0:0:0
128,340,15288,1,0,0:0:0
156,244,15736,6,0,P|257:303,1,100,2|0,0:0|0:0,0:0:0
344,300,16631,2,0,P|464:252,1,100,8|0,0:0|0:0,0:0:0
456,164,17527,2,0,P|384:128|324:212|324:212|256:124|200:168,1,300,2|0,0:0|0:0,0:0:0
116,120,19318,6,0,P|108:204|104:252,2,100,4|0|8,0:0|0:0|0:0,0:0:0
204,136,20661,1,0,0:0:0
260,220,21109,2,0,P|236:272|236:272|168:284,1,100,2|0,0:0|0:0,0:0:0
96,264,22004,1,8,0:0:0
108,164,22452,5,0,0:0:0
204,136,22900,2,0,P|256:56|364:76,1,200,2|8,0:0|0:0,0:0:0
444,96,24243,1,0,0:0:0
436,192,24691,2,0,P|452:268|452:268|424:316|424:316|332:320,1,200,2|8,0:0|0:0,0:0:0
320,228,26034,1,0,0:0:0
340,132,26482,6,0,P|464:72,2,100,2|0|8,0:0|0:0|0:0,0:0:0
240,140,27825,1,0,0:0:0
300,288,29169,2,0,P|152:320|124:176,1,300,8|0,0:0|0:0,0:0:0
36,140,30960,5,8,0:0:0
116,84,31407,1,0,0:0:0
208,44,31855,1,2,0:0:0
304,72,32303,2,0,P|224:148,1,100,0|8,0:0|0:0,0:0:0
228,240,33198,1,4,0:0:0
320,276,33646,6,0,P|392:316|332:216,1,300,2|0,0:0|0:0,0:0:0
248,188,35437,2,0,P|340:104,1,100,2|0,0:0|0:0,0:0:0
364,28,36333,1,8,0:0:0
264,40,36781,6,0,P|228:80|228:80|184:52|140:84|140:84|100:36,1,200,0|0,0:0|0:0,0:0:0
36,128,38124,1,8,0:0:0
44,228,38572,2,0,P|139:294,1,100,0|2,0:0|0:0,0:0:0
220,320,39467,1,0,0:0:0
320,308,39915,2,0,P|407:259,1,100,8|0,0:0|0:0,0:0:0
344,180,40810,6,0,P|420:128|356:52,1,200,2|8,0:0|0:0,0:0:0
272,64,42154,1,0,0:0:0
176,92,42601,1,2,0:0:0
84,132,43049,2,0,P|10:223,1,100,0|8,0:0|0:0,0:0:0
60,304,43945,1,0,0:0:0
156,276,44392,6,0,P|177:284|209:264|201:208|201:208|265:220|277:156,1,200,2|8,0:0|0:0,0:0:0
256,192,45736,12,4,47527,0:0:0
98,148,47975,6,0,P|28:100|18:196|50:217|62:232|114:256|114:256|177:233|198:205|218:155|163:98|119:168,1,400,2|2,0:0|0:0,0:0:0
212,76,50213,2,0,P|328:60,1,100,0|8,0:0|0:0,0:0:0
404,96,51109,1,0,0:0:0
444,188,51557,6,0,P|400:204|380:288,1,100,2|0,0:0|0:0,0:0:0
464,296,52452,2,0,P|428:332|344:336,1,100,8|0,0:0|0:0,0:0:0
300,276,53348,2,0,P|192:356|136:308,1,200,2|8,0:0|0:0,0:0:0
68,276,54691,1,0,0:0:0
72,172,55139,6,0,P|116:84|128:200,1,300,2|0,0:0|0:0,0:0:0
192,280,56930,1,2,0:0:0
276,224,57378,1,0,0:0:0
364,276,57825,2,0,P|384:248|432:280|456:239,1,100,8|0,0:0|0:0,0:0:0
388,164,58721,2,0,P|336:172|304:120|304:120|272:72|192:84,1,200,2|4,0:0|0:0,0:0:0
256,192,60064,12,0,61855,0:0:0
44,216,62303,6,0,P|48:116|48:116|144:60,1,200,2|8,0:0|0:0,0:0:0
196,148,63646,1,4,0:0:0
272,76,64094,1,2,0:0:0
372,80,64542,2,0,P|400:132|356:164,1,100,0|8,0:0|0:0,0:0:0
444,236,65437,6,0,P|412:336|336:260|280:320,1,200,2|0,0:0|0:0,0:0:0
180,304,66781,2,0,P|116:292|84:232,2,100,8|0|2,0:0|0:0|0:0,0:0:0
168,204,68124,1,0,0:0:0
156,104,68572,2,0,P|208:108|236:164,1,100,8|0,0:0|0:0,0:0:0
296,224,69467,6,0,P|356:284|424:200,1,200,2|8,0:0|0:0,0:0:0
424,120,70810,1,0,0:0:0
136,120,72154,2,0,P|235:140,1,100,8|4,0:0|0:0,0:0:0
332,160,73049,1,6,0:0:0
120,72,76631,6,0,P|120:168|216:176,1,200,6|8,0:0|0:0,0:0:0
296,136,77975,1,0,0:0:0
400,140,78422,1,2,0:0:0
380,240,78870,2,0,P|264:312,1,100,0|8,0:0|0:0,0:0:0
216,228,79766,5,0,0:0:0
132,176,80213,1,2,0:0:0
64,100,80661,1,0,0:0:0
164,88,81109,2,0,P|288:96,1,100,8|4,0:0|0:0,0:0:0
348,148,82004,1,2,0:0:0
420,220,82452,2,0,P|324:296,1,100,0|8,0:0|0:0,0:0:0
240,284,83348,1,8,0:0:0
168,216,83795,6,0,P|76:152,2,100,2|0|8,0:0|0:0|0:0,0:0:0
236,144,85139,2,0,P|352:100,1,100,0|2,0:0|0:0,0:0:0
376,196,86034,1,0,0:0:0
316,276,86482,1,8,0:0:0
216,272,86930,1,0,0:0:0
128,228,87378,6,0,P|28:188|160:120,1,300,2|0,0:0|0:0,0:0:0
204,160,89169,1,2,0:0:0
272,88,89616,1,0,0:0:0
344,160,90064,2,0,P|444:224,1,100,8|0,0:0|0:0,0:0:0
384,304,90960,5,6,0:0:0
284,300,91407,2,0,P|152:296,1,100,0|8,0:0|0:0,0:0:0
116,232,92303,1,0,0:0:0
160,140,92751,6,0,P|144:124|144:124|120:96|56:136|88:204|116:204|144:224|160:232|160:232|184:244|204:296|160:324,1,300,6|0,0:0|0:0,0:0:0
224,228,94542,2,0,P|260:204|288:204|316:132|256:96|228:124|228:124|212:144,1,200,2|8,0:0|0:0,0:0:0
136,200,95885,1,0,0:0:0
64,268,96333,1,2,0:0:0
40,172,96781,1,0,0:0:0
112,100,97228,2,0,P|164:76|204:116,1,100,8|0,0:0|0:0,0:0:0
296,96,98124,6,0,P|408:144,1,100,2|0,0:0|0:0,0:0:0
468,192,99019,2,0,P|352:232,1,100,8|0,0:0|0:0,0:0:0
320,308,99915,1,2,0:0:0
220,308,100363,6,0,P|144:288|104:248,1,100,0|8,0:0|0:0,0:0:0
48,224,101258,1,0,0:0:0
68,124,101706,2,0,P|152:116|160:220,1,200,6|8,0:0|0:0,0:0:0
256,192,103049,12,0,104840,0:0:0
60,120,105288,6,0,P|120:120|144:168|144:168|228:120,1,200,2|8,0:0|0:0,0:0:0
316,68,106631,1,4,0:0:0
400,124,107079,2,0,P|380:172|380:172|328:220,1,100,2|0,0:0|0:0,0:0:0
328,304,107975,1,8,0:0:0
228,292,108422,6,0,P|148:272|220:216,1,200,0|0,0:0|0:0,0:0:0
300,236,109766,1,8,0:0:0
384,184,110213,1,0,0:0:0
308,120,110661,1,2,0:0:0
208,128,111109,2,0,P|209:45|137:85,1,200,0|4,0:0|0:0,0:0:0
104,176,112452,5,2,0:0:0
188,232,112900,2,0,P|240:244|288:220|288:220|312:272|396:304,1,200,0|4,0:0|0:0,0:0:0
408,200,114243,1,2,0:0:0
224,128,115139,2,0,P|224:232|224:232|344:228,1,200,8|2,0:0|0:0,0:0:0
36,296,119616,6,0,P|272:296,1,200,2|8,0:0|0:0,0:0:0
332,268,120960,1,0,0:0:0
336,168,121407,2,0,P|100:168,1,200,2|8,0:0|0:0,0:0:0
172,72,122751,1,0,0:0:0
272,80,123198,6,0,P|404:80|424:160,1,200,2|8,0:0|0:0,0:0:0
428,224,124542,1,0,0:0:0
360,296,124989,1,2,0:0:0
260,276,125437,1,0,0:0:0
156,256,125885,2,0,P|80:232,2,50,8|0|0,0:0|0:0|0:0,0:0:0
144,156,126781,6,0,P|360:188,1,200,2|8,0:0|0:0,0:0:0
352,84,128124,1,0,0:0:0
260,48,128572,1,2,0:0:0
152,68,129019,1,0,0:0:0
92,148,129467,1,8,0:0:0
140,236,129915,2,0,P|96:240|128:296,1,100,0|2,0:0|0:0,0:0:0
192,312,130810,5,0,0:0:0
292,296,131258,2,0,P|340:276|260:204,2,200,8|2|8,0:0|0:0|0:0,0:0:0
204,248,133497,1,0,0:0:0
160,160,133945,6,0,P|184:80|88:96,1,200,6|8,0:0|0:0,0:0:0
36,160,135288,1,0,0:0:0
80,248,135736,2,0,P|26:320|98:328,1,200,2|8,0:0|0:0,0:0:0
196,316,137079,1,0,0:0:0
268,248,137527,6,0,P|238:167|214:215,1,200,2|8,0:0|0:0,0:0:0
112,220,138870,1,0,0:0:0
72,128,139318,1,2,0:0:0
164,92,139766,1,0,0:0:0
232,164,140213,2,0,P|304:160,2,50,8|0|0,0:0|0:0|0:0,0:0:0
308,228,141109,6,0,P|208:304,2,100,2|0|8,0:0|0:0|0:0,0:0:0
408,212,142452,1,0,0:0:0
424,112,142900,1,2,0:0:0
324,100,143348,2,0,P|220:136,1,100,0|8,0:0|0:0,0:0:0
128,148,144243,2,0,P|52:168,2,50,0|0|2,0:0|0:0|0:0,0:0:0
256,192,145139,12,0,147378,0:0:0
432,272,148273,2,0,P|449:227|508:280|492:331|473:361|411:388|411:388|358:368|345:354|311:335|315:239|377:276,1,400,6|2,0:0|0:0,0:0:0
428,192,150512,6,0,P|444:208|444:208|468:236|532:196|500:128|472:128|444:108|428:100|428:100|404:88|384:36|428:8,1,300,0|2,0:0|0:0,0:0:0
364,104,152303,2,0,P|328:128|300:128|272:200|332:236|360:208|360:208|376:188,1,200,0|0,0:0|0:0,0:0:0
404,288,153646,2,0,P|357:377,1,100,2|0,0:0|0:0,0:0:0
260,360,154542,2,0,P|308:272,1,100,8|0,0:0|0:0,0:0:0
280,176,155437,5,2,0:0:0
180,184,155885,2,0,P|128:200|96:252,1,100,0|8,0:0|0:0,0:0:0
180,296,156781,1,0,0:0:0
280,284,157228,2,0,P|328:268|348:204,1,100,2|0,0:0|0:0,0:0:0
440,188,158124,1,8,0:0:0
488,272,158572,6,0,P|476:324|476:324|408:324,1,100,0|2,0:0|0:0,0:0:0
328,320,159467,1,0,0:0:0
232,344,159916,2,0,P|100:340,2,100,8|0|2,0:0|0:0|0:0,0:0:0
204,248,161259,1,0,0:0:0
108,236,161707,2,0,P|128:100,1,100,8|0,0:0|0:0,0:0:0
192,64,162601,6,0,P|252:60|272:128|272:128|352:92,1,200,2|8,0:0|0:0,0:0:0
440,44,163945,1,4,0:0:0
440,144,164392,2,0,P|368:240,1,100,2|0,0:0|0:0,0:0:0
328,304,165288,1,8,0:0:0
228,312,165736,6,0,P|236:254|220:208|220:208|188:248|148:304|148:304|157:264|144:188|144:188,1,300,0|8,0:0|0:0,0:0:0
48,260,167527,1,0,0:0:0
64,160,167975,1,2,0:0:0
148,232,168422,2,0,P|244:180,1,100,0|8,0:0|0:0,0:0:0
324,156,169318,1,0,0:0:0
400,96,169766,6,0,P|312:0|240:104|240:104|156:-16|60:120,1,400,2|6,0:0|0:0,0:0:0
76,100,172452,2,0,P|108:272|244:336|244:336|376:268|400:88,1,600,8|2,0:0|0:0,0:0:0
68,296,177077,6,0,P|192:236,2,100,2|0|12,0:0|0:0|0:0,0:0:0
64,204,178577,1,0,0:0:0
360,48,180438,2,0,P|412:4|440:68|440:68|504:28|520:132,2,200,0|0|4,0:0|0:0|0:0,0:0:0
