osu file format v11

[General]
AudioFilename: You Only Love.mp3
AudioLeadIn: 500
PreviewTime: 47975
Countdown: 0
SampleSet: Soft
StackLeniency: 0.7
Mode: 0
LetterboxInBreaks: 0

[Editor]
Bookmarks: 133928
DistanceSpacing: 0.8
BeatDivisor: 4
GridSize: 4

[Metadata]
Title:You Only Love
TitleUnicode:You Only Love
Artist:TVXQ
ArtistUnicode:TVXQ
Creator:Teru21
Version:Our Meeting
Source:
Tags:DBSK Tohoshinki Hinsvar Xinely dong bang shin ki o jung ban hap thsk
BeatmapID:191057
BeatmapSetID:64740

[Difficulty]
HPDrainRate:2
CircleSize:3
OverallDifficulty:2
ApproachRate:2
SliderMultiplier:1.4
SliderTickRate:2

[Events]
//Background and Video events
0,0,"BG.jpg"
//Break Periods
2,116234,132385
2,173547,175517
//Storyboard Layer 0 (Background)
//Storyboard Layer 1 (Fail)
//Storyboard Layer 2 (Pass)
//Storyboard Layer 3 (Foreground)
//Storyboard Sound Samples
//Background Colour Transformations
3,100,139,139,139

[TimingPoints]
4990,895.522388059701,4,2,1,60,1,0
54243,-100,4,2,2,60,0,0
54467,-100,4,2,1,60,0,0
95437,-100,4,2,2,60,0,0
95661,-100,4,2,1,60,0,0
149169,-100,4,2,2,60,0,0
149392,-100,4,2,1,60,0,0
150960,-100,4,2,2,60,0,0
151184,-100,4,2,1,60,0,0
152751,-100,4,2,2,60,0,0
152975,-100,4,2,1,60,0,0
161706,-100,4,2,2,60,0,0
161930,-100,4,2,1,60,0,0
175144,937.5,4,2,1,60,1,0
177077,1034.48275862069,4,2,1,60,1,0
179327,1111.11111111111,4,2,1,60,1,0
182104,1111.11111111111,4,2,1,60,1,0

[Colours]
Combo1 : 252,84,134
Combo2 : 197,197,197
Combo3 : 238,191,49

[HitObjects]
256,324,4989,2,0,B|256:176,1,140,4|2,0:0|0:0,0:0:0
256,128,6333,2,0,B|244:80|200:32|136:32,1,140
104,36,7676,1,2,0:0:0
32,124,8572,6,0,B|24:196|24:196|56:268,1,140,0|2,0:0|0:0,0:0:0
88,300,9915,2,0,B|164:336|232:296,1,140
268,268,11258,1,2,0:0:0
332,176,12154,6,0,B|332:112|332:112|332:92|348:60|384:52,1,140,0|2,0:0|0:0,0:0:0
420,88,13497,2,0,B|420:152|420:152|420:172|404:204|368:212,1,140
328,232,14840,2,0,B|232:232,1,70,2|0,0:0|0:0,0:0:0
200,232,15736,6,0,B|48:232,1,140,0|2,0:0|0:0,0:0:0
24,192,17079,2,0,B|0:144|0:144|0:80|44:48|104:48|128:76,1,210,0|2,0:0|0:0,0:0:0
216,76,19318,6,0,B|264:84|288:72|288:72|300:88|352:104,1,140,4|2,0:0|0:0,0:0:0
396,132,20661,2,0,B|412:168|396:204|396:204|380:240|400:288,1,140
408,324,22004,1,2,0:0:0
296,348,22900,6,0,B|228:368|228:368|160:344,1,140,0|2,0:0|0:0,0:0:0
124,304,24243,2,0,B|96:252|124:200|124:200|156:148|120:88,1,210,0|2,0:0|0:0,0:0:0
24,144,26482,6,0,B|112:116|88:16,1,140,0|2,0:0|0:0,0:0:0
148,36,27825,2,0,B|160:120|228:128|276:104|276:20,1,210,0|2,0:0|0:0,0:0:0
384,56,30064,6,0,B|372:140|312:188,1,140,0|2,0:0|0:0,0:0:0
224,232,31855,1,2,0:0:0
228,120,32751,1,2,0:0:0
324,180,33646,6,0,B|366:253|348:328,1,140,0|2,0:0|0:0,0:0:0
312,356,34990,2,0,B|220:356|220:356|160:324,1,140
132,300,36333,1,2,0:0:0
64,208,37228,6,0,B|124:172|180:188|212:224,1,140,0|2,0:0|0:0,0:0:0
240,244,38572,2,0,B|300:284|356:264|388:228,1,140
404,196,39915,1,2,0:0:0
452,96,40810,6,0,B|404:52|404:52|320:40,1,140,0|2,0:0|0:0,0:0:0
272,40,42154,2,0,B|197:50|197:50|145:98,1,140
116,140,43497,2,0,B|116:224,1,70,2|0,0:0|0:0,0:0:0
256,192,44392,12,4,47975,0:0:0
208,244,48870,5,8,0:0:0
224,132,49766,1,0,0:0:0
312,200,50661,5,8,0:0:0
208,244,51557,2,0,B|140:268|140:268|68:240,1,140,0|8,0:0|0:0,0:0:0
148,156,53348,6,0,B|192:124|272:100|356:116|436:172,1,280,0|0,0:0|0:0,0:0:0
344,244,56034,2,0,B|276:204|204:244,1,140,8|0,0:0|0:0,0:0:0
276,336,57825,6,0,B|276:48,1,280,8|8,0:0|0:0,0:0:0
164,52,60512,2,0,B|128:120|164:200,1,140,0|8,0:0|0:0,0:0:0
252,124,62303,6,0,B|412:124,1,140,4|8,0:0|0:0,0:0:0
448,128,63646,2,0,B|448:176|480:192|480:192|448:208|448:256,1,140
432,300,64990,1,8,0:0:0
324,332,65885,6,0,B|172:332,1,140,0|8,0:0|0:0,0:0:0
112,248,67676,2,0,B|252:248,1,140,0|8,0:0|0:0,0:0:0
364,268,69467,6,0,B|416:240|416:240|420:152,1,140,4|8,0:0|0:0,0:0:0
428,104,70810,1,2,0:0:0
260,108,72154,6,0,B|196:160|236:240,1,140,8|0,0:0|0:0,0:0:0
336,188,73945,1,8,0:0:0
412,272,74840,2,0,B|464:216|440:140,1,140,0|8,0:0|0:0,0:0:0
336,92,76631,6,0,B|188:68,1,140,0|2,0:0|0:0,0:0:0
164,116,77975,2,0,B|308:140,1,140
356,152,79318,1,2,0:0:0
360,264,80213,6,0,B|364:356,2,70,0|0|2,0:0|0:0|0:0,0:0:0
312,232,81557,2,0,B|264:208|208:220|180:268,1,140
160,308,82900,1,2,0:0:0
48,308,83795,6,0,B|48:232|48:232|72:152,1,140,0|2,0:0|0:0,0:0:0
96,124,85139,2,0,B|244:124,1,140
292,124,86482,1,2,0:0:0
392,72,87378,6,0,B|476:72,2,70,0|0|2,0:0|0:0|0:0,0:0:0
256,192,88721,12,4,90960,0:0:0
128,92,91855,21,8,0:0:0
80,64,92303,2,0,P|64:100|36:116|36:116|48:148|88:200|156:180,1,210,0|8,0:0|0:0,0:0:0
196,80,94542,6,0,B|424:80,1,210
452,112,96333,2,0,B|454:153|454:153|427:211|427:211|390:233,1,140,0|8,0:0|0:0,0:0:0
304,284,98124,6,0,B|256:280|236:300|236:300|204:328|212:380,1,140,0|8,0:0|0:0,0:0:0
156,360,99467,2,0,B|156:216,1,140
156,164,100810,1,8,0:0:0
44,160,101706,6,0,B|76:96|76:96|148:40,1,140,0|8,0:0|0:0,0:0:0
184,48,103049,2,0,B|304:48|304:48|328:88|356:100|384:104,1,210,0|8,0:0|0:0,0:0:0
484,108,105288,6,0,B|508:156|468:196,2,70,0|0|8,0:0|0:0|0:0,0:0:0
448,64,106631,1,0,0:0:0
448,232,107975,6,0,B|448:308,2,70,8|0|0,0:0|0:0|0:0,0:0:0
368,152,109766,1,8,0:0:0
288,231,110661,1,0,0:0:0
208,151,111557,1,8,0:0:0
128,228,112452,6,0,B|92:188|84:128|128:72,1,140,0|8,0:0|0:0,0:0:0
152,60,113795,1,0,0:0:0
152,60,115139,2,0,B|312:60,1,140,8|0,0:0|0:0,0:0:0
432,320,133945,22,0,B|288:320,1,140,0|2,0:0|0:0,0:0:0
368,236,135736,2,0,B|212:236,1,140,0|2,0:0|0:0,0:0:0
152,320,137527,6,0,B|108:268|108:268|108:196,2,140,0|2|0,0:0|0:0|0:0,0:0:0
264,320,140213,2,0,B|352:320,2,70,2|0|0,0:0|0:0|0:0,0:0:0
264,208,142004,5,2,0:0:0
264,96,142900,1,0,0:0:0
384,152,143795,1,2,0:0:0
256,192,144691,12,0,146482,0:0:0
248,116,147378,5,8,0:0:0
248,116,148273,2,0,B|216:72|162:65|79:114|95:200|158:287|260:308|260:308|365:272|440:204|440:21|236:52|256:188,1,840,4|0,0:0|0:0,0:0:0
256,188,154542,1,8,0:0:0
348,128,155437,6,0,B|416:160|416:160|448:220,1,140,0|8,0:0|0:0,0:0:0
444,272,156781,2,0,B|412:332|412:332|345:361,1,140
292,360,158124,6,0,B|260:336|224:352|224:352|184:368|152:344,1,140,8|0,0:0|0:0,0:0:0
196,244,159915,1,8,0:0:0
196,132,160810,2,0,B|264:132|264:132|304:208|304:208|364:208,1,210,0|0,0:0|0:0,0:0:0
372,152,162601,6,0,B|308:20,1,140,0|8,0:0|0:0,0:0:0
256,28,163945,2,0,B|192:68|116:24,1,140
68,20,165288,1,8,0:0:0
16,120,166184,5,4,0:0:0
68,220,167079,1,8,0:0:0
120,120,167975,1,0,0:0:0
172,220,168870,2,0,B|256:220,1,70,8|0,0:0|0:0,0:0:0
300,220,169766,6,0,B|372:220|372:220|452:256,1,140,4|8,0:0|0:0,0:0:0
484,276,171109,1,0,0:0:0
328,340,172452,2,0,B|256:340|256:340|193:313,1,140,8|4,0:0|0:0,0:0:0
460,56,177077,6,0,B|460:200,1,140,6|0,0:0|0:0,0:0:0
460,252,178628,1,2,0:0:0
232,152,180438,2,0,B|224:76|160:64|76:120|100:192|148:272|264:300|264:300|369:264|451:197|428:4|244:88|292:184,1,770,0|4,0:0|0:0,0:0:0
