osu file format v11

[General]
AudioFilename: You Only Love.mp3
AudioLeadIn: 0
PreviewTime: -1
Countdown: 0
SampleSet: Soft
StackLeniency: 0.7
Mode: 0
LetterboxInBreaks: 0

[Editor]
Bookmarks: 4989,19318,33646,47975,76631,90960,105288,119616,133945,148273,162601
DistanceSpacing: 1.2
BeatDivisor: 8
GridSize: 4

[Metadata]
Title:You Only Love
TitleUnicode:You Only Love
Artist:TVXQ
ArtistUnicode:TVXQ
Creator:Teru21
Version:Hinsvar in Happiness
Source:
Tags:DBSK Tohoshinki Hinsvar Xinely dong bang shin ki o jung ban hap thsk
BeatmapID:190248
BeatmapSetID:64740

[Difficulty]
HPDrainRate:6
CircleSize:3
OverallDifficulty:7
ApproachRate:8
SliderMultiplier:2.8
SliderTickRate:2

[Events]
//Background and Video events
0,0,"BG.jpg"
//Break Periods
2,73697,75881
2,116682,118866
2,173548,176327
//Storyboard Layer 0 (Background)
//Storyboard Layer 1 (Fail)
//Storyboard Layer 2 (Pass)
//Storyboard Layer 3 (Foreground)
//Storyboard Sound Samples
//Background Colour Transformations
3,100,139,139,139

[TimingPoints]
4990,895.522388059701,4,2,1,60,1,0
47975,-66.6666666666667,4,2,1,80,0,1
63646,-50,4,2,1,80,0,1
64542,-66.6666666666667,4,2,1,80,0,1
73049,-100,4,2,1,60,0,0
90960,-66.6666666666667,4,2,1,80,0,1
106631,-50,4,2,1,80,0,1
107527,-66.6666666666667,4,2,1,80,0,1
116034,-100,4,2,1,60,0,0
119616,-100,4,2,1,70,0,0
148273,-66.6666666666667,4,2,1,90,0,1
171109,-66.6666666666667,4,2,1,80,0,0
175144,937.5,4,2,1,60,1,0
177077,1000,4,2,1,60,1,0
179327,1111.11111111111,4,2,1,60,1,0
182104,1111.11111111111,4,2,1,60,1,0

[Colours]
Combo1 : 252,84,134
Combo2 : 197,197,197
Combo3 : 238,191,49

[HitObjects]
408,184,4990,2,0,B|460:240|448:324,2,140,2|0|8,0:0|0:0|0:0,0:0:0
240,168,6333,1,2,0:0:0
292,328,6781,1,0,0:0:0
128,288,7228,1,0,0:0:0
128,288,7676,6,0,B|112:216,1,70,8|0,0:0|0:0,0:0:0
136,36,8124,2,0,B|152:108,1,70,0|0,0:0|0:0,0:0:0
296,280,8572,6,0,B|264:144,1,140,2|0,0:0|0:0,0:0:0
240,64,9243,1,0,0:0:0
316,28,9467,2,0,B|352:16|388:40,2,70,8|0|2,0:0|0:0|0:0,0:0:0
384,184,10363,1,0,0:0:0
276,312,10810,1,0,0:0:0
276,312,11258,6,0,B|348:292,1,70,8|0,0:0|0:0,0:0:0
176,160,11706,2,0,B|104:180,1,70,0|0,0:0|0:0,0:0:0
48,236,12154,6,0,B|88:300|160:324,2,140,2|0|8,0:0|0:0|0:0,0:0:0
48,236,13497,2,0,B|112:208,1,70,2|0,0:0|0:0,0:0:0
188,172,13945,1,0,0:0:0
188,172,14392,2,0,B|188:244,1,70
88,152,14840,6,0,B|88:80,1,70,10|0,0:0|0:0,0:0:0
288,82,15288,2,0,B|288:152,1,70
388,316,15736,5,2,0:0:0
380,60,16184,1,0,0:0:0
124,68,16631,1,8,0:0:0
132,324,17079,1,2,0:0:0
132,324,17527,6,0,B|204:312,1,70,0|0,0:0|0:0,0:0:0
273,148,17975,2,0,B|204:160,1,70,0|0,0:0|0:0,0:0:0
310,71,18422,6,0,B|380:60,1,70,8|0,0:0|0:0,0:0:0
308,224,18870,2,0,B|238:235,1,70,0|0,0:0|0:0,0:0:0
156,240,19318,6,0,B|72:128,1,140,2|0,0:0|0:0,0:0:0
356,144,20213,2,0,B|440:256,1,140,8|2,0:0|0:0,0:0:0
440,256,21109,6,0,B|412:324,1,70,0|0,0:0|0:0,0:0:0
344,200,21557,2,0,B|316:268,1,70,0|0,0:0|0:0,0:0:0
248,144,22004,2,0,B|220:212,1,70,8|0,0:0|0:0,0:0:0
152,88,22452,2,0,B|124:156,1,70,0|0,0:0|0:0,0:0:0
104,236,22900,6,0,B|136:304|212:324,1,140,2|0,0:0|0:0,0:0:0
408,148,23795,2,0,B|376:80|300:60,1,140,8|2,0:0|0:0,0:0:0
304,61,24691,6,0,B|292:132,1,70,0|0,0:0|0:0,0:0:0
207,322,25139,2,0,B|220:252,1,70,0|0,0:0|0:0,0:0:0
212,172,25587,2,0,B|140:144|72:188,1,140,10|0,0:0|0:0,0:0:0
60,268,26258,1,0,0:0:0
120,324,26482,6,0,B|184:348|260:344,2,140,2|0|8,0:0|0:0|0:0,0:0:0
152,160,27825,1,2,0:0:0
152,160,28273,6,0,B|216:124,1,70
412,160,28721,2,0,B|348:196,1,70,0|0,0:0|0:0,0:0:0
276,232,29169,2,0,B|216:272|200:352,2,140,8|0|2,0:0|0:0|0:0,0:0:0
436,184,30512,1,0,0:0:0
436,184,30960,5,8,0:0:0
404,260,31184,1,0,0:0:0
348,324,31407,1,0,0:0:0
268,348,31631,1,0,0:0:0
184,348,31855,2,0,B|144:272|144:272|88:244|104:180|104:180|80:84,2,280,2|8|2,0:0|0:0|0:0,0:0:0
352,336,34094,6,0,B|420:312,1,70
464,240,34542,2,0,B|480:172|472:100,2,140,8|2|0,0:0|0:0|0:0,0:0:0
464,240,35885,2,0,B|460:312,1,70
384,348,36333,2,0,B|312:360|240:324,1,140,8|2,0:0|0:0,0:0:0
184,272,37004,1,2,0:0:0
140,200,37228,6,0,B|108:136,1,70,2|0,0:0|0:0,0:0:0
212,140,37676,2,0,B|208:68,1,70
300,140,38124,2,0,B|303:70,1,70,8|0,0:0|0:0,0:0:0
372,200,38572,2,0,B|432:72,2,140,2|0|0,0:0|0:0|0:0,0:0:0
324,268,39691,5,0,0:0:0
244,288,39915,1,8,0:0:0
168,256,40139,1,0,0:0:0
120,188,40363,1,2,0:0:0
124,104,40587,1,0,0:0:0
180,40,40810,6,0,B|232:60|232:60|264:32|312:44,1,140,2|0,0:0|0:0,0:0:0
388,80,41482,1,0,0:0:0
436,148,41706,2,0,B|468:196|444:236|444:236|456:280,1,140,8|2,0:0|0:0,0:0:0
400,340,42378,6,0,B|332:352,1,70
192,304,42825,2,0,B|260:292,1,70
336,256,43273,2,0,B|356:224,2,35,0|2|8,0:0|0:0|0:0,0:0:0
96,156,43721,5,2,0:0:0
256,72,43945,1,0,0:0:0
416,156,44169,1,0,0:0:0
176,256,44392,5,2,0:0:0
176,256,44840,1,0,0:0:0
256,140,45064,1,0,0:0:0
336,256,45288,1,8,0:0:0
336,256,45736,5,2,0:0:0
360,176,45960,1,0,0:0:0
420,236,46184,1,0,0:0:0
336,84,46519,5,0,0:0:0
336,84,46631,2,0,B|192:120,1,140,0|8,0:0|0:0,0:0:0
144,180,47303,1,0,0:0:0
140,264,47527,1,0,0:0:0
208,316,47751,1,0,0:0:0
288,336,47975,6,0,B|404:352|492:272,1,210.000008010865,6|0,0:0|0:0,0:0:0
492,184,48646,1,0,0:0:0
452,100,48870,2,0,B|404:68|348:76,2,105.000004005432,8|0|0,0:0|0:0|0:0,0:0:0
340,252,49766,6,0,B|244:296|136:264,1,210.000008010865,2|0,0:0|0:0,0:0:0
64,200,50437,2,0,B|32:156|32:96,2,105.000004005432,0|10|0,0:0|0:0|0:0,0:0:0
156,172,51109,1,0,0:0:0
244,204,51333,1,0,0:0:0
408,72,51557,5,2,0:0:0
136,40,52004,1,0,0:0:0
104,312,52452,1,8,0:0:0
376,344,52900,1,0,0:0:0
453,36,53348,5,2,0:0:0
58,347,53795,1,0,0:0:0
58,347,54243,6,0,B|164:328,1,105.000004005432,8|0,0:0|0:0,0:0:0
288,168,54691,2,0,B|182:187,1,105.000004005432
92,172,55139,6,0,B|104:56|236:36,1,210.000008010865,2|0,0:0|0:0,0:0:0
420,212,56034,2,0,B|408:328|276:348,1,210.000008010865,8|0,0:0|0:0,0:0:0
282,347,56930,6,0,B|264:240,1,105.000004005432,2|0,0:0|0:0,0:0:0
136,120,57378,2,0,B|154:227,1,105.000004005432,0|0,0:0|0:0,0:0:0
376,264,57825,6,0,B|358:160,1,105.000004005432,8|0,0:0|0:0,0:0:0
229,36,58273,2,0,B|247:140,1,105.000004005432,0|0,0:0|0:0,0:0:0
336,332,58721,5,2,0:0:0
116,272,59169,1,0,0:0:0
176,52,59616,5,8,0:0:0
296,52,59840,1,0,0:0:0
396,112,60064,1,0,0:0:0
296,52,60288,1,0,0:0:0
176,52,60512,1,2,0:0:0
176,52,60960,6,0,B|176:160,1,105.000004005432
256,244,61407,2,0,B|256:136,1,105.000004005432,8|0,0:0|0:0,0:0:0
336,227,61855,2,0,B|336:332,1,105.000004005432
432,340,62303,6,0,B|484:276|436:208|436:208|492:144,2,210.000008010865,6|0|8,0:0|0:0|0:0,0:0:0
364,272,63422,1,0,0:0:0
364,272,63646,6,6,B|220:276|92:208,1,280,4|4,0:0|0:0,0:0:0
94,209,64542,6,0,B|88:104,1,105.000004005432
276,272,64990,2,0,B|171:278,1,105.000004005432,8|0,0:0|0:0,0:0:0
336,88,65437,2,0,B|342:193,1,105.000004005432
380,280,65885,6,0,B|480:232|460:96,2,210.000008010865,2|0|8,0:0|0:0|0:0,0:0:0
288,308,67004,1,0,0:0:0
192,312,67228,1,0,0:0:0
100,292,67452,1,0,0:0:0
28,232,67676,1,2,0:0:0
28,232,68124,6,0,B|80:216|120:172,1,105.000004005432
264,284,68572,2,0,B|248:232|204:192,1,105.000004005432,8|0,0:0|0:0,0:0:0
304,48,69019,2,0,B|252:64|212:108,1,105.000004005432,2|0,0:0|0:0,0:0:0
296,156,69467,6,0,B|388:216|500:208,2,210.000008010865,2|0|8,0:0|0:0|0:0,0:0:0
232,84,70587,1,0,0:0:0
140,60,70810,1,2,0:0:0
140,60,72154,2,0,B|96:152|104:268,2,210.000008010865,8|0|6,0:0|0:0|0:0,0:0:0
60,120,76631,6,0,B|112:64|196:64,1,140,2|0,0:0|0:0,0:0:0
264,88,77303,1,0,0:0:0
340,128,77527,1,8,0:0:0
388,200,77751,1,0,0:0:0
376,284,77975,6,0,B|316:328,1,70,2|0,0:0|0:0,0:0:0
136,284,78422,2,0,B|196:328,1,70
256,84,78870,2,0,B|256:228,1,140,0|8,0:0|0:0,0:0:0
256,224,79766,1,2,0:0:0
296,296,79990,1,0,0:0:0
372,332,80213,6,0,B|436:304|476:232,2,140,2|0|8,0:0|0:0|0:0,0:0:0
324,172,81557,1,2,0:0:0
324,172,82004,6,0,B|264:136,1,70,2|0,0:0|0:0,0:0:0
188,212,82452,2,0,B|248:248,1,70,0|2,0:0|0:0,0:0:0
324,288,82900,2,0,B|400:292|460:252,1,140,10|2,0:0|0:0,0:0:0
424,88,83795,5,2,0:0:0
152,24,84243,1,0,0:0:0
88,296,84691,1,8,0:0:0
360,360,85139,1,2,0:0:0
360,360,85587,6,0,B|380:280,1,70
88,296,86034,2,0,B|168:316,1,70
152,24,86482,2,0,B|132:104,1,70,8|2,0:0|0:0,0:0:0
424,88,86930,2,0,B|344:68,1,70,2|0,0:0|0:0,0:0:0
272,80,87378,6,0,B|256:148|296:224,2,140,2|0|8,0:0|0:0|0:0,0:0:0
272,80,88721,1,2,0:0:0
356,64,88945,1,0,0:0:0
436,92,89169,1,2,0:0:0
484,160,89392,1,0,0:0:0
484,244,89616,1,8,0:0:0
440,316,89840,1,0,0:0:0
360,340,90064,1,2,0:0:0
276,332,90288,1,0,0:0:0
208,280,90512,1,8,0:0:0
180,200,90736,1,0,0:0:0
176,116,90960,6,0,B|264:52|380:64,2,210.000008010865,6|0|8,0:0|0:0|0:0,0:0:0
148,304,92303,2,0,B|252:340|364:344,1,210.000008010865,0|2,0:0|0:0,0:0:0
353,343,93198,2,0,B|440:268|424:152,1,210.000008010865,0|8,0:0|0:0,0:0:0
364,80,93870,1,0,0:0:0
272,64,94094,1,0,0:0:0
184,100,94318,1,0,0:0:0
128,176,94542,6,0,B|48:288|168:356,1,210.000008010865,2|0,0:0|0:0,0:0:0
384,208,95437,2,0,B|464:96|344:28,1,210.000008010865,8|0,0:0|0:0,0:0:0
350,31,96333,6,0,B|312:132,1,105.000004005432,2|0,0:0|0:0,0:0:0
95,97,96781,2,0,B|196:136,1,105.000004005432,0|0,0:0|0:0,0:0:0
161,352,97228,2,0,B|200:252,1,105.000004005432,8|0,0:0|0:0,0:0:0
416,286,97676,2,0,B|316:248,1,105.000004005432,0|0,0:0|0:0,0:0:0
276,164,98124,6,0,B|344:80|472:72,2,210.000008010865,2|0|8,0:0|0:0|0:0,0:0:0
276,164,99467,2,0,B|172:156,1,105.000004005432
276,164,99915,2,0,B|268:268,1,105.000004005432,2|0,0:0|0:0,0:0:0
276,164,100363,2,0,B|380:172,1,105.000004005432
64,332,100810,5,8,0:0:0
448,332,101258,1,0,0:0:0
448,236,101482,1,0,0:0:0
64,140,101706,6,0,B|188:168|216:36,1,210.000008010865,2|0,0:0|0:0,0:0:0
308,24,102378,1,0,0:0:0
396,60,102601,5,8,0:0:0
444,144,102825,1,0,0:0:0
448,236,103049,1,0,0:0:0
412,324,103273,1,0,0:0:0
116,324,103497,5,2,0:0:0
68,240,103721,1,0,0:0:0
64,148,103945,1,0,0:0:0
100,60,104169,1,0,0:0:0
256,81,104392,6,0,B|256:292,2,210.000008010865,8|0|6,0:0|0:0|0:0,0:0:0
256,292,105736,2,0,B|312:304|352:248,2,105.000004005432,0|0|8,0:0|0:0|0:0,0:0:0
256,292,106631,6,0,B|136:204|96:64,1,280,4|6,0:0|0:0,0:0:0
97,67,107527,6,0,B|200:52,1,105.000004005432
308,184,107975,2,0,B|205:199,1,105.000004005432,8|0,0:0|0:0,0:0:0
312,332,108422,2,0,B|415:317,1,105.000004005432
480,244,108870,6,0,B|504:144|496:32,2,210.000008010865,2|0|8,0:0|0:0|0:0,0:0:0
396,288,109990,2,0,B|288:304,2,105.000004005432
436,200,110661,5,2,0:0:0
388,120,110885,1,0,0:0:0
304,76,111109,1,0,0:0:0
208,84,111333,1,0,0:0:0
76,184,111557,5,8,0:0:0
124,264,111781,1,0,0:0:0
208,308,112004,1,2,0:0:0
304,300,112228,1,0,0:0:0
388,256,112452,6,0,B|432:160|400:52,1,210.000008010865,2|0,0:0|0:0,0:0:0
124,128,113348,2,0,B|80:224|112:332,1,210.000008010865,8|2,0:0|0:0,0:0:0
112,332,115139,2,0,B|324:312,2,210.000008010865,0|0|6,0:0|0:0|0:0,0:0:0
40,124,119616,6,0,B|92:68|168:92,1,140,6|0,0:0|0:0,0:0:0
240,136,120288,1,0,0:0:0
472,260,120512,6,0,B|420:316|344:292,1,140,8|0,0:0|0:0,0:0:0
272,248,121184,1,0,0:0:0
340,164,121407,6,0,B|408:144,1,70,2|0,0:0|0:0,0:0:0
172,220,121855,2,0,B|104:240,1,70,0|0,0:0|0:0,0:0:0
248,168,122303,6,0,B|208:24,1,140,8|0,0:0|0:0,0:0:0
128,24,122975,1,0,0:0:0
56,68,123198,6,0,B|28:144|68:204,1,140,6|0,0:0|0:0,0:0:0
124,264,123870,1,0,0:0:0
200,304,124094,2,0,B|232:320|272:304,2,70,8|0|0,0:0|0:0|0:0,0:0:0
236,232,124766,1,0,0:0:0
276,152,124990,5,2,0:0:0
272,12,125213,1,0,0:0:0
396,72,125437,1,0,0:0:0
236,232,125661,5,2,0:0:0
116,312,125885,1,8,0:0:0
240,372,126109,1,0,0:0:0
456,316,126333,6,0,B|392:284,1,70,2|0,0:0|0:0,0:0:0
332,224,126781,2,0,B|320:152|348:84,1,140,6|0,0:0|0:0,0:0:0
420,44,127452,1,0,0:0:0
472,108,127676,5,8,0:0:0
460,192,127900,1,0,0:0:0
412,260,128124,1,0,0:0:0
344,312,128348,6,0,B|272:324,1,70,0|2,0:0|0:0,0:0:0
168,72,128795,2,0,B|240:60,1,70
324,180,129243,1,0,0:0:0
324,180,129467,6,0,B|172:208,1,140,8|0,0:0|0:0,0:0:0
104,224,130139,1,0,0:0:0
408,160,130363,6,0,B|408:228|384:304,1,140,6|0,0:0|0:0,0:0:0
316,348,131034,1,0,0:0:0
232,336,131258,2,0,B|160:328,2,70,8|0|0,0:0|0:0|0:0,0:0:0
280,48,131930,5,0,0:0:0
312,124,132154,1,2,0:0:0
296,208,132378,1,2,0:0:0
232,260,132601,2,0,B|160:280,1,70,2|0,0:0|0:0,0:0:0
384,80,133049,5,8,0:0:0
384,80,133273,2,0,B|456:60,1,70,0|0,0:0|0:0,0:0:0
168,144,133721,2,0,B|96:164,1,70,0|6,0:0|0:0,0:0:0
180,312,134392,5,0,0:0:0
264,320,134616,1,0,0:0:0
336,276,134840,1,8,0:0:0
336,276,135288,6,0,B|400:240,1,70
176,108,135736,2,0,B|112:144,1,70,2|0,0:0|0:0,0:0:0
318,155,136184,2,0,B|196:224,1,140,0|8,0:0|0:0,0:0:0
152,296,136855,1,0,0:0:0
204,364,137079,1,0,0:0:0
284,336,137303,1,0,0:0:0
280,252,137527,6,0,B|336:212|416:208,1,140,6|0,0:0|0:0,0:0:0
232,132,138198,2,0,B|176:172|96:176,1,140,2|0,0:0|0:0,0:0:0
28,136,138870,1,0,0:0:0
44,52,139094,1,0,0:0:0
116,24,139300,1,2,0:0:0
256,192,139356,12,0,140885,0:0:0
172,320,141109,6,0,B|116:272|132:192,1,140,6|0,0:0|0:0,0:0:0
340,64,141781,2,0,B|416:144|368:268,1,210,6|0,0:0|0:0,0:0:0
124,286,142676,5,0,0:0:0
124,83,142900,1,2,0:0:0
244,248,143124,1,0,0:0:0
50,185,143348,1,0,0:0:0
243,122,143572,1,0,0:0:0
50,185,143795,6,0,B|124:184|196:224,1,140,8|0,0:0|0:0,0:0:0
252,268,144467,1,0,0:0:0
256,192,144691,12,0,146258,0:0:0
256,192,146482,12,8,147378,0:0:0
92,192,147825,5,0,0:0:0
312,348,148049,1,0,0:0:0
420,108,148273,6,0,B|292:148|348:272,2,210.000008010865,6|0|8,0:0|0:0|0:0,0:0:0
420,108,149616,1,0,0:0:0
460,196,149840,1,0,0:0:0
428,284,150064,1,2,0:0:0
428,284,150512,6,0,B|320:284,1,105.000004005432
204,100,150960,2,0,B|309:100,1,105.000004005432,8|0,0:0|0:0,0:0:0
189,284,151407,2,0,B|84:284,1,105.000004005432
20,216,151855,6,0,B|24:104|108:24,2,210.000008010865,6|0|8,0:0|0:0|0:0,0:0:0
20,216,153198,5,0,0:0:0
256,132,153422,1,0,0:0:0
492,216,153646,1,2,0:0:0
492,216,154094,6,0,B|384:232,1,105.000004005432
256,132,154542,2,0,B|256:240,1,105.000004005432,8|0,0:0|0:0,0:0:0
20,216,154989,2,0,B|128:232,1,105.000004005432
220,236,155437,6,0,B|300:164|312:48,2,210.000008010865,6|0|8,0:0|0:0|0:0,0:0:0
220,236,156781,5,0,0:0:0
400,56,157004,1,0,0:0:0
468,300,157228,1,2,0:0:0
468,300,157676,6,0,B|440:260|436:200,1,105.000004005432
256,260,158124,2,0,B|236:208|244:152,1,105.000004005432,8|0,0:0|0:0,0:0:0
44,220,158572,2,0,B|20:168|44:112,1,105.000004005432
104,48,159019,6,0,B|212:32|320:60,1,210.000008010865,6|0,0:0|0:0,0:0:0
392,108,159691,1,0,0:0:0
312,160,159915,6,0,B|216:208,1,105.000004005432,8|0,0:0|0:0,0:0:0
284,264,160363,2,0,B|380:216,1,105.000004005432,0|0,0:0|0:0,0:0:0
248,100,160810,6,0,B|152:148,1,105.000004005432,2|0,0:0|0:0,0:0:0
340,328,161258,2,0,B|436:280,1,105.000004005432,0|0,0:0|0:0,0:0:0
96,304,161706,5,8,0:0:0
416,80,161930,1,0,0:0:0
96,208,162154,5,0,0:0:0
416,176,162378,1,0,0:0:0
96,112,162601,6,0,B|204:180|284:88,2,210.000008010865,6|0|8,0:0|0:0|0:0,0:0:0
416,176,163945,1,4,0:0:0
284,295,164392,6,0,B|308:192,1,105.000004005432,6|0,0:0|0:0,0:0:0
229,88,164840,2,0,B|204:192,1,105.000004005432,0|0,0:0|0:0,0:0:0
392,268,165288,6,0,B|400:156,1,105.000004005432,14|0,0:0|0:0,0:0:0
120,116,165736,2,0,B|112:228,1,105.000004005432
112,316,166184,6,0,B|212:364|320:344,1,210.000008010865,6|0,0:0|0:0,0:0:0
400,304,166855,1,0,0:0:0
440,216,167079,2,0,B|452:108,1,105.000004005432,8|0,0:0|0:0,0:0:0
292,40,167527,2,0,B|280:148,1,105.000004005432,0|0,0:0|0:0,0:0:0
184,328,167975,6,0,B|84:268|104:144,1,210.000008010865,6|0,0:0|0:0,0:0:0
148,64,168646,1,0,0:0:0
148,64,168870,2,0,B|248:96,1,105.000004005432,8|0,0:0|0:0,0:0:0
364,320,169318,2,0,B|264:288,1,105.000004005432,2|0,0:0|0:0,0:0:0
40,192,169766,5,6,0:0:0
472,192,170213,1,0,0:0:0
103,39,170661,5,6,0:0:0
408,344,171109,1,0,0:0:0
408,344,172452,5,8,0:0:0
103,344,172900,1,0,0:0:0
256,80,173348,1,6,0:0:0
108,312,177077,5,6,0:0:0
136,44,177577,1,0,0:0:0
404,72,178077,1,8,0:0:0
376,340,178577,1,0,0:0:0
256,192,179327,5,6,0:0:0
256,192,180438,12,6,182104,0:0:0
